  0
SECTION
  2
HEADER
  9
$ACADVER
  1
AC1012
  9
$DWGCODEPAGE
  3
dos932
  9
$INSBASE
 10
0.0
 20
0.0
 30
0.0
  9
$EXTMIN
 10
-0.0019620139746053
 20
-0.0126775214737336
 30
-0.0000000000000058
  9
$EXTMAX
 10
172.0070153527684
 20
271.0054372412207
 30
0.0000000000000104
  9
$LIMMIN
 10
0.0
 20
0.0
  9
$LIMMAX
 10
87.50000000000001
 20
138.0
  9
$ORTHOMODE
 70
     0
  9
$REGENMODE
 70
     1
  9
$FILLMODE
 70
     1
  9
$QTEXTMODE
 70
     0
  9
$MIRRTEXT
 70
     1
  9
$DRAGMODE
 70
     2
  9
$LTSCALE
 40
1.0
  9
$OSMODE
 70
  3071
  9
$ATTMODE
 70
     1
  9
$TEXTSIZE
 40
4.0
  9
$TRACEWID
 40
1.0
  9
$TEXTSTYLE
  7
MSゴシック
  9
$CLAYER
  8
L-2
  9
$CELTYPE
  6
CONTINUOUS
  9
$CECOLOR
 62
   256
  9
$CELTSCALE
 40
1.0
  9
$DELOBJ
 70
     1
  9
$DISPSILH
 70
     0
  9
$DIMSCALE
 40
1.0
  9
$DIMASZ
 40
2.5
  9
$DIMEXO
 40
0.5
  9
$DIMDLI
 40
8.0
  9
$DIMRND
 40
0.0
  9
$DIMDLE
 40
0.0
  9
$DIMEXE
 40
1.0
  9
$DIMTP
 40
0.0
  9
$DIMTM
 40
0.0
  9
$DIMTXT
 40
3.2
  9
$DIMCEN
 40
-0.5
  9
$DIMTSZ
 40
0.0
  9
$DIMTOL
 70
     0
  9
$DIMLIM
 70
     0
  9
$DIMTIH
 70
     0
  9
$DIMTOH
 70
     0
  9
$DIMSE1
 70
     0
  9
$DIMSE2
 70
     0
  9
$DIMTAD
 70
     1
  9
$DIMZIN
 70
     8
  9
$DIMBLK
  1

  9
$DIMASO
 70
     1
  9
$DIMSHO
 70
     1
  9
$DIMPOST
  1

  9
$DIMAPOST
  1

  9
$DIMALT
 70
     0
  9
$DIMALTD
 70
     2
  9
$DIMALTF
 40
0.0394
  9
$DIMLFAC
 40
1.0
  9
$DIMTOFL
 70
     1
  9
$DIMTVP
 40
0.0
  9
$DIMTIX
 70
     0
  9
$DIMSOXD
 70
     0
  9
$DIMSAH
 70
     1
  9
$DIMBLK1
  1
OPEN
  9
$DIMBLK2
  1
OPEN
  9
$DIMSTYLE
  2
CAD-STD
  9
$DIMCLRD
 70
     4
  9
$DIMCLRE
 70
     4
  9
$DIMCLRT
 70
     2
  9
$DIMTFAC
 40
0.625
  9
$DIMGAP
 40
0.5
  9
$DIMJUST
 70
     0
  9
$DIMSD1
 70
     0
  9
$DIMSD2
 70
     0
  9
$DIMTOLJ
 70
     1
  9
$DIMTZIN
 70
     8
  9
$DIMALTZ
 70
     0
  9
$DIMALTTZ
 70
     0
  9
$DIMFIT
 70
     3
  9
$DIMUPT
 70
     0
  9
$DIMUNIT
 70
     2
  9
$DIMDEC
 70
     4
  9
$DIMTDEC
 70
     4
  9
$DIMALTU
 70
     2
  9
$DIMALTTD
 70
     2
  9
$DIMTXSTY
  7
BGS
  9
$DIMAUNIT
 70
     0
  9
$LUNITS
 70
     2
  9
$LUPREC
 70
     4
  9
$SKETCHINC
 40
1.0
  9
$FILLETRAD
 40
0.0
  9
$AUNITS
 70
     0
  9
$AUPREC
 70
     0
  9
$MENU
  1
acad
  9
$ELEVATION
 40
0.0
  9
$PELEVATION
 40
0.0
  9
$THICKNESS
 40
0.0
  9
$LIMCHECK
 70
     0
  9
$BLIPMODE
 70
     0
  9
$CHAMFERA
 40
0.0
  9
$CHAMFERB
 40
0.0
  9
$CHAMFERC
 40
0.0
  9
$CHAMFERD
 40
0.0
  9
$SKPOLY
 70
     0
  9
$TDCREATE
 40
2453514.612524224
  9
$TDUPDATE
 40
2455659.548819618
  9
$TDINDWG
 40
0.1242026389
  9
$TDUSRTIMER
 40
0.1242022801
  9
$USRTIMER
 70
     1
  9
$ANGBASE
 50
0.0
  9
$ANGDIR
 70
     0
  9
$PDMODE
 70
     0
  9
$PDSIZE
 40
0.0
  9
$PLINEWID
 40
0.0
  9
$COORDS
 70
     0
  9
$SPLFRAME
 70
     0
  9
$SPLINETYPE
 70
     6
  9
$SPLINESEGS
 70
     8
  9
$ATTDIA
 70
     0
  9
$ATTREQ
 70
     1
  9
$HANDLING
 70
     1
  9
$HANDSEED
  5
24D0
  9
$SURFTAB1
 70
     6
  9
$SURFTAB2
 70
     6
  9
$SURFTYPE
 70
     6
  9
$SURFU
 70
     6
  9
$SURFV
 70
     6
  9
$UCSNAME
  2

  9
$UCSORG
 10
0.0
 20
0.0
 30
0.0
  9
$UCSXDIR
 10
1.0
 20
0.0
 30
0.0
  9
$UCSYDIR
 10
0.0
 20
1.0
 30
0.0
  9
$PUCSNAME
  2

  9
$PUCSORG
 10
0.0
 20
0.0
 30
0.0
  9
$PUCSXDIR
 10
1.0
 20
0.0
 30
0.0
  9
$PUCSYDIR
 10
0.0
 20
1.0
 30
0.0
  9
$USERI1
 70
     0
  9
$USERI2
 70
     0
  9
$USERI3
 70
     0
  9
$USERI4
 70
     0
  9
$USERI5
 70
     0
  9
$USERR1
 40
0.0
  9
$USERR2
 40
0.0
  9
$USERR3
 40
0.0
  9
$USERR4
 40
0.0
  9
$USERR5
 40
0.0
  9
$WORLDVIEW
 70
     1
  9
$SHADEDGE
 70
     3
  9
$SHADEDIF
 70
    70
  9
$TILEMODE
 70
     1
  9
$MAXACTVP
 70
    16
  9
$PINSBASE
 10
0.0
 20
0.0
 30
0.0
  9
$PLIMCHECK
 70
     0
  9
$PEXTMIN
 10
1.000000000000000E+20
 20
1.000000000000000E+20
 30
1.000000000000000E+20
  9
$PEXTMAX
 10
-1.000000000000000E+20
 20
-1.000000000000000E+20
 30
-1.000000000000000E+20
  9
$PLIMMIN
 10
0.0
 20
0.0
  9
$PLIMMAX
 10
420.0
 20
297.0
  9
$UNITMODE
 70
     0
  9
$VISRETAIN
 70
     0
  9
$PLINEGEN
 70
     0
  9
$PSLTSCALE
 70
     1
  9
$TREEDEPTH
 70
  3020
  9
$PICKSTYLE
 70
     1
  9
$CMLSTYLE
  2
STANDARD
  9
$CMLJUST
 70
     0
  9
$CMLSCALE
 40
1.0
  9
$SAVEIMAGES
 70
     1
  0
ENDSEC
  0
SECTION
  2
CLASSES
  0
CLASS
  1
ACDBDICTIONARYWDFLT
  2
AcDbDictionaryWithDefault
  3
AutoCAD 2000
 90
    32768
280
     0
281
     0
  0
CLASS
  1
ACDBPLACEHOLDER
  2
AcDbPlaceHolder
  3
AutoCAD 2000
 90
    32768
280
     0
281
     0
  0
CLASS
  1
LAYOUT
  2
AcDbLayout
  3
AutoCAD 2000
 90
    32768
280
     0
281
     0
  0
CLASS
  1
PLOTSETTINGS
  2
AcDbPlotSettings
  3
AutoCAD 2000
 90
    32768
280
     0
281
     0
  0
CLASS
  1
DICTIONARYVAR
  2
AcDbDictionaryVar
  3
AutoCAD 2000
 90
    32768
280
     0
281
     0
  0
CLASS
  1
LONG_TRANSACTION
  2
AcDbLongTransaction
  3
AutoCAD 2000
 90
    32768
280
     0
281
     0
  0
CLASS
  1
LWPOLYLINE
  2
AcDbPolyline
  3
AutoCAD 2000
 90
    32768
280
     0
281
     1
  0
CLASS
  1
HATCH
  2
AcDbHatch
  3
AutoCAD 2000
 90
    32768
280
     0
281
     1
  0
CLASS
  1
XRECORD
  2
AcDbXrecord
  3
AutoCAD 2000
 90
    32768
280
     0
281
     0
  0
CLASS
  1
LONG_TRANSACTION
  2
AcDbLongTransaction
  3
AutoCAD 2000
 90
    32768
280
     0
281
     0
  0
CLASS
  1
LWPOLYLINE
  2
AcDbPolyline
  3
AutoCAD 2000
 90
    32768
280
     0
281
     1
  0
CLASS
  1
HATCH
  2
AcDbHatch
  3
AutoCAD 2000
 90
    32768
280
     0
281
     1
  0
CLASS
  1
XRECORD
  2
AcDbXrecord
  3
AutoCAD 2000
 90
    32768
280
     0
281
     0
  0
CLASS
  1
LONG_TRANSACTION
  2
AcDbLongTransaction
  3
AutoCAD 2000
 90
    32768
280
     0
281
     0
  0
CLASS
  1
LWPOLYLINE
  2
AcDbPolyline
  3
AutoCAD 2000
 90
    32768
280
     0
281
     1
  0
CLASS
  1
HATCH
  2
AcDbHatch
  3
AutoCAD 2000
 90
    32768
280
     0
281
     1
  0
CLASS
  1
XRECORD
  2
AcDbXrecord
  3
AutoCAD 2000
 90
    32768
280
     0
281
     0
  0
CLASS
  1
LONG_TRANSACTION
  2
AcDbLongTransaction
  3
AutoCAD 2000
 90
    32768
280
     0
281
     0
  0
CLASS
  1
LWPOLYLINE
  2
AcDbPolyline
  3
AutoCAD 2000
 90
    32768
280
     0
281
     1
  0
CLASS
  1
HATCH
  2
AcDbHatch
  3
AutoCAD 2000
 90
    32768
280
     0
281
     1
  0
CLASS
  1
XRECORD
  2
AcDbXrecord
  3
AutoCAD 2000
 90
    32768
280
     0
281
     0
  0
ENDSEC
  0
SECTION
  2
TABLES
  0
TABLE
  2
VPORT
  5
8
330
0
100
AcDbSymbolTable
 70
     6
  0
VPORT
  5
24CD
330
8
100
AcDbSymbolTableRecord
100
AcDbViewportTableRecord
  2
*ACTIVE
 70
     0
 10
0.0
 20
0.0
 11
1.0
 21
1.0
 12
86.00252666939693
 22
135.4963798598735
 13
0.0
 23
0.0
 14
10.0
 24
10.0
 15
10.0
 25
10.0
 16
0.0
 26
0.0
 36
1.0
 17
0.0
 27
0.0
 37
0.0
 40
273.6451077975509
 41
1.822006472491909
 42
50.0
 43
0.0
 44
0.0
 50
0.0
 51
0.0
 71
     0
 72
   100
 73
     1
 74
     0
 75
     0
 76
     0
 77
     0
 78
     0
  0
ENDTAB
  0
TABLE
  2
LTYPE
  5
5
330
0
100
AcDbSymbolTable
 70
     3
  0
LTYPE
  5
12
330
5
100
AcDbSymbolTableRecord
100
AcDbLinetypeTableRecord
  2
BYBLOCK
 70
     0
  3

 72
    65
 73
     0
 40
0.0
  0
LTYPE
  5
13
330
5
100
AcDbSymbolTableRecord
100
AcDbLinetypeTableRecord
  2
BYLAYER
 70
     0
  3

 72
    65
 73
     0
 40
0.0
  0
LTYPE
  5
14
330
5
100
AcDbSymbolTableRecord
100
AcDbLinetypeTableRecord
  2
CONTINUOUS
 70
     0
  3
Solid line
 72
    65
 73
     0
 40
0.0
  0
LTYPE
  5
1F
330
5
100
AcDbSymbolTableRecord
100
AcDbLinetypeTableRecord
  2
CENTER2
 70
     0
  3
___ _ ___ _ ___ _ ___ _ ___ _ ___ _ ___ _ ___ _
 72
    65
 73
     4
 40
28.57499999999999
 49
19.05
 74
     0
 49
-3.174999999999998
 74
     0
 49
3.174999999999998
 74
     0
 49
-3.174999999999998
 74
     0
  0
LTYPE
  5
20
330
5
100
AcDbSymbolTableRecord
100
AcDbLinetypeTableRecord
  2
DASHED2
 70
     0
  3
_ _ _ _ _ _ _ _ _ _ _ _ _ _ _ _ _ _ _ _ _ _ _ _
 72
    65
 73
     2
 40
9.524999999999996
 49
6.349999999999997
 74
     0
 49
-3.174999999999998
 74
     0
  0
ENDTAB
  0
TABLE
  2
LAYER
  5
2
330
0
100
AcDbSymbolTable
 70
     6
  0
LAYER
  5
F
330
2
100
AcDbSymbolTableRecord
100
AcDbLayerTableRecord
  2
0
 70
     0
 62
     7
  6
CONTINUOUS
  0
LAYER
  5
24
330
2
100
AcDbSymbolTableRecord
100
AcDbLayerTableRecord
  2
L-1
 70
     0
 62
     7
  6
CONTINUOUS
  0
LAYER
  5
25
330
2
100
AcDbSymbolTableRecord
100
AcDbLayerTableRecord
  2
L-2
 70
     0
 62
     7
  6
CONTINUOUS
  0
LAYER
  5
26
330
2
100
AcDbSymbolTableRecord
100
AcDbLayerTableRecord
  2
L-3
 70
     0
 62
     7
  6
CONTINUOUS
  0
LAYER
  5
27
330
2
100
AcDbSymbolTableRecord
100
AcDbLayerTableRecord
  2
L-4
 70
     0
 62
     7
  6
CONTINUOUS
  0
LAYER
  5
28
330
2
100
AcDbSymbolTableRecord
100
AcDbLayerTableRecord
  2
DEFPOINTS
 70
     0
 62
     7
  6
CONTINUOUS
  0
ENDTAB
  0
TABLE
  2
STYLE
  5
3
330
0
100
AcDbSymbolTable
 70
     5
  0
STYLE
  5
10
330
3
100
AcDbSymbolTableRecord
100
AcDbTextStyleTableRecord
  2
STANDARD
 70
     0
 40
0.0
 41
1.0
 50
0.0
 71
     0
 42
3.5
  3
txt
  4

  0
STYLE
  5
1D
330
3
100
AcDbSymbolTableRecord
100
AcDbTextStyleTableRecord
  2
BGS
 70
     0
 40
0.0
 41
1.0
 50
0.0
 71
     0
 42
1.199999999999999
  3
SIMPLEX.SHX
  4
BGSGS.SHX
  0
STYLE
  5
1E
330
3
100
AcDbSymbolTableRecord
100
AcDbTextStyleTableRecord
  2
TATEGAKI
 70
     4
 40
0.0
 41
1.0
 50
0.0
 71
     0
 42
3.5
  3
SIMPLEX.SHX
  4
BGSGS.SHX
  0
STYLE
  5
75
330
3
100
AcDbSymbolTableRecord
100
AcDbTextStyleTableRecord
  2
SIMPLEX
 70
     0
 40
0.0
 41
1.0
 50
0.0
 71
     0
 42
0.2
  3
simplex
  4
bigfont
  0
STYLE
  5
DF3
330
3
100
AcDbSymbolTableRecord
100
AcDbTextStyleTableRecord
  2
MSゴシック
 70
     0
 40
0.0
 41
1.0
 50
0.0
 71
     0
 42
4.0
  3
MS Gothic.ttf
  4

1001
ACAD
1000
MS Gothic
1071
    32817
  0
ENDTAB
  0
TABLE
  2
VIEW
  5
6
330
0
100
AcDbSymbolTable
 70
     0
  0
ENDTAB
  0
TABLE
  2
UCS
  5
7
330
0
100
AcDbSymbolTable
 70
     0
  0
ENDTAB
  0
TABLE
  2
APPID
  5
9
330
0
100
AcDbSymbolTable
 70
     1
  0
APPID
  5
11
330
9
100
AcDbSymbolTableRecord
100
AcDbRegAppTableRecord
  2
ACAD
 70
     0
  0
ENDTAB
  0
TABLE
  2
DIMSTYLE
  5
A
330
0
100
AcDbSymbolTable
 70
     5
  0
DIMSTYLE
105
23
102
{ACAD_REACTORS
330
23CB
330
2400
330
2401
330
2435
102
}
330
A
100
AcDbSymbolTableRecord
100
AcDbDimStyleTableRecord
  2
CAD-STD
 70
     0
  3

  4

  5

  6
OPEN
  7
OPEN
 40
1.0
 41
2.5
 42
0.5
 43
8.0
 44
1.0
 45
0.0
 46
0.0
 47
0.0
 48
0.0
140
3.2
141
-0.5
142
0.0
143
0.0394
144
1.0
145
0.0
146
0.625
147
0.5
 71
     0
 72
     0
 73
     0
 74
     0
 75
     0
 76
     0
 77
     1
 78
     8
170
     0
171
     2
172
     1
173
     1
174
     0
175
     0
176
     4
177
     4
178
     2
270
     2
271
     4
272
     4
273
     2
274
     2
340
1D
275
     0
280
     0
281
     0
282
     0
283
     1
284
     8
285
     0
286
     0
287
     3
288
     0
  0
DIMSTYLE
105
1D4
330
A
100
AcDbSymbolTableRecord
100
AcDbDimStyleTableRecord
  2
CAD-STD5
 70
     0
  3

  4

  5
ADARROW
  6
OPEN
  7
OPEN
 40
0.2
 41
2.5
 42
0.5
 43
8.0
 44
1.0
 45
0.0
 46
0.0
 47
0.0
 48
0.0
140
3.2
141
-0.5
142
0.0
143
0.0394
144
1.0
145
0.0
146
0.625
147
0.5
 71
     0
 72
     0
 73
     0
 74
     0
 75
     0
 76
     0
 77
     1
 78
     8
170
     0
171
     2
172
     1
173
     1
174
     0
175
     0
176
     4
177
     4
178
     2
270
     2
271
     4
272
     4
273
     2
274
     2
340
1D
275
     0
280
     0
281
     0
282
     0
283
     1
284
     8
285
     0
286
     0
287
     3
288
     0
  0
DIMSTYLE
105
DF4
330
A
100
AcDbSymbolTableRecord
100
AcDbDimStyleTableRecord
  2
CAD-STD1
 70
     0
  3

  4

  5

  6
OPEN
  7
OPEN
 40
0.5
 41
2.5
 42
0.5
 43
8.0
 44
1.0
 45
0.0
 46
0.0
 47
0.0
 48
0.0
140
3.2
141
-0.5
142
0.0
143
0.0394
144
1.0
145
0.0
146
0.625
147
0.5
 71
     0
 72
     0
 73
     0
 74
     0
 75
     0
 76
     0
 77
     1
 78
     8
170
     0
171
     2
172
     1
173
     1
174
     0
175
     0
176
     4
177
     4
178
     2
270
     2
271
     4
272
     4
273
     2
274
     2
340
1D
275
     0
280
     0
281
     0
282
     0
283
     1
284
     8
285
     0
286
     0
287
     3
288
     0
  0
DIMSTYLE
105
E16
102
{ACAD_REACTORS
330
150C
330
1561
330
1640
330
1666
102
}
330
A
100
AcDbSymbolTableRecord
100
AcDbDimStyleTableRecord
  2
CAD-STD1-1
 70
     0
  3

  4

  5

  6
OPEN
  7
OPEN
 40
0.5
 41
2.5
 42
0.5
 43
8.0
 44
1.0
 45
0.0
 46
0.0
 47
0.0
 48
0.0
140
3.2
141
-0.5
142
0.0
143
0.0394
144
1.0
145
0.0
146
0.625
147
0.5
 71
     0
 72
     0
 73
     0
 74
     0
 75
     0
 76
     0
 77
     1
 78
     8
170
     0
171
     2
172
     1
173
     1
174
     0
175
     0
176
     4
177
     4
178
     2
270
     2
271
     4
272
     4
273
     2
274
     2
340
DF3
275
     0
280
     0
281
     0
282
     0
283
     1
284
     8
285
     0
286
     0
287
     3
288
     0
  0
DIMSTYLE
105
FE3
330
A
100
AcDbSymbolTableRecord
100
AcDbDimStyleTableRecord
  2
CAD-STD2
 70
     0
  3

  4

  5
ADARROW
  6
OPEN
  7
OPEN
 40
1.0
 41
2.5
 42
0.5
 43
8.0
 44
1.0
 45
0.0
 46
0.0
 47
0.0
 48
0.0
140
3.2
141
-0.5
142
0.0
143
0.0394
144
0.5
145
0.0
146
0.625
147
0.5
 71
     0
 72
     0
 73
     0
 74
     0
 75
     0
 76
     0
 77
     1
 78
     8
170
     0
171
     2
172
     1
173
     1
174
     0
175
     0
176
     4
177
     4
178
     2
270
     2
271
     4
272
     4
273
     2
274
     2
340
1D
275
     0
280
     0
281
     0
282
     0
283
     1
284
     8
285
     0
286
     0
287
     3
288
     0
  0
ENDTAB
  0
TABLE
  2
BLOCK_RECORD
  5
1
330
0
100
AcDbSymbolTable
 70
    41
  0
BLOCK_RECORD
  5
18
102
{ACAD_XDICTIONARY
360
ED0
102
}
330
1
100
AcDbSymbolTableRecord
100
AcDbBlockTableRecord
  2
*MODEL_SPACE
  0
BLOCK_RECORD
  5
15
102
{ACAD_XDICTIONARY
360
ECE
102
}
330
1
100
AcDbSymbolTableRecord
100
AcDbBlockTableRecord
  2
*PAPER_SPACE
  0
BLOCK_RECORD
  5
1C
330
1
100
AcDbSymbolTableRecord
100
AcDbBlockTableRecord
  2
ADARROW
  0
BLOCK_RECORD
  5
35
330
1
100
AcDbSymbolTableRecord
100
AcDbBlockTableRecord
  2
_OPEN
  0
BLOCK_RECORD
  5
6D
330
1
100
AcDbSymbolTableRecord
100
AcDbBlockTableRecord
  2
TK
  0
BLOCK_RECORD
  5
76
330
1
100
AcDbSymbolTableRecord
100
AcDbBlockTableRecord
  2
A4-WAKU
  0
BLOCK_RECORD
  5
14D5
330
1
100
AcDbSymbolTableRecord
100
AcDbBlockTableRecord
  2
*D4
  0
BLOCK_RECORD
  5
14E1
330
1
100
AcDbSymbolTableRecord
100
AcDbBlockTableRecord
  2
*D5
  0
BLOCK_RECORD
  5
14ED
330
1
100
AcDbSymbolTableRecord
100
AcDbBlockTableRecord
  2
*D6
  0
BLOCK_RECORD
  5
14F9
330
1
100
AcDbSymbolTableRecord
100
AcDbBlockTableRecord
  2
*D7
  0
BLOCK_RECORD
  5
1505
330
1
100
AcDbSymbolTableRecord
100
AcDbBlockTableRecord
  2
A$C30117B11
  0
BLOCK_RECORD
  5
1F49
330
1
100
AcDbSymbolTableRecord
100
AcDbBlockTableRecord
  2
*D9
  0
BLOCK_RECORD
  5
1F71
330
1
100
AcDbSymbolTableRecord
100
AcDbBlockTableRecord
  2
*D10
  0
BLOCK_RECORD
  5
1FA2
330
1
100
AcDbSymbolTableRecord
100
AcDbBlockTableRecord
  2
*D11
  0
BLOCK_RECORD
  5
1FC1
330
1
100
AcDbSymbolTableRecord
100
AcDbBlockTableRecord
  2
*D12
  0
BLOCK_RECORD
  5
1FCE
330
1
100
AcDbSymbolTableRecord
100
AcDbBlockTableRecord
  2
*D13
  0
BLOCK_RECORD
  5
1FFF
330
1
100
AcDbSymbolTableRecord
100
AcDbBlockTableRecord
  2
*D14
  0
BLOCK_RECORD
  5
200C
330
1
100
AcDbSymbolTableRecord
100
AcDbBlockTableRecord
  2
*D15
  0
BLOCK_RECORD
  5
2019
330
1
100
AcDbSymbolTableRecord
100
AcDbBlockTableRecord
  2
*D16
  0
BLOCK_RECORD
  5
2026
330
1
100
AcDbSymbolTableRecord
100
AcDbBlockTableRecord
  2
*D17
  0
BLOCK_RECORD
  5
20DA
330
1
100
AcDbSymbolTableRecord
100
AcDbBlockTableRecord
  2
*D18
  0
BLOCK_RECORD
  5
20E6
330
1
100
AcDbSymbolTableRecord
100
AcDbBlockTableRecord
  2
*D19
  0
BLOCK_RECORD
  5
20F2
330
1
100
AcDbSymbolTableRecord
100
AcDbBlockTableRecord
  2
*D20
  0
BLOCK_RECORD
  5
20FE
330
1
100
AcDbSymbolTableRecord
100
AcDbBlockTableRecord
  2
*D21
  0
BLOCK_RECORD
  5
220A
330
1
100
AcDbSymbolTableRecord
100
AcDbBlockTableRecord
  2
*D23
  0
BLOCK_RECORD
  5
2218
330
1
100
AcDbSymbolTableRecord
100
AcDbBlockTableRecord
  2
*D24
  0
BLOCK_RECORD
  5
2224
330
1
100
AcDbSymbolTableRecord
100
AcDbBlockTableRecord
  2
*D25
  0
BLOCK_RECORD
  5
2230
330
1
100
AcDbSymbolTableRecord
100
AcDbBlockTableRecord
  2
*D26
  0
BLOCK_RECORD
  5
2265
330
1
100
AcDbSymbolTableRecord
100
AcDbBlockTableRecord
  2
*D27
  0
BLOCK_RECORD
  5
2273
330
1
100
AcDbSymbolTableRecord
100
AcDbBlockTableRecord
  2
*D28
  0
BLOCK_RECORD
  5
227F
330
1
100
AcDbSymbolTableRecord
100
AcDbBlockTableRecord
  2
*D29
  0
BLOCK_RECORD
  5
228B
330
1
100
AcDbSymbolTableRecord
100
AcDbBlockTableRecord
  2
*D30
  0
BLOCK_RECORD
  5
2297
330
1
100
AcDbSymbolTableRecord
100
AcDbBlockTableRecord
  2
A$C0E811368
  0
BLOCK_RECORD
  5
2316
330
1
100
AcDbSymbolTableRecord
100
AcDbBlockTableRecord
  2
*D32
  0
BLOCK_RECORD
  5
2324
330
1
100
AcDbSymbolTableRecord
100
AcDbBlockTableRecord
  2
*D33
  0
BLOCK_RECORD
  5
2330
330
1
100
AcDbSymbolTableRecord
100
AcDbBlockTableRecord
  2
*D34
  0
BLOCK_RECORD
  5
233C
330
1
100
AcDbSymbolTableRecord
100
AcDbBlockTableRecord
  2
*D35
  0
BLOCK_RECORD
  5
2442
330
1
100
AcDbSymbolTableRecord
100
AcDbBlockTableRecord
  2
*D37
  0
BLOCK_RECORD
  5
244E
330
1
100
AcDbSymbolTableRecord
100
AcDbBlockTableRecord
  2
*D38
  0
BLOCK_RECORD
  5
245A
330
1
100
AcDbSymbolTableRecord
100
AcDbBlockTableRecord
  2
*D39
  0
BLOCK_RECORD
  5
2468
330
1
100
AcDbSymbolTableRecord
100
AcDbBlockTableRecord
  2
*D40
  0
ENDTAB
  0
ENDSEC
  0
SECTION
  2
BLOCKS
  0
BLOCK
  5
2B
330
18
100
AcDbEntity
  8
0
100
AcDbBlockBegin
  2
*MODEL_SPACE
 70
     0
 10
0.0
 20
0.0
 30
0.0
  3
*MODEL_SPACE
  1

  0
ENDBLK
  5
2C
330
18
100
AcDbEntity
  8
0
100
AcDbBlockEnd
  0
BLOCK
  5
29
330
15
100
AcDbEntity
 67
     1
  8
0
100
AcDbBlockBegin
  2
*PAPER_SPACE
 70
     0
 10
0.0
 20
0.0
 30
0.0
  3
*PAPER_SPACE
  1

  0
ENDBLK
  5
2A
330
15
100
AcDbEntity
 67
     1
  8
0
100
AcDbBlockEnd
  0
BLOCK
  5
2D
330
1C
100
AcDbEntity
  8
0
100
AcDbBlockBegin
  2
ADARROW
 70
     0
 10
0.0
 20
0.0
 30
0.0
  3
ADARROW
  1

  0
LINE
  5
2E
330
1C
100
AcDbEntity
  8
0
  6
BYBLOCK
 62
     0
100
AcDbLine
 10
0.0
 20
0.0
 30
0.0
 11
-0.9659258262890659
 21
-0.2588190451025127
 31
0.0
  0
LINE
  5
2F
330
1C
100
AcDbEntity
  8
0
  6
BYBLOCK
 62
     0
100
AcDbLine
 10
-1.0
 20
0.0
 30
0.0
 11
0.0
 21
0.0
 31
0.0
  0
LINE
  5
30
330
1C
100
AcDbEntity
  8
0
  6
BYBLOCK
 62
     0
100
AcDbLine
 10
0.0
 20
0.0
 30
0.0
 11
-0.9659258262890659
 21
0.2588190451025127
 31
0.0
  0
ENDBLK
  5
31
330
1C
100
AcDbEntity
  8
0
100
AcDbBlockEnd
  0
BLOCK
  5
36
330
35
100
AcDbEntity
  8
0
100
AcDbBlockBegin
  2
_OPEN
 70
     0
 10
0.0
 20
0.0
 30
0.0
  3
_OPEN
  1

  0
LINE
  5
37
330
35
100
AcDbEntity
  8
0
  6
BYBLOCK
 62
     0
100
AcDbLine
 10
-1.0
 20
0.1666666666666666
 30
0.0
 11
0.0
 21
0.0
 31
0.0
  0
LINE
  5
38
330
35
100
AcDbEntity
  8
0
  6
BYBLOCK
 62
     0
100
AcDbLine
 10
0.0
 20
0.0
 30
0.0
 11
-1.0
 21
-0.1666666666666666
 31
0.0
  0
LINE
  5
39
330
35
100
AcDbEntity
  8
0
  6
BYBLOCK
 62
     0
100
AcDbLine
 10
0.0
 20
0.0
 30
0.0
 11
-1.0
 21
0.0
 31
0.0
  0
ENDBLK
  5
3A
330
35
100
AcDbEntity
  8
0
100
AcDbBlockEnd
  0
BLOCK
  5
73
330
6D
100
AcDbEntity
  8
0
100
AcDbBlockBegin
  2
TK
 70
     0
 10
0.0
 20
0.0
 30
0.0
  3
TK
  1

  0
TEXT
  5
6E
330
6D
100
AcDbEntity
  8
0
  6
CONTINUOUS
 62
     2
100
AcDbText
 10
-8.056255308109312
 20
-1.428396170613345
 30
0.0
 40
2.7
  1
ＴＫ
  7
BGS
100
AcDbText
  0
LINE
  5
6F
330
6D
100
AcDbEntity
  8
0
  6
CONTINUOUS
 62
     2
100
AcDbLine
 10
-10.09705202413073
 20
0.1332646889774125
 30
0.0
 11
-5.095052024130723
 21
3.133264688977412
 31
0.0
  0
LINE
  5
70
330
6D
100
AcDbEntity
  8
0
  6
CONTINUOUS
 62
     2
100
AcDbLine
 10
-10.09705202413073
 20
0.1332646889774125
 30
0.0
 11
-5.095052024130723
 21
-2.866735311022586
 31
0.0
  0
LINE
  5
71
330
6D
100
AcDbEntity
  8
0
  6
CONTINUOUS
 62
     2
100
AcDbLine
 10
-5.095052024130723
 20
3.133264688977412
 30
0.0
 11
-0.0970520241307327
 21
0.1332646889774125
 31
0.0
  0
LINE
  5
72
330
6D
100
AcDbEntity
  8
0
  6
CONTINUOUS
 62
     2
100
AcDbLine
 10
-5.095052024130723
 20
-2.866735311022586
 30
0.0
 11
-0.0970520241307327
 21
0.1332646889774125
 31
0.0
  0
ENDBLK
  5
74
330
6D
100
AcDbEntity
  8
0
100
AcDbBlockEnd
  0
BLOCK
  5
C4
330
76
100
AcDbEntity
  8
0
100
AcDbBlockBegin
  2
A4-WAKU
 70
     0
 10
0.0
 20
0.0
 30
0.0
  3
A4-WAKU
  1

  0
LINE
  5
77
330
76
100
AcDbEntity
  8
L-1
  6
CONTINUOUS
 62
     5
100
AcDbLine
 10
175.0
 20
276.0
 30
0.0
 11
175.0
 21
5.0
 31
0.0
  0
TEXT
  5
78
330
76
100
AcDbEntity
  8
L-1
  6
CONTINUOUS
 62
     2
100
AcDbText
 10
25.51982666386348
 20
40.48557956418045
 30
0.0
 40
4.0
  1
日
  7
BGS
100
AcDbText
  0
TEXT
  5
79
330
76
100
AcDbEntity
  8
L-1
  6
CONTINUOUS
 62
     2
100
AcDbText
 10
21.78413318765412
 20
40.34055118110043
 30
0.0
 40
4.0
  1
月
  7
BGS
100
AcDbText
  0
LINE
  5
7A
330
76
100
AcDbEntity
  8
L-1
  6
CONTINUOUS
 62
     4
100
AcDbLine
 10
1.0
 20
254.0
 30
0.0
 11
4.0
 21
254.0
 31
0.0
  0
LINE
  5
7B
330
76
100
AcDbEntity
  8
L-1
  6
CONTINUOUS
 62
     5
100
AcDbLine
 10
4.0
 20
276.0
 30
0.0
 11
175.0
 21
276.0
 31
0.0
  0
LINE
  5
7C
330
76
100
AcDbEntity
  8
L-1
  6
CONTINUOUS
 62
     4
100
AcDbLine
 10
13.0
 20
205.0
 30
0.0
 11
10.0
 21
205.0
 31
0.0
  0
LINE
  5
7D
330
76
100
AcDbEntity
  8
L-1
  6
CONTINUOUS
 62
     4
100
AcDbLine
 10
13.0
 20
155.0
 30
0.0
 11
10.0
 21
155.0
 31
0.0
  0
LINE
  5
7E
330
76
100
AcDbEntity
  8
L-1
  6
CONTINUOUS
 62
     4
100
AcDbLine
 10
13.0
 20
105.0
 30
0.0
 11
10.0
 21
105.0
 31
0.0
  0
LINE
  5
7F
330
76
100
AcDbEntity
  8
L-1
  6
CONTINUOUS
 62
     4
100
AcDbLine
 10
13.0
 20
55.0
 30
0.0
 11
10.0
 21
55.0
 31
0.0
  0
LINE
  5
80
330
76
100
AcDbEntity
  8
L-1
  6
CONTINUOUS
 62
     4
100
AcDbLine
 10
13.0
 20
10.0
 30
0.0
 11
14.50000000000001
 21
10.0
 31
0.0
  0
LINE
  5
81
330
76
100
AcDbEntity
  8
L-1
  6
CONTINUOUS
 62
     4
100
AcDbLine
 10
13.0
 20
15.0
 30
0.0
 11
14.50000000000001
 21
15.0
 31
0.0
  0
LINE
  5
82
330
76
100
AcDbEntity
  8
L-1
  6
CONTINUOUS
 62
     4
100
AcDbLine
 10
65.50000000000003
 20
10.0
 30
0.0
 11
99.00000000000005
 21
10.0
 31
0.0
  0
LINE
  5
83
330
76
100
AcDbEntity
  8
L-1
  6
CONTINUOUS
 62
     4
100
AcDbLine
 10
65.50000000000003
 20
15.0
 30
0.0
 11
99.00000000000005
 21
15.0
 31
0.0
  0
LINE
  5
84
330
76
100
AcDbEntity
  8
L-1
  6
CONTINUOUS
 62
     4
100
AcDbLine
 10
18.00000000000001
 20
45.0
 30
0.0
 11
18.00000000000001
 21
5.0
 31
0.0
  0
TEXT
  5
85
330
76
100
AcDbEntity
  8
L-1
  6
CONTINUOUS
 62
     2
100
AcDbText
 10
12.33594443568463
 20
28.90349080870413
 30
0.0
 40
2.5
  1
１
 50
90.0
  7
SIMPLEX
100
AcDbText
  0
TEXT
  5
86
330
76
100
AcDbEntity
  8
L-1
  6
CONTINUOUS
 62
     2
100
AcDbText
 10
12.4960066029666
 20
128.981664164384
 30
0.0
 40
2.5
  1
３
 50
90.0
  7
SIMPLEX
100
AcDbText
  0
TEXT
  5
87
330
76
100
AcDbEntity
  8
L-1
  6
CONTINUOUS
 62
     2
100
AcDbText
 10
12.56483456188263
 20
210.8786191506581
 30
0.0
 40
2.5
  1
５
 50
90.0
  7
SIMPLEX
100
AcDbText
  0
TEXT
  5
88
330
76
100
AcDbEntity
  8
L-1
  6
CONTINUOUS
 62
     2
100
AcDbText
 10
12.55253622995047
 20
78.83862042903198
 30
0.0
 40
2.5
  1
２
 50
90.0
  7
SIMPLEX
100
AcDbText
  0
TEXT
  5
89
330
76
100
AcDbEntity
  8
L-1
  6
CONTINUOUS
 62
     2
100
AcDbText
 10
3.554498689493498
 20
265.2816564608174
 30
0.0
 40
2.5
  1
6
 50
90.0
  7
SIMPLEX
100
AcDbText
  0
TEXT
  5
8A
330
76
100
AcDbEntity
  8
L-1
  6
CONTINUOUS
 62
     2
100
AcDbText
 10
12.57275293031169
 20
178.8894255851591
 30
0.0
 40
2.5
  1
４
 50
90.0
  7
SIMPLEX
100
AcDbText
  0
LINE
  5
8B
330
76
100
AcDbEntity
  8
L-1
  6
CONTINUOUS
 62
     4
100
AcDbLine
 10
155.0
 20
276.0
 30
0.0
 11
155.0
 21
274.5
 31
0.0
  0
LINE
  5
8C
330
76
100
AcDbEntity
  8
L-1
  6
CONTINUOUS
 62
     4
100
AcDbLine
 10
143.0
 20
276.0
 30
0.0
 11
143.0
 21
274.5
 31
0.0
  0
LINE
  5
8D
330
76
100
AcDbEntity
  8
L-1
  6
CONTINUOUS
 62
     4
100
AcDbLine
 10
108.0
 20
276.0
 30
0.0
 11
108.0
 21
274.5
 31
0.0
  0
LINE
  5
8E
330
76
100
AcDbEntity
  8
L-1
  6
CONTINUOUS
 62
     4
100
AcDbLine
 10
73.00000000000003
 20
276.0
 30
0.0
 11
73.00000000000003
 21
274.5
 31
0.0
  0
LINE
  5
8F
330
76
100
AcDbEntity
  8
L-1
  6
CONTINUOUS
 62
     4
100
AcDbLine
 10
25.00000000000003
 20
276.0
 30
0.0
 11
25.00000000000003
 21
274.5
 31
0.0
  0
LINE
  5
90
330
76
100
AcDbEntity
  8
L-1
  6
CONTINUOUS
 62
     4
100
AcDbLine
 10
65.50000000000003
 20
20.0
 30
0.0
 11
99.00000000000005
 21
20.0
 31
0.0
  0
LINE
  5
91
330
76
100
AcDbEntity
  8
L-1
  6
CONTINUOUS
 62
     4
100
AcDbLine
 10
65.50000000000003
 20
25.0
 30
0.0
 11
99.00000000000005
 21
25.0
 31
0.0
  0
LINE
  5
92
330
76
100
AcDbEntity
  8
L-1
  6
CONTINUOUS
 62
     4
100
AcDbLine
 10
65.50000000000003
 20
30.0
 30
0.0
 11
67.00000000000001
 21
30.0
 31
0.0
  0
LINE
  5
93
330
76
100
AcDbEntity
  8
L-1
  6
CONTINUOUS
 62
     4
100
AcDbLine
 10
65.50000000000003
 20
35.0
 30
0.0
 11
67.00000000000001
 21
35.0
 31
0.0
  0
LINE
  5
94
330
76
100
AcDbEntity
  8
L-1
  6
CONTINUOUS
 62
     4
100
AcDbLine
 10
13.0
 20
20.0
 30
0.0
 11
14.50000000000001
 21
20.0
 31
0.0
  0
LINE
  5
95
330
76
100
AcDbEntity
  8
L-1
  6
CONTINUOUS
 62
     4
100
AcDbLine
 10
13.0
 20
25.0
 30
0.0
 11
14.50000000000001
 21
25.0
 31
0.0
  0
LINE
  5
96
330
76
100
AcDbEntity
  8
L-1
  6
CONTINUOUS
 62
     4
100
AcDbLine
 10
13.0
 20
30.0
 30
0.0
 11
14.50000000000001
 21
30.0
 31
0.0
  0
LINE
  5
97
330
76
100
AcDbEntity
  8
L-1
  6
CONTINUOUS
 62
     4
100
AcDbLine
 10
13.0
 20
35.0
 30
0.0
 11
14.50000000000001
 21
35.0
 31
0.0
  0
LINE
  5
98
330
76
100
AcDbEntity
  8
L-1
  6
CONTINUOUS
 62
     4
100
AcDbLine
 10
173.5
 20
240.0
 30
0.0
 11
175.0
 21
240.0
 31
0.0
  0
LINE
  5
99
330
76
100
AcDbEntity
  8
L-1
  6
CONTINUOUS
 62
     4
100
AcDbLine
 10
173.5
 20
246.0
 30
0.0
 11
175.0
 21
246.0
 31
0.0
  0
LINE
  5
9A
330
76
100
AcDbEntity
  8
L-1
  6
CONTINUOUS
 62
     4
100
AcDbLine
 10
173.5
 20
252.0
 30
0.0
 11
175.0
 21
252.0
 31
0.0
  0
LINE
  5
9B
330
76
100
AcDbEntity
  8
L-1
  6
CONTINUOUS
 62
     4
100
AcDbLine
 10
173.5
 20
258.0
 30
0.0
 11
175.0
 21
258.0
 31
0.0
  0
LINE
  5
9C
330
76
100
AcDbEntity
  8
L-1
  6
CONTINUOUS
 62
     4
100
AcDbLine
 10
173.5
 20
264.0
 30
0.0
 11
175.0
 21
264.0
 31
0.0
  0
LINE
  5
9D
330
76
100
AcDbEntity
  8
L-1
  6
CONTINUOUS
 62
     4
100
AcDbLine
 10
173.5
 20
270.0
 30
0.0
 11
175.0
 21
270.0
 31
0.0
  0
LINE
  5
9E
330
76
100
AcDbEntity
  8
L-1
  6
CONTINUOUS
 62
     5
100
AcDbLine
 10
13.0
 20
5.0
 30
0.0
 11
174.0
 21
5.0
 31
0.0
  0
LINE
  5
9F
330
76
100
AcDbEntity
  8
L-1
  6
CONTINUOUS
 62
     4
100
AcDbLine
 10
13.0
 20
40.0
 30
0.0
 11
99.00000000000005
 21
40.0
 31
0.0
  0
LINE
  5
A0
330
76
100
AcDbEntity
  8
L-1
  6
CONTINUOUS
 62
     5
100
AcDbLine
 10
174.0
 20
5.0
 30
0.0
 11
175.0
 21
5.0
 31
0.0
  0
LINE
  5
A1
330
76
100
AcDbEntity
  8
L-1
  6
CONTINUOUS
 62
     5
100
AcDbLine
 10
13.0
 20
45.0
 30
0.0
 11
175.0
 21
45.0
 31
0.0
  0
LINE
  5
A2
330
76
100
AcDbEntity
  8
L-1
  6
CONTINUOUS
 62
     5
100
AcDbLine
 10
99.00000000000005
 20
45.0
 30
0.0
 11
99.00000000000005
 21
5.0
 31
0.0
  0
LINE
  5
A3
330
76
100
AcDbEntity
  8
L-1
  6
CONTINUOUS
 62
     5
100
AcDbLine
 10
99.00000000000005
 20
30.0
 30
0.0
 11
67.00000000000001
 21
30.0
 31
0.0
  0
LINE
  5
A4
330
76
100
AcDbEntity
  8
L-1
  6
CONTINUOUS
 62
     5
100
AcDbLine
 10
67.00000000000001
 20
45.0
 30
0.0
 11
67.00000000000001
 21
5.0
 31
0.0
  0
LINE
  5
A5
330
76
100
AcDbEntity
  8
L-1
  6
CONTINUOUS
 62
     4
100
AcDbLine
 10
79.00000000000003
 20
5.0
 30
0.0
 11
79.00000000000003
 21
30.0
 31
0.0
  0
LINE
  5
A6
330
76
100
AcDbEntity
  8
L-1
  6
CONTINUOUS
 62
     4
100
AcDbLine
 10
30.00000000000003
 20
45.0
 30
0.0
 11
30.00000000000003
 21
5.0
 31
0.0
  0
LINE
  5
A7
330
76
100
AcDbEntity
  8
L-1
  6
CONTINUOUS
 62
     4
100
AcDbLine
 10
83.00000000000002
 20
45.0
 30
0.0
 11
83.00000000000002
 21
30.0
 31
0.0
  0
LINE
  5
A8
330
76
100
AcDbEntity
  8
L-1
  6
CONTINUOUS
 62
     4
100
AcDbLine
 10
106.0
 20
45.0
 30
0.0
 11
106.0
 21
13.0
 31
0.0
  0
LINE
  5
A9
330
76
100
AcDbEntity
  8
L-1
  6
CONTINUOUS
 62
     5
100
AcDbLine
 10
168.0
 20
13.0
 30
0.0
 11
99.00000000000005
 21
13.0
 31
0.0
  0
LINE
  5
AA
330
76
100
AcDbEntity
  8
L-1
  6
CONTINUOUS
 62
     5
100
AcDbLine
 10
99.00000000000005
 20
23.0
 30
0.0
 11
175.0
 21
23.0
 31
0.0
  0
TEXT
  5
AB
330
76
100
AcDbEntity
  8
L-1
  6
CONTINUOUS
 62
     2
100
AcDbText
 10
13.73633407825005
 20
40.88600988829688
 30
0.0
 40
4.0
  1
版
  7
SIMPLEX
100
AcDbText
  0
TEXT
  5
AC
330
76
100
AcDbEntity
  8
L-1
  6
CONTINUOUS
 62
     2
100
AcDbText
 10
18.31827862391562
 20
40.48864676798925
 30
0.0
 40
4.0
  1
年
  7
SIMPLEX
100
AcDbText
  0
TEXT
  5
AD
330
76
100
AcDbEntity
  8
L-1
  6
CONTINUOUS
 62
     2
100
AcDbText
 10
68.40818119793235
 20
40.42657997500692
 30
0.0
 40
4.0
  1
単　位
  7
SIMPLEX
100
AcDbText
  0
TEXT
  5
AE
330
76
100
AcDbEntity
  8
L-1
  6
CONTINUOUS
 62
     2
100
AcDbText
 10
84.39167448190941
 20
40.51632995442071
 30
0.0
 40
4.0
  1
尺　度
  7
SIMPLEX
100
AcDbText
  0
TEXT
  5
AF
330
76
100
AcDbEntity
  8
L-1
  6
CONTINUOUS
 62
     2
100
AcDbText
 10
67.72808678626168
 20
25.4781175608814
 30
0.0
 40
4.0
  1
設　
  7
SIMPLEX
100
AcDbText
  0
TEXT
  5
B0
330
76
100
AcDbEntity
  8
L-1
  6
CONTINUOUS
 62
     2
100
AcDbText
 10
67.72808678626168
 20
20.5790148324433
 30
0.0
 40
4.0
  1
製　
  7
SIMPLEX
100
AcDbText
  0
TEXT
  5
B1
330
76
100
AcDbEntity
  8
L-1
  6
CONTINUOUS
 62
     2
100
AcDbText
 10
67.53731904982217
 20
15.67991210400521
 30
0.0
 40
4.0
  1
担　
  7
SIMPLEX
100
AcDbText
  0
TEXT
  5
B2
330
76
100
AcDbEntity
  8
L-1
  6
CONTINUOUS
 62
     2
100
AcDbText
 10
67.53731904982217
 20
10.59238234755025
 30
0.0
 40
4.0
  1
査　
  7
SIMPLEX
100
AcDbText
  0
TEXT
  5
B3
330
76
100
AcDbEntity
  8
L-1
  6
CONTINUOUS
 62
     2
100
AcDbText
 10
67.53731904982217
 20
5.334370994318135
 30
0.0
 40
4.0
  1
承　
  7
SIMPLEX
100
AcDbText
  0
TEXT
  5
B4
330
76
100
AcDbEntity
  8
L-1
  6
CONTINUOUS
 62
     2
100
AcDbText
 10
100.8491991555794
 20
38.58592748580645
 30
0.0
 40
4.0
  1
名
  7
SIMPLEX
100
AcDbText
  0
TEXT
  5
B5
330
76
100
AcDbEntity
  8
L-1
  6
CONTINUOUS
 62
     2
100
AcDbText
 10
100.6731058604048
 20
25.692135140082
 30
0.0
 40
4.0
  1
称
  7
SIMPLEX
100
AcDbText
  0
TEXT
  5
B6
330
76
100
AcDbEntity
  8
L-1
  6
CONTINUOUS
 62
     2
100
AcDbText
 10
100.6755949747158
 20
18.62614659479538
 30
0.0
 40
4.0
  1
図
  7
SIMPLEX
100
AcDbText
  0
TEXT
  5
B7
330
76
100
AcDbEntity
  8
L-1
  6
CONTINUOUS
 62
     2
100
AcDbText
 10
100.5440507327229
 20
13.57876986972488
 30
0.0
 40
4.0
  1
番
  7
SIMPLEX
100
AcDbText
  0
TEXT
  5
B8
330
76
100
AcDbEntity
  8
L-1
  6
CONTINUOUS
 62
     2
100
AcDbText
 10
111.3258231448179
 20
6.906702520217492
 30
0.0
 40
4.299999999999998
  1
東京通信機工業株式会社
  7
SIMPLEX
100
AcDbText
  0
TEXT
  5
B9
330
76
100
AcDbEntity
  8
L-1
  6
CONTINUOUS
 62
     2
100
AcDbText
 10
32.42607918624222
 20
40.49654267289059
 30
0.0
 40
4.0
  1
変　更　事　項
  7
SIMPLEX
100
AcDbText
  0
LINE
  5
BA
330
76
100
AcDbEntity
  8
L-1
  6
CONTINUOUS
 62
     5
100
AcDbLine
 10
13.0
 20
5.0
 30
0.0
 11
13.0
 21
276.0
 31
0.0
  0
TEXT
  5
BB
330
76
100
AcDbEntity
  8
L-1
  6
CONTINUOUS
 62
     2
100
AcDbText
 10
74.59912344388661
 20
25.38182109503256
 30
0.0
 40
4.0
  1
計
  7
BGS
100
AcDbText
  0
TEXT
  5
BC
330
76
100
AcDbEntity
  8
L-1
  6
CONTINUOUS
 62
     2
100
AcDbText
 10
74.35617159743995
 20
20.46605475187192
 30
0.0
 40
4.0
  1
図
  7
BGS
100
AcDbText
  0
TEXT
  5
BD
330
76
100
AcDbEntity
  8
L-1
  6
CONTINUOUS
 62
     2
100
AcDbText
 10
74.40034466043029
 20
15.37472532502692
 30
0.0
 40
4.0
  1
当
  7
BGS
100
AcDbText
  0
TEXT
  5
BE
330
76
100
AcDbEntity
  8
L-1
  6
CONTINUOUS
 62
     2
100
AcDbText
 10
74.35617159743995
 20
10.33741530854638
 30
0.0
 40
4.0
  1
閲
  7
BGS
100
AcDbText
  0
TEXT
  5
BF
330
76
100
AcDbEntity
  8
L-1
  6
CONTINUOUS
 62
     2
100
AcDbText
 10
74.35617159743995
 20
5.313610144656933
 30
0.0
 40
4.0
  1
認
  7
BGS
100
AcDbText
  0
LINE
  5
C0
330
76
100
AcDbEntity
  8
L-1
  6
CONTINUOUS
 62
     5
100
AcDbLine
 10
168.0
 20
5.0
 30
0.0
 11
168.0
 21
23.0
 31
0.0
  0
LINE
  5
C1
330
76
100
AcDbEntity
  8
L-1
  6
CONTINUOUS
 62
     5
100
AcDbLine
 10
4.0
 20
216.0
 30
0.0
 11
13.0
 21
216.0
 31
0.0
  0
LINE
  5
C2
330
76
100
AcDbEntity
  8
L-1
  6
CONTINUOUS
 62
     5
100
AcDbLine
 10
4.0
 20
216.0
 30
0.0
 11
4.0
 21
276.0
 31
0.0
  0
INSERT
  5
C3
330
76
100
AcDbEntity
  8
L-1
  6
CONTINUOUS
 62
     7
100
AcDbBlockReference
  2
TK
 10
110.1811598834469
 20
8.949003766123523
 30
0.0
  0
ENDBLK
  5
C5
330
76
100
AcDbEntity
  8
0
100
AcDbBlockEnd
  0
BLOCK
  5
14DF
330
14D5
100
AcDbEntity
  8
0
 62
     7
100
AcDbBlockBegin
  2
*D4
 70
     1
 10
0.0
 20
0.0
 30
0.0
  3
*D4
  1

  0
LINE
  5
14D6
330
14D5
100
AcDbEntity
  8
L-2
  6
CONTINUOUS
 62
     4
100
AcDbLine
 10
61.46734821828528
 20
67.32793078861718
 30
0.0
 11
76.26441274756301
 21
67.32793078861718
 31
0.0
  0
LINE
  5
14D7
330
14D5
100
AcDbEntity
  8
L-2
  6
CONTINUOUS
 62
     4
100
AcDbLine
 10
61.46734821828528
 20
76.92793078861715
 30
0.0
 11
76.26441274756301
 21
76.92793078861715
 31
0.0
  0
LINE
  5
14D8
330
14D5
100
AcDbEntity
  8
L-2
  6
CONTINUOUS
 62
     4
100
AcDbLine
 10
75.76441274756303
 20
68.57793078861718
 30
0.0
 11
75.76441274756303
 21
75.67793078861715
 31
0.0
  0
INSERT
  5
14D9
330
14D5
100
AcDbEntity
  8
L-2
  6
CONTINUOUS
 62
     4
100
AcDbBlockReference
  2
_OPEN
 10
75.76441274756303
 20
67.32793078861718
 30
0.0
 41
1.25
 42
1.25
 43
1.25
 50
270.0
  0
INSERT
  5
14DA
330
14D5
100
AcDbEntity
  8
L-2
  6
CONTINUOUS
 62
     4
100
AcDbBlockReference
  2
_OPEN
 10
75.76441274756303
 20
76.92793078861715
 30
0.0
 41
1.25
 42
1.25
 43
1.25
 50
90.0
  0
MTEXT
  5
14DB
330
14D5
100
AcDbEntity
  8
L-2
  6
CONTINUOUS
 62
     2
100
AcDbMText
 10
74.71441274756301
 20
72.12793078861719
 30
0.0
 40
1.6
 41
0.0
 71
     5
 72
     1
  1
\A1;9.6
  7
MSゴシック
 11
0.0000000000000001
 21
1.0
 31
0.0
1001
ACAD
1000
MTEXTBEGIN
1070
    73
1070
     1
1070
    44
1040
1.0
1070
    74
1070
     0
1000
MTEXTEND
1000
MTEXTBEGIN
1070
    73
1070
     1
1070
    44
1040
1.0
1070
    74
1070
     0
1000
MTEXTEND
1000
MTEXTBEGIN
1070
    73
1070
     1
1070
    44
1040
1.0
1070
    74
1070
     0
1000
MTEXTEND
  0
POINT
  5
14DC
330
14D5
100
AcDbEntity
  8
DEFPOINTS
  6
CONTINUOUS
 62
     0
100
AcDbPoint
 10
61.21734821828528
 20
67.32793078861718
 30
0.0
  0
POINT
  5
14DD
330
14D5
100
AcDbEntity
  8
DEFPOINTS
  6
CONTINUOUS
 62
     0
100
AcDbPoint
 10
61.21734821828528
 20
76.92793078861715
 30
0.0
  0
POINT
  5
14DE
330
14D5
100
AcDbEntity
  8
DEFPOINTS
  6
CONTINUOUS
 62
     0
100
AcDbPoint
 10
75.76441274756303
 20
76.92793078861715
 30
0.0
  0
ENDBLK
  5
14E0
330
14D5
100
AcDbEntity
  8
0
 62
     7
100
AcDbBlockEnd
  0
BLOCK
  5
14EB
330
14E1
100
AcDbEntity
  8
0
 62
     7
100
AcDbBlockBegin
  2
*D5
 70
     1
 10
0.0
 20
0.0
 30
0.0
  3
*D5
  1

  0
LINE
  5
14E2
330
14E1
100
AcDbEntity
  8
L-2
  6
CONTINUOUS
 62
     4
100
AcDbLine
 10
54.96734821828521
 20
87.55091940274892
 30
0.0
 11
76.0255795776993
 21
87.55091940274892
 31
0.0
  0
LINE
  5
14E3
330
14E1
100
AcDbEntity
  8
L-2
  6
CONTINUOUS
 62
     4
100
AcDbLine
 10
54.96734821828529
 20
94.05091940274898
 30
0.0
 11
76.0255795776993
 21
94.05091940274898
 31
0.0
  0
LINE
  5
14E4
330
14E1
100
AcDbEntity
  8
L-2
  6
CONTINUOUS
 62
     4
100
AcDbLine
 10
75.52557957769931
 20
88.80091940274892
 30
0.0
 11
75.52557957769931
 21
92.80091940274898
 31
0.0
  0
INSERT
  5
14E5
330
14E1
100
AcDbEntity
  8
L-2
  6
CONTINUOUS
 62
     4
100
AcDbBlockReference
  2
_OPEN
 10
75.52557957769931
 20
87.55091940274892
 30
0.0
 41
1.25
 42
1.25
 43
1.25
 50
270.0
  0
INSERT
  5
14E6
330
14E1
100
AcDbEntity
  8
L-2
  6
CONTINUOUS
 62
     4
100
AcDbBlockReference
  2
_OPEN
 10
75.52557957769931
 20
94.05091940274898
 30
0.0
 41
1.25
 42
1.25
 43
1.25
 50
90.0
  0
MTEXT
  5
14E7
330
14E1
100
AcDbEntity
  8
L-2
  6
CONTINUOUS
 62
     2
100
AcDbMText
 10
74.47557957769929
 20
90.80091940274895
 30
0.0
 40
1.6
 41
0.0
 71
     5
 72
     1
  1
\A1;6.5
  7
MSゴシック
 11
0.0000000000000001
 21
1.0
 31
0.0
1001
ACAD
1000
MTEXTBEGIN
1070
    73
1070
     1
1070
    44
1040
1.0
1070
    74
1070
     0
1000
MTEXTEND
1000
MTEXTBEGIN
1070
    73
1070
     1
1070
    44
1040
1.0
1070
    74
1070
     0
1000
MTEXTEND
1000
MTEXTBEGIN
1070
    73
1070
     1
1070
    44
1040
1.0
1070
    74
1070
     0
1000
MTEXTEND
  0
POINT
  5
14E8
330
14E1
100
AcDbEntity
  8
DEFPOINTS
  6
CONTINUOUS
 62
     0
100
AcDbPoint
 10
54.71734821828521
 20
87.55091940274892
 30
0.0
  0
POINT
  5
14E9
330
14E1
100
AcDbEntity
  8
DEFPOINTS
  6
CONTINUOUS
 62
     0
100
AcDbPoint
 10
54.7173482182853
 20
94.05091940274898
 30
0.0
  0
POINT
  5
14EA
330
14E1
100
AcDbEntity
  8
DEFPOINTS
  6
CONTINUOUS
 62
     0
100
AcDbPoint
 10
75.52557957769931
 20
94.05091940274898
 30
0.0
  0
ENDBLK
  5
14EC
330
14E1
100
AcDbEntity
  8
0
 62
     7
100
AcDbBlockEnd
  0
BLOCK
  5
14F7
330
14ED
100
AcDbEntity
  8
0
 62
     7
100
AcDbBlockBegin
  2
*D6
 70
     1
 10
0.0
 20
0.0
 30
0.0
  3
*D6
  1

  0
LINE
  5
14EE
330
14ED
100
AcDbEntity
  8
L-2
  6
CONTINUOUS
 62
     4
100
AcDbLine
 10
67.21734821828528
 20
91.55091940274898
 30
0.0
 11
67.21734821828528
 21
100.1046545532304
 31
0.0
  0
LINE
  5
14EF
330
14ED
100
AcDbEntity
  8
L-2
  6
CONTINUOUS
 62
     4
100
AcDbLine
 10
38.21734821828535
 20
92.30091940274894
 30
0.0
 11
38.21734821828535
 21
100.1046545532304
 31
0.0
  0
LINE
  5
14F0
330
14ED
100
AcDbEntity
  8
L-2
  6
CONTINUOUS
 62
     4
100
AcDbLine
 10
65.96734821828528
 20
99.60465455323054
 30
0.0
 11
39.46734821828535
 21
99.60465455323054
 31
0.0
  0
INSERT
  5
14F1
330
14ED
100
AcDbEntity
  8
L-2
  6
CONTINUOUS
 62
     4
100
AcDbBlockReference
  2
_OPEN
 10
67.21734821828528
 20
99.60465455323054
 30
0.0
 41
1.25
 42
1.25
 43
1.25
  0
INSERT
  5
14F2
330
14ED
100
AcDbEntity
  8
L-2
  6
CONTINUOUS
 62
     4
100
AcDbBlockReference
  2
_OPEN
 10
38.21734821828535
 20
99.60465455323054
 30
0.0
 41
1.25
 42
1.25
 43
1.25
 50
180.0
  0
MTEXT
  5
14F3
330
14ED
100
AcDbEntity
  8
L-2
  6
CONTINUOUS
 62
     2
100
AcDbMText
 10
52.7173482182853
 20
100.6546545532305
 30
0.0
 40
1.6
 41
0.0
 71
     5
 72
     1
  1
\A1;29
  7
MSゴシック
1001
ACAD
1000
MTEXTBEGIN
1070
    73
1070
     1
1070
    44
1040
1.0
1070
    74
1070
     0
1000
MTEXTEND
1000
MTEXTBEGIN
1070
    73
1070
     1
1070
    44
1040
1.0
1070
    74
1070
     0
1000
MTEXTEND
1000
MTEXTBEGIN
1070
    73
1070
     1
1070
    44
1040
1.0
1070
    74
1070
     0
1000
MTEXTEND
  0
POINT
  5
14F4
330
14ED
100
AcDbEntity
  8
DEFPOINTS
  6
CONTINUOUS
 62
     0
100
AcDbPoint
 10
67.21734821828528
 20
91.30091940274899
 30
0.0
  0
POINT
  5
14F5
330
14ED
100
AcDbEntity
  8
DEFPOINTS
  6
CONTINUOUS
 62
     0
100
AcDbPoint
 10
38.21734821828535
 20
92.05091940274895
 30
0.0
  0
POINT
  5
14F6
330
14ED
100
AcDbEntity
  8
DEFPOINTS
  6
CONTINUOUS
 62
     0
100
AcDbPoint
 10
38.21734821828535
 20
99.60465455323054
 30
0.0
  0
ENDBLK
  5
14F8
330
14ED
100
AcDbEntity
  8
0
 62
     7
100
AcDbBlockEnd
  0
BLOCK
  5
1503
330
14F9
100
AcDbEntity
  8
0
100
AcDbBlockBegin
  2
*D7
 70
     1
 10
0.0
 20
0.0
 30
0.0
  3
*D7
  1

  0
LINE
  5
14FA
330
14F9
100
AcDbEntity
  8
L-2
  6
CONTINUOUS
 62
     4
100
AcDbLine
 10
27.00603663706603
 20
91.700919402749
 30
0.0
 11
27.00603663706603
 21
100.1046545532304
 31
0.0
  0
LINE
  5
14FB
330
14F9
100
AcDbEntity
  8
L-2
  6
CONTINUOUS
 62
     4
100
AcDbLine
 10
38.21734821828535
 20
91.700919402749
 30
0.0
 11
38.21734821828535
 21
100.1046545532304
 31
0.0
  0
LINE
  5
14FC
330
14F9
100
AcDbEntity
  8
L-2
  6
CONTINUOUS
 62
     4
100
AcDbLine
 10
28.25603663706603
 20
99.60465455323054
 30
0.0
 11
36.96734821828535
 21
99.60465455323054
 31
0.0
  0
INSERT
  5
14FD
330
14F9
100
AcDbEntity
  8
L-2
  6
CONTINUOUS
 62
     4
100
AcDbBlockReference
  2
_OPEN
 10
27.00603663706603
 20
99.60465455323054
 30
0.0
 41
1.25
 42
1.25
 43
1.25
 50
180.0
  0
INSERT
  5
14FE
330
14F9
100
AcDbEntity
  8
L-2
  6
CONTINUOUS
 62
     4
100
AcDbBlockReference
  2
_OPEN
 10
38.21734821828535
 20
99.60465455323054
 30
0.0
 41
1.25
 42
1.25
 43
1.25
  0
MTEXT
  5
14FF
330
14F9
100
AcDbEntity
  8
L-2
  6
CONTINUOUS
 62
     2
100
AcDbMText
 10
32.6116924276757
 20
100.7480555684588
 30
0.0
 40
1.6
 41
0.0
 71
     5
 72
     1
  1
\A1;（700）
  7
MSゴシック
1001
ACAD
1000
MTEXTBEGIN
1070
    73
1070
     1
1070
    44
1040
1.0
1070
    74
1070
     0
1000
MTEXTEND
1000
MTEXTBEGIN
1070
    73
1070
     1
1070
    44
1040
1.0
1070
    74
1070
     0
1000
MTEXTEND
1000
MTEXTBEGIN
1070
    73
1070
     1
1070
    44
1040
1.0
1070
    74
1070
     0
1000
MTEXTEND
  0
POINT
  5
1500
330
14F9
100
AcDbEntity
  8
DEFPOINTS
  6
CONTINUOUS
 62
     0
100
AcDbPoint
 10
27.00603663706603
 20
91.450919402749
 30
0.0
  0
POINT
  5
1501
330
14F9
100
AcDbEntity
  8
DEFPOINTS
  6
CONTINUOUS
 62
     0
100
AcDbPoint
 10
38.21734821828535
 20
91.45091940274898
 30
0.0
  0
POINT
  5
1502
330
14F9
100
AcDbEntity
  8
DEFPOINTS
  6
CONTINUOUS
 62
     0
100
AcDbPoint
 10
38.21734821828535
 20
99.60465455323054
 30
0.0
  0
ENDBLK
  5
1504
330
14F9
100
AcDbEntity
  8
0
100
AcDbBlockEnd
  0
BLOCK
  5
1688
330
1505
100
AcDbEntity
  8
0
100
AcDbBlockBegin
  2
A$C30117B11
 70
     0
 10
0.0
 20
0.0
 30
0.0
  3
A$C30117B11
  1

  0
LINE
  5
1506
330
1505
100
AcDbEntity
  8
L-1
  6
CONTINUOUS
 62
     5
100
AcDbLine
 10
0.0000001503934755
 20
0.0000000878506512
 30
0.0
 11
85.00000015039349
 21
0.0000000878506512
 31
0.0
  0
LINE
  5
1507
330
1505
100
AcDbEntity
  8
L-1
  6
CONTINUOUS
 62
     5
100
AcDbLine
 10
0.0000001503934755
 20
135.5000000878504
 30
0.0
 11
85.5000001503935
 21
135.5000000878504
 31
0.0
  0
LINE
  5
1508
330
1505
100
AcDbEntity
  8
L-1
  6
CONTINUOUS
 62
     7
100
AcDbLine
 10
52.71734836867877
 20
91.55091949059963
 30
0.0
 11
41.21734836867878
 21
91.55091949059963
 31
0.0
  0
LINE
  5
1509
330
1505
100
AcDbEntity
  8
L-1
  6
CENTER2
 62
     1
 48
0.3
100
AcDbLine
 10
65.75310564997074
 20
88.3009194905996
 30
0.0
 11
34.35377431800237
 21
88.3009194905996
 31
0.0
  0
LINE
  5
150A
330
1505
100
AcDbEntity
  8
L-1
  6
CONTINUOUS
 62
     7
100
AcDbLine
 10
59.21734836867877
 20
116.8826224506162
 30
0.0
 11
41.21734836867878
 21
116.8826224506162
 31
0.0
  0
LINE
  5
150B
330
1505
100
AcDbEntity
  8
L-1
  6
CONTINUOUS
 62
     7
100
AcDbLine
 10
59.21734836867877
 20
107.2826224506163
 30
0.0
 11
41.21734836867878
 21
107.2826224506163
 31
0.0
  0
DIMENSION
  5
150C
330
1505
100
AcDbEntity
  8
L-2
  6
CONTINUOUS
100
AcDbDimension
  2
*D6
 10
36.21734836867883
 20
97.1046546410812
 30
0.0
 11
50.71734836867879
 21
98.15465464108116
 31
0.0
 12
-1.999999849606524
 22
-2.499999912149348
 32
0.0
  3
CAD-STD1-1
100
AcDbAlignedDimension
 13
65.21734836867875
 23
88.80091949059965
 33
0.0
 14
36.21734836867883
 24
89.5509194905996
 34
0.0
 50
180.0
100
AcDbRotatedDimension
  0
LINE
  5
150D
330
1505
100
AcDbEntity
  8
L-1
  6
CONTINUOUS
 62
     7
100
AcDbLine
 10
52.71734836867868
 20
85.05091949059957
 30
0.0
 11
41.21734836867878
 21
85.05091949059957
 31
0.0
  0
TEXT
  5
150E
330
1505
100
AcDbEntity
  8
L-2
  6
CONTINUOUS
 62
     5
100
AcDbText
 10
42.21092385981399
 20
72.87247682568434
 30
0.0
 40
2.0
  1
MT20
 50
270.0
 41
1.3
  7
MSゴシック
100
AcDbText
  0
LINE
  5
150F
330
1505
100
AcDbEntity
  8
L-1
  6
CONTINUOUS
 62
     7
100
AcDbLine
 10
59.21734836867877
 20
64.82793087646783
 30
0.0
 11
41.21734836867875
 21
64.82793087646783
 31
0.0
  0
LINE
  5
1510
330
1505
100
AcDbEntity
  8
L-1
  6
CONTINUOUS
 62
     7
100
AcDbLine
 10
59.21734836867877
 20
74.4279308764678
 30
0.0
 11
41.21734836867875
 21
74.4279308764678
 31
0.0
  0
LINE
  5
1511
330
1505
100
AcDbEntity
  8
L-2
  6
CONTINUOUS
 62
     4
100
AcDbLine
 10
58.59540290346965
 20
61.38997526324299
 30
0.0
 11
36.52697496577582
 21
61.38997526324299
 31
0.0
  0
LINE
  5
1512
330
1505
100
AcDbEntity
  8
L-1
  6
CONTINUOUS
 62
     5
100
AcDbLine
 10
0.0000001503934755
 20
0.0000000878506512
 30
0.0
 11
0.0000001503934755
 21
135.5000000878504
 31
0.0
  0
TEXT
  5
1513
330
1505
100
AcDbEntity
  8
L-2
  6
CONTINUOUS
 62
     2
100
AcDbText
 10
17.06788362753198
 20
66.41096095223794
 30
0.0
 40
1.199999999999999
  1
OUT2（黄）
  7
MSゴシック
 72
     4
 11
20.96636078489239
 21
66.96527567305013
 31
0.0
100
AcDbText
  0
POLYLINE
  5
1514
330
1505
100
AcDbEntity
  8
L-1
  6
CONTINUOUS
 62
     3
100
AcDb2dPolyline
 66
     1
 10
0.0
 20
0.0
 30
0.0
 70
     2
  0
VERTEX
  5
1515
330
1514
100
AcDbEntity
  8
L-1
  6
CONTINUOUS
 62
     3
100
AcDbVertex
100
AcDb2dVertex
 10
31.30963313093778
 20
66.42793087646785
 30
0.0
 42
-0.0438764955251235
  0
VERTEX
  5
1516
330
1514
100
AcDbEntity
  8
L-1
  6
CONTINUOUS
 62
     3
100
AcDbVertex
100
AcDb2dVertex
 10
31.23811955138724
 20
66.62329811726802
 30
0.0
 42
-0.0694411009133329
 70
     1
  0
VERTEX
  5
1517
330
1514
100
AcDbEntity
  8
L-1
  6
CONTINUOUS
 62
     3
100
AcDbVertex
100
AcDb2dVertex
 10
31.22174315498774
 20
66.7541104808414
 30
0.0
 42
-0.1183875812258901
  0
VERTEX
  5
1518
330
1514
100
AcDbEntity
  8
L-1
  6
CONTINUOUS
 62
     3
100
AcDbVertex
100
AcDb2dVertex
 10
31.30052809423323
 20
67.06292040490906
 30
0.0
 42
0.1140489613631568
 70
     1
  0
VERTEX
  5
1519
330
1514
100
AcDbEntity
  8
L-1
  6
CONTINUOUS
 62
     3
100
AcDbVertex
100
AcDb2dVertex
 10
31.38496754025974
 20
67.38244797736328
 30
0.0
 42
0.0615614585235404
  0
VERTEX
  5
151A
330
1514
100
AcDbEntity
  8
L-1
  6
CONTINUOUS
 62
     3
100
AcDbVertex
100
AcDb2dVertex
 10
31.37192625398071
 20
67.52422403197215
 30
0.0
 42
0.0410594091454475
 70
     1
  0
VERTEX
  5
151B
330
1514
100
AcDbEntity
  8
L-1
  6
CONTINUOUS
 62
     3
100
AcDbVertex
100
AcDb2dVertex
 10
31.30963313093778
 20
67.72793087646785
 30
0.0
  0
SEQEND
  5
151C
330
1514
100
AcDbEntity
  8
L-1
  6
CONTINUOUS
 62
     3
  0
POLYLINE
  5
151D
330
1505
100
AcDbEntity
  8
L-1
  6
CONTINUOUS
 62
     3
100
AcDb2dPolyline
 66
     1
 10
0.0
 20
0.0
 30
0.0
 70
     2
  0
VERTEX
  5
151E
330
151D
100
AcDbEntity
  8
L-1
  6
CONTINUOUS
 62
     3
100
AcDbVertex
100
AcDb2dVertex
 10
31.99407185154715
 20
66.42793087646785
 30
0.0
 42
-0.0438764955251235
  0
VERTEX
  5
151F
330
151D
100
AcDbEntity
  8
L-1
  6
CONTINUOUS
 62
     3
100
AcDbVertex
100
AcDb2dVertex
 10
31.92255827199661
 20
66.62329811726802
 30
0.0
 42
-0.0694411009133329
 70
     1
  0
VERTEX
  5
1520
330
151D
100
AcDbEntity
  8
L-1
  6
CONTINUOUS
 62
     3
100
AcDbVertex
100
AcDb2dVertex
 10
31.90618187559712
 20
66.7541104808414
 30
0.0
 42
-0.1183875812258901
  0
VERTEX
  5
1521
330
151D
100
AcDbEntity
  8
L-1
  6
CONTINUOUS
 62
     3
100
AcDbVertex
100
AcDb2dVertex
 10
31.98496681484257
 20
67.06292040490906
 30
0.0
 42
0.1140489613631568
 70
     1
  0
VERTEX
  5
1522
330
151D
100
AcDbEntity
  8
L-1
  6
CONTINUOUS
 62
     3
100
AcDbVertex
100
AcDb2dVertex
 10
32.06940626086907
 20
67.38244797736328
 30
0.0
 42
0.0615614585235404
  0
VERTEX
  5
1523
330
151D
100
AcDbEntity
  8
L-1
  6
CONTINUOUS
 62
     3
100
AcDbVertex
100
AcDb2dVertex
 10
32.05636497459009
 20
67.52422403197215
 30
0.0
 42
0.0410594091454475
 70
     1
  0
VERTEX
  5
1524
330
151D
100
AcDbEntity
  8
L-1
  6
CONTINUOUS
 62
     3
100
AcDbVertex
100
AcDb2dVertex
 10
31.99407185154715
 20
67.72793087646785
 30
0.0
  0
SEQEND
  5
1525
330
151D
100
AcDbEntity
  8
L-1
  6
CONTINUOUS
 62
     3
  0
LINE
  5
1526
330
1505
100
AcDbEntity
  8
L-1
  6
CONTINUOUS
 62
     7
100
AcDbLine
 10
25.00603678745948
 20
66.42793087646785
 30
0.0
 11
25.0060367874595
 21
67.72793087646785
 31
0.0
  0
LINE
  5
1527
330
1505
100
AcDbEntity
  8
L-1
  6
CONTINUOUS
 62
     7
100
AcDbLine
 10
40.21734836867874
 20
74.4279308764678
 30
0.0
 11
40.21734836867874
 21
64.82793087646783
 31
0.0
  0
LINE
  5
1528
330
1505
100
AcDbEntity
  8
L-1
  6
CONTINUOUS
 62
     7
100
AcDbLine
 10
39.21734836867875
 20
74.4279308764678
 30
0.0
 11
39.21734836867875
 21
64.82793087646783
 31
0.0
  0
LINE
  5
1529
330
1505
100
AcDbEntity
  8
L-1
  6
CONTINUOUS
 62
     7
100
AcDbLine
 10
41.21734836867875
 20
74.4279308764678
 30
0.0
 11
41.21734836867875
 21
64.82793087646783
 31
0.0
  0
LINE
  5
152A
330
1505
100
AcDbEntity
  8
L-1
  6
CONTINUOUS
 62
     7
100
AcDbLine
 10
38.21734836867875
 20
74.4279308764678
 30
0.0
 11
38.21734836867875
 21
64.82793087646783
 31
0.0
  0
LINE
  5
152B
330
1505
100
AcDbEntity
  8
L-1
  6
CONTINUOUS
 62
     7
100
AcDbLine
 10
37.21734836867875
 20
74.4279308764678
 30
0.0
 11
37.21734836867875
 21
64.82793087646783
 31
0.0
  0
LINE
  5
152C
330
1505
100
AcDbEntity
  8
L-1
  6
CONTINUOUS
 62
     7
100
AcDbLine
 10
36.21734836867879
 20
72.92793087646785
 30
0.0
 11
36.21734836867879
 21
66.32793087646785
 31
0.0
  0
LINE
  5
152D
330
1505
100
AcDbEntity
  8
L-1
  6
CONTINUOUS
 62
     7
100
AcDbLine
 10
31.30963313093778
 20
66.42793087646785
 30
0.0
 11
25.0060367874595
 21
66.42793087646785
 31
0.0
  0
LINE
  5
152E
330
1505
100
AcDbEntity
  8
L-1
  6
CONTINUOUS
 62
     7
100
AcDbLine
 10
36.21734836867883
 20
66.42793087646785
 30
0.0
 11
31.99407185154715
 21
66.42793087646785
 31
0.0
  0
LINE
  5
152F
330
1505
100
AcDbEntity
  8
L-1
  6
CONTINUOUS
 62
     7
100
AcDbLine
 10
38.21734836867875
 20
65.82793087646784
 30
0.0
 11
39.21734836867875
 21
65.82793087646784
 31
0.0
  0
LINE
  5
1530
330
1505
100
AcDbEntity
  8
L-1
  6
CONTINUOUS
 62
     7
100
AcDbLine
 10
36.71734836867882
 20
65.82793087646784
 30
0.0
 11
37.21734836867875
 21
65.82793087646784
 31
0.0
  0
LINE
  5
1531
330
1505
100
AcDbEntity
  8
L-2
  6
CONTINUOUS
 62
     4
100
AcDbLine
 10
36.52697496577582
 20
61.38997526324299
 30
0.0
 11
35.95613196517907
 21
62.42638598876775
 31
0.0
  0
ARC
  5
1532
330
1505
100
AcDbEntity
  8
L-1
  6
CONTINUOUS
 62
     7
100
AcDbCircle
 10
36.71734836867882
 20
66.32793087646786
 30
0.0
 40
0.5
100
AcDbArc
 50
180.0
 51
270.0
  0
LINE
  5
1533
330
1505
100
AcDbEntity
  8
L-1
  6
CONTINUOUS
 62
     7
100
AcDbLine
 10
38.21734836867875
 20
64.82793087646783
 30
0.0
 11
37.21734836867875
 21
64.82793087646783
 31
0.0
  0
LINE
  5
1534
330
1505
100
AcDbEntity
  8
L-1
  6
CONTINUOUS
 62
     7
100
AcDbLine
 10
40.21734836867874
 20
65.82793087646784
 30
0.0
 11
41.21734836867875
 21
65.82793087646784
 31
0.0
  0
LINE
  5
1535
330
1505
100
AcDbEntity
  8
L-1
  6
CONTINUOUS
 62
     7
100
AcDbLine
 10
40.21734836867874
 20
64.82793087646783
 30
0.0
 11
39.21734836867875
 21
64.82793087646783
 31
0.0
  0
LINE
  5
1536
330
1505
100
AcDbEntity
  8
L-1
  6
CONTINUOUS
 62
     7
100
AcDbLine
 10
17.97543961237894
 20
116.8826224506162
 30
0.0
 11
12.47543961237894
 21
116.8826224506162
 31
0.0
  0
LINE
  5
1537
330
1505
100
AcDbEntity
  8
L-1
  6
CONTINUOUS
 62
     7
100
AcDbLine
 10
16.47543961237894
 20
115.8826224506162
 30
0.0
 11
13.97543961237894
 21
115.8826224506162
 31
0.0
  0
LINE
  5
1538
330
1505
100
AcDbEntity
  8
L-1
  6
CONTINUOUS
 62
     7
100
AcDbLine
 10
17.97543961237897
 20
107.2826224506163
 30
0.0
 11
12.47543961237894
 21
107.2826224506163
 31
0.0
  0
LINE
  5
1539
330
1505
100
AcDbEntity
  8
L-1
  6
CONTINUOUS
 62
     7
100
AcDbLine
 10
16.47543961237897
 20
108.2826224506163
 30
0.0
 11
13.97543961237894
 21
108.2826224506163
 31
0.0
  0
LINE
  5
153A
330
1505
100
AcDbEntity
  8
L-1
  6
CONTINUOUS
 62
     7
100
AcDbLine
 10
13.47543961237894
 20
108.7826224506162
 30
0.0
 11
13.47543961237894
 21
115.3826224506163
 31
0.0
  0
LINE
  5
153B
330
1505
100
AcDbEntity
  8
L-1
  6
CONTINUOUS
 62
     7
100
AcDbLine
 10
12.97543961237894
 20
107.7826224506162
 30
0.0
 11
12.97543961237894
 21
116.3826224506163
 31
0.0
  0
LINE
  5
153C
330
1505
100
AcDbEntity
  8
L-1
  6
CONTINUOUS
 62
     7
100
AcDbLine
 10
11.97543961237893
 20
107.7826224506162
 30
0.0
 11
11.97543961237893
 21
116.3826224506163
 31
0.0
  0
ARC
  5
153D
330
1505
100
AcDbEntity
  8
L-1
  6
CONTINUOUS
 62
     7
100
AcDbCircle
 10
12.47543961237894
 20
107.7826224506162
 30
0.0
 40
0.5
100
AcDbArc
 50
180.0
 51
270.0
  0
ARC
  5
153E
330
1505
100
AcDbEntity
  8
L-1
  6
CONTINUOUS
 62
     7
100
AcDbCircle
 10
13.97543961237894
 20
108.7826224506162
 30
0.0
 40
0.5
100
AcDbArc
 50
180.0
 51
270.0
  0
ARC
  5
153F
330
1505
100
AcDbEntity
  8
L-1
  6
CONTINUOUS
 62
     7
100
AcDbCircle
 10
13.47543961237894
 20
107.7826224506162
 30
0.0
 40
0.5
100
AcDbArc
 50
180.0
 51
270.0
  0
ARC
  5
1540
330
1505
100
AcDbEntity
  8
L-1
  6
CONTINUOUS
 62
     7
100
AcDbCircle
 10
12.47543961237894
 20
116.3826224506163
 30
0.0
 40
0.5
100
AcDbArc
 50
90.0
 51
180.0
  0
ARC
  5
1541
330
1505
100
AcDbEntity
  8
L-1
  6
CONTINUOUS
 62
     7
100
AcDbCircle
 10
13.97543961237894
 20
115.3826224506163
 30
0.0
 40
0.5
100
AcDbArc
 50
90.0
 51
180.0
  0
ARC
  5
1542
330
1505
100
AcDbEntity
  8
L-1
  6
CONTINUOUS
 62
     7
100
AcDbCircle
 10
13.47543961237894
 20
116.3826224506163
 30
0.0
 40
0.5
100
AcDbArc
 50
90.0
 51
180.0
  0
LINE
  5
1543
330
1505
100
AcDbEntity
  8
L-1
  6
CONTINUOUS
 62
     7
100
AcDbLine
 10
25.00603678745951
 20
108.8826224506162
 30
0.0
 11
25.00603678745951
 21
110.1826224506162
 31
0.0
  0
POLYLINE
  5
1544
330
1505
100
AcDbEntity
  8
L-1
  6
CONTINUOUS
 62
     3
100
AcDb2dPolyline
 66
     1
 10
0.0
 20
0.0
 30
0.0
 70
     2
  0
VERTEX
  5
1545
330
1544
100
AcDbEntity
  8
L-1
  6
CONTINUOUS
 62
     3
100
AcDbVertex
100
AcDb2dVertex
 10
31.99407185154715
 20
110.1826224506163
 30
0.0
 42
0.0438764955251235
  0
VERTEX
  5
1546
330
1544
100
AcDbEntity
  8
L-1
  6
CONTINUOUS
 62
     3
100
AcDbVertex
100
AcDb2dVertex
 10
31.92255827199661
 20
109.987255209816
 30
0.0
 42
0.0694411009133329
 70
     1
  0
VERTEX
  5
1547
330
1544
100
AcDbEntity
  8
L-1
  6
CONTINUOUS
 62
     3
100
AcDbVertex
100
AcDb2dVertex
 10
31.90618187559712
 20
109.8564428462426
 30
0.0
 42
0.1183875812258901
  0
VERTEX
  5
1548
330
1544
100
AcDbEntity
  8
L-1
  6
CONTINUOUS
 62
     3
100
AcDbVertex
100
AcDb2dVertex
 10
31.98496681484257
 20
109.5476329221751
 30
0.0
 42
-0.1140489613631568
 70
     1
  0
VERTEX
  5
1549
330
1544
100
AcDbEntity
  8
L-1
  6
CONTINUOUS
 62
     3
100
AcDbVertex
100
AcDb2dVertex
 10
32.06940626086907
 20
109.2281053497208
 30
0.0
 42
-0.0615614585235404
  0
VERTEX
  5
154A
330
1544
100
AcDbEntity
  8
L-1
  6
CONTINUOUS
 62
     3
100
AcDbVertex
100
AcDb2dVertex
 10
32.05636497459009
 20
109.0863292951119
 30
0.0
 42
-0.0410594091454475
 70
     1
  0
VERTEX
  5
154B
330
1544
100
AcDbEntity
  8
L-1
  6
CONTINUOUS
 62
     3
100
AcDbVertex
100
AcDb2dVertex
 10
31.99407185154715
 20
108.8826224506163
 30
0.0
  0
SEQEND
  5
154C
330
1544
100
AcDbEntity
  8
L-1
  6
CONTINUOUS
 62
     3
  0
POLYLINE
  5
154D
330
1505
100
AcDbEntity
  8
L-1
  6
CONTINUOUS
 62
     3
100
AcDb2dPolyline
 66
     1
 10
0.0
 20
0.0
 30
0.0
 70
     2
  0
VERTEX
  5
154E
330
154D
100
AcDbEntity
  8
L-1
  6
CONTINUOUS
 62
     3
100
AcDbVertex
100
AcDb2dVertex
 10
31.30963313093778
 20
110.1826224506163
 30
0.0
 42
0.0438764955251235
  0
VERTEX
  5
154F
330
154D
100
AcDbEntity
  8
L-1
  6
CONTINUOUS
 62
     3
100
AcDbVertex
100
AcDb2dVertex
 10
31.23811955138724
 20
109.987255209816
 30
0.0
 42
0.0694411009133329
 70
     1
  0
VERTEX
  5
1550
330
154D
100
AcDbEntity
  8
L-1
  6
CONTINUOUS
 62
     3
100
AcDbVertex
100
AcDb2dVertex
 10
31.22174315498774
 20
109.8564428462426
 30
0.0
 42
0.1183875812258901
  0
VERTEX
  5
1551
330
154D
100
AcDbEntity
  8
L-1
  6
CONTINUOUS
 62
     3
100
AcDbVertex
100
AcDb2dVertex
 10
31.30052809423323
 20
109.5476329221751
 30
0.0
 42
-0.1140489613631568
 70
     1
  0
VERTEX
  5
1552
330
154D
100
AcDbEntity
  8
L-1
  6
CONTINUOUS
 62
     3
100
AcDbVertex
100
AcDb2dVertex
 10
31.38496754025974
 20
109.2281053497208
 30
0.0
 42
-0.0615614585235404
  0
VERTEX
  5
1553
330
154D
100
AcDbEntity
  8
L-1
  6
CONTINUOUS
 62
     3
100
AcDbVertex
100
AcDb2dVertex
 10
31.37192625398071
 20
109.0863292951119
 30
0.0
 42
-0.0410594091454475
 70
     1
  0
VERTEX
  5
1554
330
154D
100
AcDbEntity
  8
L-1
  6
CONTINUOUS
 62
     3
100
AcDbVertex
100
AcDb2dVertex
 10
31.30963313093778
 20
108.8826224506163
 30
0.0
  0
SEQEND
  5
1555
330
154D
100
AcDbEntity
  8
L-1
  6
CONTINUOUS
 62
     3
  0
TEXT
  5
1556
330
1505
100
AcDbEntity
  8
L-2
  6
CONTINUOUS
 62
     2
100
AcDbText
 10
22.66642027186756
 20
108.8052549007203
 30
0.0
 40
1.199999999999999
  1
赤
  7
MSゴシック
 72
     4
 11
23.44611570333964
 21
109.3656609920909
 31
0.0
100
AcDbText
  0
LINE
  5
1557
330
1505
100
AcDbEntity
  8
L-1
  6
CONTINUOUS
 62
     7
100
AcDbLine
 10
16.97543961237897
 20
108.7826224506162
 30
0.0
 11
16.97543961237894
 21
115.3826224506163
 31
0.0
  0
LINE
  5
1558
330
1505
100
AcDbEntity
  8
L-1
  6
CONTINUOUS
 62
     7
100
AcDbLine
 10
17.47543961237897
 20
107.7826224506162
 30
0.0
 11
17.47543961237894
 21
116.3826224506163
 31
0.0
  0
LINE
  5
1559
330
1505
100
AcDbEntity
  8
L-1
  6
CONTINUOUS
 62
     7
100
AcDbLine
 10
18.47543961237897
 20
107.7826224506162
 30
0.0
 11
18.47543961237894
 21
116.3826224506163
 31
0.0
  0
CIRCLE
  5
155A
330
1505
100
AcDbEntity
  8
L-1
  6
CONTINUOUS
 62
     7
100
AcDbCircle
 10
15.22543961237895
 20
109.8326224506162
 30
0.0
 40
0.65
  0
LINE
  5
155B
330
1505
100
AcDbEntity
  8
L-1
  6
CONTINUOUS
 62
     7
100
AcDbLine
 10
37.21734836867877
 20
107.2826224506163
 30
0.0
 11
37.21734836867875
 21
116.8826224506162
 31
0.0
  0
LINE
  5
155C
330
1505
100
AcDbEntity
  8
L-1
  6
CONTINUOUS
 62
     7
100
AcDbLine
 10
38.21734836867877
 20
107.2826224506163
 30
0.0
 11
38.21734836867877
 21
116.8826224506162
 31
0.0
  0
LINE
  5
155D
330
1505
100
AcDbEntity
  8
L-1
  6
CONTINUOUS
 62
     7
100
AcDbLine
 10
36.21734836867883
 20
108.7826224506162
 30
0.0
 11
36.21734836867883
 21
115.3826224506162
 31
0.0
  0
LINE
  5
155E
330
1505
100
AcDbEntity
  8
L-1
  6
CONTINUOUS
 62
     7
100
AcDbLine
 10
41.21734836867878
 20
107.2826224506163
 30
0.0
 11
41.21734836867878
 21
116.8826224506162
 31
0.0
  0
LINE
  5
155F
330
1505
100
AcDbEntity
  8
L-1
  6
CONTINUOUS
 62
     7
100
AcDbLine
 10
39.21734836867877
 20
107.2826224506163
 30
0.0
 11
39.21734836867875
 21
116.8826224506162
 31
0.0
  0
LINE
  5
1560
330
1505
100
AcDbEntity
  8
L-1
  6
CONTINUOUS
 62
     7
100
AcDbLine
 10
40.21734836867874
 20
107.2826224506163
 30
0.0
 11
40.21734836867874
 21
116.8826224506162
 31
0.0
  0
DIMENSION
  5
1561
330
1505
100
AcDbEntity
  8
L-2
  6
CONTINUOUS
100
AcDbDimension
  2
*D7
 10
36.21734836867883
 20
97.1046546410812
 30
0.0
 11
30.61169257806917
 21
98.24805565630954
 31
0.0
 12
-1.999999849606524
 22
-2.499999912149348
 32
0.0
  1
（700）
  3
CAD-STD1-1
100
AcDbAlignedDimension
 13
25.00603678745951
 23
88.95091949059965
 33
0.0
 14
36.21734836867883
 24
88.95091949059963
 34
0.0
100
AcDbRotatedDimension
  0
LINE
  5
1562
330
1505
100
AcDbEntity
  8
L-1
  6
CONTINUOUS
 62
     7
100
AcDbLine
 10
31.30963313093766
 20
108.8826224506162
 30
0.0
 11
25.0060367874595
 21
108.8826224506162
 31
0.0
  0
LINE
  5
1563
330
1505
100
AcDbEntity
  8
L-1
  6
CONTINUOUS
 62
     7
100
AcDbLine
 10
31.30963313093778
 20
87.65091949059963
 30
0.0
 11
25.0060367874595
 21
87.65091949059963
 31
0.0
  0
LINE
  5
1564
330
1505
100
AcDbEntity
  8
L-1
  6
CONTINUOUS
 62
     7
100
AcDbLine
 10
31.30963313093778
 20
88.95091949059963
 30
0.0
 11
25.0060367874595
 21
88.95091949059965
 31
0.0
  0
LINE
  5
1565
330
1505
100
AcDbEntity
  8
L-1
  6
CONTINUOUS
 62
     7
100
AcDbLine
 10
31.30963313093773
 20
67.72793087646785
 30
0.0
 11
25.0060367874595
 21
67.72793087646785
 31
0.0
  0
LINE
  5
1566
330
1505
100
AcDbEntity
  8
L-1
  6
CONTINUOUS
 62
     7
100
AcDbLine
 10
31.30963313093773
 20
68.12793087646785
 30
0.0
 11
25.0060367874595
 21
68.12793087646785
 31
0.0
  0
LINE
  5
1567
330
1505
100
AcDbEntity
  8
L-1
  6
CONTINUOUS
 62
     7
100
AcDbLine
 10
31.30963313093772
 20
69.42793087646785
 30
0.0
 11
25.00603678745948
 21
69.42793087646785
 31
0.0
  0
LINE
  5
1568
330
1505
100
AcDbEntity
  8
L-1
  6
CONTINUOUS
 62
     7
100
AcDbLine
 10
31.3096331309377
 20
69.82793087646784
 30
0.0
 11
25.00603678745948
 21
69.82793087646784
 31
0.0
  0
LINE
  5
1569
330
1505
100
AcDbEntity
  8
L-1
  6
CONTINUOUS
 62
     7
100
AcDbLine
 10
31.30963313093767
 20
71.12793087646784
 30
0.0
 11
25.00603678745948
 21
71.12793087646784
 31
0.0
  0
LINE
  5
156A
330
1505
100
AcDbEntity
  8
L-1
  6
CONTINUOUS
 62
     7
100
AcDbLine
 10
31.30963313093769
 20
71.52793087646784
 30
0.0
 11
25.00603678745948
 21
71.52793087646784
 31
0.0
  0
LINE
  5
156B
330
1505
100
AcDbEntity
  8
L-1
  6
CONTINUOUS
 62
     7
100
AcDbLine
 10
31.30963313093765
 20
72.82793087646784
 30
0.0
 11
25.00603678745948
 21
72.82793087646784
 31
0.0
  0
LINE
  5
156C
330
1505
100
AcDbEntity
  8
L-1
  6
CONTINUOUS
 62
     7
100
AcDbLine
 10
25.00603678745948
 20
87.65091949059963
 30
0.0
 11
25.00603678745951
 21
88.95091949059965
 31
0.0
  0
TEXT
  5
156D
330
1505
100
AcDbEntity
  8
L-2
  6
CONTINUOUS
 62
     2
100
AcDbText
 10
17.8763705270458
 20
68.22630559871244
 30
0.0
 40
1.199999999999999
  1
IN2（白）
  7
MSゴシック
 72
     4
 11
21.38499996867016
 21
68.78671169008299
 31
0.0
100
AcDbText
  0
TEXT
  5
156E
330
1505
100
AcDbEntity
  8
L-2
  6
CONTINUOUS
 62
     2
100
AcDbText
 10
17.87605248131511
 20
71.6039806062437
 30
0.0
 40
1.199999999999999
  1
IN1（赤）
  7
MSゴシック
 72
     4
 11
21.38468192293947
 21
72.16438669761425
 31
0.0
100
AcDbText
  0
TEXT
  5
156F
330
1505
100
AcDbEntity
  8
L-2
  6
CONTINUOUS
 62
     2
100
AcDbText
 10
17.10423332487187
 20
69.88161229259411
 30
0.0
 40
1.199999999999999
  1
OUT1（青）
  7
MSゴシック
 72
     4
 11
21.00271048223228
 21
70.44810975452304
 31
0.0
100
AcDbText
  0
LINE
  5
1570
330
1505
100
AcDbEntity
  8
L-1
  6
CONTINUOUS
 62
     7
100
AcDbLine
 10
25.00603678745948
 20
71.52793087646784
 30
0.0
 11
25.00603678745948
 21
72.82793087646784
 31
0.0
  0
LINE
  5
1571
330
1505
100
AcDbEntity
  8
L-1
  6
CONTINUOUS
 62
     7
100
AcDbLine
 10
25.0060367874595
 20
68.12793087646785
 30
0.0
 11
25.0060367874595
 21
69.42793087646785
 31
0.0
  0
LINE
  5
1572
330
1505
100
AcDbEntity
  8
L-1
  6
CONTINUOUS
 62
     7
100
AcDbLine
 10
25.00603678745948
 20
69.82793087646784
 30
0.0
 11
25.00603678745948
 21
71.12793087646784
 31
0.0
  0
ARC
  5
1573
330
1505
100
AcDbEntity
  8
L-1
  6
CONTINUOUS
 62
     7
100
AcDbCircle
 10
16.97543961237897
 20
107.7826224506162
 30
0.0
 40
0.5
100
AcDbArc
 50
270.0
 51
0.0
  0
ARC
  5
1574
330
1505
100
AcDbEntity
  8
L-1
  6
CONTINUOUS
 62
     7
100
AcDbCircle
 10
16.47543961237897
 20
108.7826224506162
 30
0.0
 40
0.5
100
AcDbArc
 50
270.0
 51
0.0
  0
ARC
  5
1575
330
1505
100
AcDbEntity
  8
L-1
  6
CONTINUOUS
 62
     7
100
AcDbCircle
 10
17.97543961237897
 20
107.7826224506162
 30
0.0
 40
0.5
100
AcDbArc
 50
270.0
 51
0.0
  0
POLYLINE
  5
1576
330
1505
100
AcDbEntity
  8
L-1
  6
CONTINUOUS
 62
     3
100
AcDb2dPolyline
 66
     1
 10
0.0
 20
0.0
 30
0.0
 70
     2
  0
VERTEX
  5
1577
330
1576
100
AcDbEntity
  8
L-1
  6
CONTINUOUS
 62
     3
100
AcDbVertex
100
AcDb2dVertex
 10
31.30963313093789
 20
87.65091949059963
 30
0.0
 42
-0.0438764955251235
  0
VERTEX
  5
1578
330
1576
100
AcDbEntity
  8
L-1
  6
CONTINUOUS
 62
     3
100
AcDbVertex
100
AcDb2dVertex
 10
31.23811955138735
 20
87.8462867313998
 30
0.0
 42
-0.0694411009133329
 70
     1
  0
VERTEX
  5
1579
330
1576
100
AcDbEntity
  8
L-1
  6
CONTINUOUS
 62
     3
100
AcDbVertex
100
AcDb2dVertex
 10
31.22174315498787
 20
87.97709909497319
 30
0.0
 42
-0.1183875812258901
  0
VERTEX
  5
157A
330
1576
100
AcDbEntity
  8
L-1
  6
CONTINUOUS
 62
     3
100
AcDbVertex
100
AcDb2dVertex
 10
31.30052809423332
 20
88.28590901904085
 30
0.0
 42
0.1140489613631568
 70
     1
  0
VERTEX
  5
157B
330
1576
100
AcDbEntity
  8
L-1
  6
CONTINUOUS
 62
     3
100
AcDbVertex
100
AcDb2dVertex
 10
31.38496754025982
 20
88.60543659149504
 30
0.0
 42
0.0615614585235404
  0
VERTEX
  5
157C
330
1576
100
AcDbEntity
  8
L-1
  6
CONTINUOUS
 62
     3
100
AcDbVertex
100
AcDb2dVertex
 10
31.37192625398082
 20
88.74721264610396
 30
0.0
 42
0.0410594091454475
 70
     1
  0
VERTEX
  5
157D
330
1576
100
AcDbEntity
  8
L-1
  6
CONTINUOUS
 62
     3
100
AcDbVertex
100
AcDb2dVertex
 10
31.30963313093789
 20
88.95091949059965
 30
0.0
  0
SEQEND
  5
157E
330
1576
100
AcDbEntity
  8
L-1
  6
CONTINUOUS
 62
     3
  0
POLYLINE
  5
157F
330
1505
100
AcDbEntity
  8
L-1
  6
CONTINUOUS
 62
     3
100
AcDb2dPolyline
 66
     1
 10
0.0
 20
0.0
 30
0.0
 70
     2
  0
VERTEX
  5
1580
330
157F
100
AcDbEntity
  8
L-1
  6
CONTINUOUS
 62
     3
100
AcDbVertex
100
AcDb2dVertex
 10
31.99407185154725
 20
87.65091949059963
 30
0.0
 42
-0.0438764955251235
  0
VERTEX
  5
1581
330
157F
100
AcDbEntity
  8
L-1
  6
CONTINUOUS
 62
     3
100
AcDbVertex
100
AcDb2dVertex
 10
31.92255827199673
 20
87.8462867313998
 30
0.0
 42
-0.0694411009133329
 70
     1
  0
VERTEX
  5
1582
330
157F
100
AcDbEntity
  8
L-1
  6
CONTINUOUS
 62
     3
100
AcDbVertex
100
AcDb2dVertex
 10
31.90618187559723
 20
87.97709909497319
 30
0.0
 42
-0.1183875812258901
  0
VERTEX
  5
1583
330
157F
100
AcDbEntity
  8
L-1
  6
CONTINUOUS
 62
     3
100
AcDbVertex
100
AcDb2dVertex
 10
31.98496681484269
 20
88.28590901904085
 30
0.0
 42
0.1140489613631568
 70
     1
  0
VERTEX
  5
1584
330
157F
100
AcDbEntity
  8
L-1
  6
CONTINUOUS
 62
     3
100
AcDbVertex
100
AcDb2dVertex
 10
32.0694062608692
 20
88.60543659149504
 30
0.0
 42
0.0615614585235404
  0
VERTEX
  5
1585
330
157F
100
AcDbEntity
  8
L-1
  6
CONTINUOUS
 62
     3
100
AcDbVertex
100
AcDb2dVertex
 10
32.05636497459019
 20
88.74721264610396
 30
0.0
 42
0.0410594091454475
 70
     1
  0
VERTEX
  5
1586
330
157F
100
AcDbEntity
  8
L-1
  6
CONTINUOUS
 62
     3
100
AcDbVertex
100
AcDb2dVertex
 10
31.99407185154725
 20
88.95091949059965
 30
0.0
  0
SEQEND
  5
1587
330
157F
100
AcDbEntity
  8
L-1
  6
CONTINUOUS
 62
     3
  0
LINE
  5
1588
330
1505
100
AcDbEntity
  8
L-1
  6
CONTINUOUS
 62
     7
100
AcDbLine
 10
36.21734836867883
 20
87.05091949059955
 30
0.0
 11
36.21734836867883
 21
89.5509194905996
 31
0.0
  0
LINE
  5
1589
330
1505
100
AcDbEntity
  8
L-1
  6
CONTINUOUS
 62
     7
100
AcDbLine
 10
41.21734836867878
 20
85.05091949059957
 30
0.0
 11
41.21734836867878
 21
91.55091949059963
 31
0.0
  0
LINE
  5
158A
330
1505
100
AcDbEntity
  8
L-1
  6
CONTINUOUS
 62
     7
100
AcDbLine
 10
39.21734836867875
 20
86.05091949059959
 30
0.0
 11
39.21734836867875
 21
90.5509194905996
 31
0.0
  0
LINE
  5
158B
330
1505
100
AcDbEntity
  8
L-1
  6
CONTINUOUS
 62
     7
100
AcDbLine
 10
40.21734836867874
 20
86.05091949059959
 30
0.0
 11
40.21734836867874
 21
90.5509194905996
 31
0.0
  0
LINE
  5
158C
330
1505
100
AcDbEntity
  8
L-1
  6
CONTINUOUS
 62
     7
100
AcDbLine
 10
37.21734836867875
 20
86.05091949059959
 30
0.0
 11
37.21734836867875
 21
90.5509194905996
 31
0.0
  0
LINE
  5
158D
330
1505
100
AcDbEntity
  8
L-1
  6
CONTINUOUS
 62
     7
100
AcDbLine
 10
38.21734836867877
 20
86.05091949059959
 30
0.0
 11
38.21734836867877
 21
90.5509194905996
 31
0.0
  0
LINE
  5
158E
330
1505
100
AcDbEntity
  8
L-1
  6
CONTINUOUS
 62
     7
100
AcDbLine
 10
36.21734836867879
 20
67.72793087646785
 30
0.0
 11
31.99407185154715
 21
67.72793087646785
 31
0.0
  0
LINE
  5
158F
330
1505
100
AcDbEntity
  8
L-1
  6
CONTINUOUS
 62
     7
100
AcDbLine
 10
36.21734836867879
 20
68.12793087646785
 30
0.0
 11
31.99407185154715
 21
68.12793087646785
 31
0.0
  0
LINE
  5
1590
330
1505
100
AcDbEntity
  8
L-1
  6
CONTINUOUS
 62
     7
100
AcDbLine
 10
36.21734836867875
 20
69.42793087646785
 30
0.0
 11
31.99407185154715
 21
69.42793087646785
 31
0.0
  0
LINE
  5
1591
330
1505
100
AcDbEntity
  8
L-1
  6
CONTINUOUS
 62
     7
100
AcDbLine
 10
36.21734836867875
 20
69.82793087646784
 30
0.0
 11
31.99407185154715
 21
69.82793087646784
 31
0.0
  0
LINE
  5
1592
330
1505
100
AcDbEntity
  8
L-1
  6
CONTINUOUS
 62
     7
100
AcDbLine
 10
36.21734836867872
 20
71.12793087646784
 30
0.0
 11
31.99407185154715
 21
71.12793087646784
 31
0.0
  0
LINE
  5
1593
330
1505
100
AcDbEntity
  8
L-1
  6
CONTINUOUS
 62
     7
100
AcDbLine
 10
36.21734836867872
 20
71.52793087646784
 30
0.0
 11
31.99407185154715
 21
71.52793087646784
 31
0.0
  0
LINE
  5
1594
330
1505
100
AcDbEntity
  8
L-1
  6
CONTINUOUS
 62
     7
100
AcDbLine
 10
36.21734836867869
 20
72.82793087646784
 30
0.0
 11
31.99407185154715
 21
72.82793087646784
 31
0.0
  0
LINE
  5
1595
330
1505
100
AcDbEntity
  8
L-1
  6
CONTINUOUS
 62
     7
100
AcDbLine
 10
36.21734836867883
 20
87.65091949059963
 30
0.0
 11
31.99407185154726
 21
87.65091949059963
 31
0.0
  0
POLYLINE
  5
1596
330
1505
100
AcDbEntity
  8
L-1
  6
CONTINUOUS
 62
     3
100
AcDb2dPolyline
 66
     1
 10
0.0
 20
0.0
 30
0.0
 70
     2
  0
VERTEX
  5
1597
330
1596
100
AcDbEntity
  8
L-1
  6
CONTINUOUS
 62
     3
100
AcDbVertex
100
AcDb2dVertex
 10
31.30963313093778
 20
71.52793087646784
 30
0.0
 42
-0.0438764955251235
  0
VERTEX
  5
1598
330
1596
100
AcDbEntity
  8
L-1
  6
CONTINUOUS
 62
     3
100
AcDbVertex
100
AcDb2dVertex
 10
31.23811955138724
 20
71.72329811726803
 30
0.0
 42
-0.0694411009133329
 70
     1
  0
VERTEX
  5
1599
330
1596
100
AcDbEntity
  8
L-1
  6
CONTINUOUS
 62
     3
100
AcDbVertex
100
AcDb2dVertex
 10
31.22174315498774
 20
71.85411048084141
 30
0.0
 42
-0.1183875812258901
  0
VERTEX
  5
159A
330
1596
100
AcDbEntity
  8
L-1
  6
CONTINUOUS
 62
     3
100
AcDbVertex
100
AcDb2dVertex
 10
31.30052809423323
 20
72.16292040490905
 30
0.0
 42
0.1140489613631568
 70
     1
  0
VERTEX
  5
159B
330
1596
100
AcDbEntity
  8
L-1
  6
CONTINUOUS
 62
     3
100
AcDbVertex
100
AcDb2dVertex
 10
31.38496754025974
 20
72.48244797736328
 30
0.0
 42
0.0615614585235404
  0
VERTEX
  5
159C
330
1596
100
AcDbEntity
  8
L-1
  6
CONTINUOUS
 62
     3
100
AcDbVertex
100
AcDb2dVertex
 10
31.37192625398071
 20
72.62422403197212
 30
0.0
 42
0.0410594091454475
 70
     1
  0
VERTEX
  5
159D
330
1596
100
AcDbEntity
  8
L-1
  6
CONTINUOUS
 62
     3
100
AcDbVertex
100
AcDb2dVertex
 10
31.30963313093778
 20
72.82793087646784
 30
0.0
  0
SEQEND
  5
159E
330
1596
100
AcDbEntity
  8
L-1
  6
CONTINUOUS
 62
     3
  0
POLYLINE
  5
159F
330
1505
100
AcDbEntity
  8
L-1
  6
CONTINUOUS
 62
     3
100
AcDb2dPolyline
 66
     1
 10
0.0
 20
0.0
 30
0.0
 70
     2
  0
VERTEX
  5
15A0
330
159F
100
AcDbEntity
  8
L-1
  6
CONTINUOUS
 62
     3
100
AcDbVertex
100
AcDb2dVertex
 10
31.30963313093778
 20
68.12793087646785
 30
0.0
 42
-0.0438764955251235
  0
VERTEX
  5
15A1
330
159F
100
AcDbEntity
  8
L-1
  6
CONTINUOUS
 62
     3
100
AcDbVertex
100
AcDb2dVertex
 10
31.23811955138724
 20
68.32329811726804
 30
0.0
 42
-0.0694411009133329
 70
     1
  0
VERTEX
  5
15A2
330
159F
100
AcDbEntity
  8
L-1
  6
CONTINUOUS
 62
     3
100
AcDbVertex
100
AcDb2dVertex
 10
31.22174315498774
 20
68.45411048084142
 30
0.0
 42
-0.1183875812258901
  0
VERTEX
  5
15A3
330
159F
100
AcDbEntity
  8
L-1
  6
CONTINUOUS
 62
     3
100
AcDbVertex
100
AcDb2dVertex
 10
31.30052809423323
 20
68.76292040490906
 30
0.0
 42
0.1140489613631568
 70
     1
  0
VERTEX
  5
15A4
330
159F
100
AcDbEntity
  8
L-1
  6
CONTINUOUS
 62
     3
100
AcDbVertex
100
AcDb2dVertex
 10
31.38496754025974
 20
69.0824479773633
 30
0.0
 42
0.0615614585235404
  0
VERTEX
  5
15A5
330
159F
100
AcDbEntity
  8
L-1
  6
CONTINUOUS
 62
     3
100
AcDbVertex
100
AcDb2dVertex
 10
31.37192625398071
 20
69.22422403197217
 30
0.0
 42
0.0410594091454475
 70
     1
  0
VERTEX
  5
15A6
330
159F
100
AcDbEntity
  8
L-1
  6
CONTINUOUS
 62
     3
100
AcDbVertex
100
AcDb2dVertex
 10
31.30963313093778
 20
69.42793087646785
 30
0.0
  0
SEQEND
  5
15A7
330
159F
100
AcDbEntity
  8
L-1
  6
CONTINUOUS
 62
     3
  0
POLYLINE
  5
15A8
330
1505
100
AcDbEntity
  8
L-1
  6
CONTINUOUS
 62
     3
100
AcDb2dPolyline
 66
     1
 10
0.0
 20
0.0
 30
0.0
 70
     2
  0
VERTEX
  5
15A9
330
15A8
100
AcDbEntity
  8
L-1
  6
CONTINUOUS
 62
     3
100
AcDbVertex
100
AcDb2dVertex
 10
31.30963313093778
 20
69.82793087646784
 30
0.0
 42
-0.0438764955251235
  0
VERTEX
  5
15AA
330
15A8
100
AcDbEntity
  8
L-1
  6
CONTINUOUS
 62
     3
100
AcDbVertex
100
AcDb2dVertex
 10
31.23811955138724
 20
70.02329811726801
 30
0.0
 42
-0.0694411009133329
 70
     1
  0
VERTEX
  5
15AB
330
15A8
100
AcDbEntity
  8
L-1
  6
CONTINUOUS
 62
     3
100
AcDbVertex
100
AcDb2dVertex
 10
31.22174315498774
 20
70.15411048084138
 30
0.0
 42
-0.1183875812258901
  0
VERTEX
  5
15AC
330
15A8
100
AcDbEntity
  8
L-1
  6
CONTINUOUS
 62
     3
100
AcDbVertex
100
AcDb2dVertex
 10
31.30052809423323
 20
70.46292040490907
 30
0.0
 42
0.1140489613631568
 70
     1
  0
VERTEX
  5
15AD
330
15A8
100
AcDbEntity
  8
L-1
  6
CONTINUOUS
 62
     3
100
AcDbVertex
100
AcDb2dVertex
 10
31.38496754025974
 20
70.78244797736328
 30
0.0
 42
0.0615614585235404
  0
VERTEX
  5
15AE
330
15A8
100
AcDbEntity
  8
L-1
  6
CONTINUOUS
 62
     3
100
AcDbVertex
100
AcDb2dVertex
 10
31.37192625398071
 20
70.92422403197216
 30
0.0
 42
0.0410594091454475
 70
     1
  0
VERTEX
  5
15AF
330
15A8
100
AcDbEntity
  8
L-1
  6
CONTINUOUS
 62
     3
100
AcDbVertex
100
AcDb2dVertex
 10
31.30963313093778
 20
71.12793087646784
 30
0.0
  0
SEQEND
  5
15B0
330
15A8
100
AcDbEntity
  8
L-1
  6
CONTINUOUS
 62
     3
  0
POLYLINE
  5
15B1
330
1505
100
AcDbEntity
  8
L-1
  6
CONTINUOUS
 62
     3
100
AcDb2dPolyline
 66
     1
 10
0.0
 20
0.0
 30
0.0
 70
     2
  0
VERTEX
  5
15B2
330
15B1
100
AcDbEntity
  8
L-1
  6
CONTINUOUS
 62
     3
100
AcDbVertex
100
AcDb2dVertex
 10
31.99407185154715
 20
71.52793087646784
 30
0.0
 42
-0.0438764955251235
  0
VERTEX
  5
15B3
330
15B1
100
AcDbEntity
  8
L-1
  6
CONTINUOUS
 62
     3
100
AcDbVertex
100
AcDb2dVertex
 10
31.92255827199661
 20
71.72329811726803
 30
0.0
 42
-0.0694411009133329
 70
     1
  0
VERTEX
  5
15B4
330
15B1
100
AcDbEntity
  8
L-1
  6
CONTINUOUS
 62
     3
100
AcDbVertex
100
AcDb2dVertex
 10
31.90618187559712
 20
71.85411048084141
 30
0.0
 42
-0.1183875812258901
  0
VERTEX
  5
15B5
330
15B1
100
AcDbEntity
  8
L-1
  6
CONTINUOUS
 62
     3
100
AcDbVertex
100
AcDb2dVertex
 10
31.98496681484257
 20
72.16292040490905
 30
0.0
 42
0.1140489613631568
 70
     1
  0
VERTEX
  5
15B6
330
15B1
100
AcDbEntity
  8
L-1
  6
CONTINUOUS
 62
     3
100
AcDbVertex
100
AcDb2dVertex
 10
32.06940626086907
 20
72.48244797736328
 30
0.0
 42
0.0615614585235404
  0
VERTEX
  5
15B7
330
15B1
100
AcDbEntity
  8
L-1
  6
CONTINUOUS
 62
     3
100
AcDbVertex
100
AcDb2dVertex
 10
32.05636497459009
 20
72.62422403197212
 30
0.0
 42
0.0410594091454475
 70
     1
  0
VERTEX
  5
15B8
330
15B1
100
AcDbEntity
  8
L-1
  6
CONTINUOUS
 62
     3
100
AcDbVertex
100
AcDb2dVertex
 10
31.99407185154715
 20
72.82793087646784
 30
0.0
  0
SEQEND
  5
15B9
330
15B1
100
AcDbEntity
  8
L-1
  6
CONTINUOUS
 62
     3
  0
POLYLINE
  5
15BA
330
1505
100
AcDbEntity
  8
L-1
  6
CONTINUOUS
 62
     3
100
AcDb2dPolyline
 66
     1
 10
0.0
 20
0.0
 30
0.0
 70
     2
  0
VERTEX
  5
15BB
330
15BA
100
AcDbEntity
  8
L-1
  6
CONTINUOUS
 62
     3
100
AcDbVertex
100
AcDb2dVertex
 10
31.99407185154715
 20
68.12793087646785
 30
0.0
 42
-0.0438764955251235
  0
VERTEX
  5
15BC
330
15BA
100
AcDbEntity
  8
L-1
  6
CONTINUOUS
 62
     3
100
AcDbVertex
100
AcDb2dVertex
 10
31.92255827199661
 20
68.32329811726804
 30
0.0
 42
-0.0694411009133329
 70
     1
  0
VERTEX
  5
15BD
330
15BA
100
AcDbEntity
  8
L-1
  6
CONTINUOUS
 62
     3
100
AcDbVertex
100
AcDb2dVertex
 10
31.90618187559712
 20
68.45411048084142
 30
0.0
 42
-0.1183875812258901
  0
VERTEX
  5
15BE
330
15BA
100
AcDbEntity
  8
L-1
  6
CONTINUOUS
 62
     3
100
AcDbVertex
100
AcDb2dVertex
 10
31.98496681484257
 20
68.76292040490906
 30
0.0
 42
0.1140489613631568
 70
     1
  0
VERTEX
  5
15BF
330
15BA
100
AcDbEntity
  8
L-1
  6
CONTINUOUS
 62
     3
100
AcDbVertex
100
AcDb2dVertex
 10
32.06940626086907
 20
69.0824479773633
 30
0.0
 42
0.0615614585235404
  0
VERTEX
  5
15C0
330
15BA
100
AcDbEntity
  8
L-1
  6
CONTINUOUS
 62
     3
100
AcDbVertex
100
AcDb2dVertex
 10
32.05636497459009
 20
69.22422403197217
 30
0.0
 42
0.0410594091454475
 70
     1
  0
VERTEX
  5
15C1
330
15BA
100
AcDbEntity
  8
L-1
  6
CONTINUOUS
 62
     3
100
AcDbVertex
100
AcDb2dVertex
 10
31.99407185154715
 20
69.42793087646785
 30
0.0
  0
SEQEND
  5
15C2
330
15BA
100
AcDbEntity
  8
L-1
  6
CONTINUOUS
 62
     3
  0
POLYLINE
  5
15C3
330
1505
100
AcDbEntity
  8
L-1
  6
CONTINUOUS
 62
     3
100
AcDb2dPolyline
 66
     1
 10
0.0
 20
0.0
 30
0.0
 70
     2
  0
VERTEX
  5
15C4
330
15C3
100
AcDbEntity
  8
L-1
  6
CONTINUOUS
 62
     3
100
AcDbVertex
100
AcDb2dVertex
 10
31.99407185154715
 20
69.82793087646784
 30
0.0
 42
-0.0438764955251235
  0
VERTEX
  5
15C5
330
15C3
100
AcDbEntity
  8
L-1
  6
CONTINUOUS
 62
     3
100
AcDbVertex
100
AcDb2dVertex
 10
31.92255827199661
 20
70.02329811726801
 30
0.0
 42
-0.0694411009133329
 70
     1
  0
VERTEX
  5
15C6
330
15C3
100
AcDbEntity
  8
L-1
  6
CONTINUOUS
 62
     3
100
AcDbVertex
100
AcDb2dVertex
 10
31.90618187559712
 20
70.15411048084138
 30
0.0
 42
-0.1183875812258901
  0
VERTEX
  5
15C7
330
15C3
100
AcDbEntity
  8
L-1
  6
CONTINUOUS
 62
     3
100
AcDbVertex
100
AcDb2dVertex
 10
31.98496681484257
 20
70.46292040490907
 30
0.0
 42
0.1140489613631568
 70
     1
  0
VERTEX
  5
15C8
330
15C3
100
AcDbEntity
  8
L-1
  6
CONTINUOUS
 62
     3
100
AcDbVertex
100
AcDb2dVertex
 10
32.06940626086907
 20
70.78244797736328
 30
0.0
 42
0.0615614585235404
  0
VERTEX
  5
15C9
330
15C3
100
AcDbEntity
  8
L-1
  6
CONTINUOUS
 62
     3
100
AcDbVertex
100
AcDb2dVertex
 10
32.05636497459009
 20
70.92422403197216
 30
0.0
 42
0.0410594091454475
 70
     1
  0
VERTEX
  5
15CA
330
15C3
100
AcDbEntity
  8
L-1
  6
CONTINUOUS
 62
     3
100
AcDbVertex
100
AcDb2dVertex
 10
31.99407185154715
 20
71.12793087646784
 30
0.0
  0
SEQEND
  5
15CB
330
15C3
100
AcDbEntity
  8
L-1
  6
CONTINUOUS
 62
     3
  0
LINE
  5
15CC
330
1505
100
AcDbEntity
  8
L-1
  6
CONTINUOUS
 62
     7
100
AcDbLine
 10
38.21734836867875
 20
73.42793087646786
 30
0.0
 11
39.21734836867875
 21
73.42793087646786
 31
0.0
  0
LINE
  5
15CD
330
1505
100
AcDbEntity
  8
L-1
  6
CONTINUOUS
 62
     7
100
AcDbLine
 10
36.71734836867882
 20
73.42793087646786
 30
0.0
 11
37.21734836867875
 21
73.42793087646786
 31
0.0
  0
ARC
  5
15CE
330
1505
100
AcDbEntity
  8
L-1
  6
CONTINUOUS
 62
     7
100
AcDbCircle
 10
36.71734836867882
 20
72.92793087646785
 30
0.0
 40
0.5
100
AcDbArc
 50
90.0
 51
180.0
  0
LINE
  5
15CF
330
1505
100
AcDbEntity
  8
L-1
  6
CONTINUOUS
 62
     7
100
AcDbLine
 10
38.21734836867875
 20
74.4279308764678
 30
0.0
 11
37.21734836867875
 21
74.4279308764678
 31
0.0
  0
LINE
  5
15D0
330
1505
100
AcDbEntity
  8
L-1
  6
CONTINUOUS
 62
     7
100
AcDbLine
 10
40.21734836867874
 20
73.42793087646786
 30
0.0
 11
41.21734836867875
 21
73.42793087646786
 31
0.0
  0
LINE
  5
15D1
330
1505
100
AcDbEntity
  8
L-1
  6
CONTINUOUS
 62
     7
100
AcDbLine
 10
40.21734836867874
 20
74.4279308764678
 30
0.0
 11
39.21734836867875
 21
74.4279308764678
 31
0.0
  0
LINE
  5
15D2
330
1505
100
AcDbEntity
  8
L-1
  6
CONTINUOUS
 62
     7
100
AcDbLine
 10
39.21734836867875
 20
86.55091949059956
 30
0.0
 11
38.21734836867877
 21
86.55091949059956
 31
0.0
  0
LINE
  5
15D3
330
1505
100
AcDbEntity
  8
L-1
  6
CONTINUOUS
 62
     7
100
AcDbLine
 10
37.21734836867875
 20
86.55091949059956
 30
0.0
 11
36.71734836867882
 21
86.55091949059956
 31
0.0
  0
ARC
  5
15D4
330
1505
100
AcDbEntity
  8
L-1
  6
CONTINUOUS
 62
     7
100
AcDbCircle
 10
36.71734836867882
 20
87.05091949059955
 30
0.0
 40
0.5
100
AcDbArc
 50
180.0
 51
270.0
  0
LINE
  5
15D5
330
1505
100
AcDbEntity
  8
L-1
  6
CONTINUOUS
 62
     7
100
AcDbLine
 10
38.21734836867877
 20
86.05091949059959
 30
0.0
 11
37.21734836867875
 21
86.05091949059959
 31
0.0
  0
LINE
  5
15D6
330
1505
100
AcDbEntity
  8
L-1
  6
CONTINUOUS
 62
     7
100
AcDbLine
 10
41.21734836867878
 20
86.55091949059956
 30
0.0
 11
40.21734836867874
 21
86.55091949059956
 31
0.0
  0
LINE
  5
15D7
330
1505
100
AcDbEntity
  8
L-1
  6
CONTINUOUS
 62
     7
100
AcDbLine
 10
40.21734836867874
 20
86.05091949059959
 30
0.0
 11
39.21734836867875
 21
86.05091949059959
 31
0.0
  0
LINE
  5
15D8
330
1505
100
AcDbEntity
  8
L-1
  6
CONTINUOUS
 62
     7
100
AcDbLine
 10
36.21734836867883
 20
88.95091949059963
 30
0.0
 11
31.99407185154726
 21
88.95091949059963
 31
0.0
  0
LINE
  5
15D9
330
1505
100
AcDbEntity
  8
L-1
  6
CONTINUOUS
 62
     7
100
AcDbLine
 10
36.21734836867871
 20
108.8826224506162
 30
0.0
 11
31.99407185154715
 21
108.8826224506162
 31
0.0
  0
LINE
  5
15DA
330
1505
100
AcDbEntity
  8
L-1
  6
CONTINUOUS
 62
     7
100
AcDbLine
 10
39.21734836867875
 20
90.05091949059965
 30
0.0
 11
38.21734836867877
 21
90.05091949059965
 31
0.0
  0
LINE
  5
15DB
330
1505
100
AcDbEntity
  8
L-1
  6
CONTINUOUS
 62
     7
100
AcDbLine
 10
37.21734836867875
 20
90.05091949059965
 30
0.0
 11
36.71734836867882
 21
90.05091949059965
 31
0.0
  0
ARC
  5
15DC
330
1505
100
AcDbEntity
  8
L-1
  6
CONTINUOUS
 62
     7
100
AcDbCircle
 10
36.71734836867882
 20
89.55091949059966
 30
0.0
 40
0.5
100
AcDbArc
 50
90.0
 51
180.0000000000002
  0
LINE
  5
15DD
330
1505
100
AcDbEntity
  8
L-1
  6
CONTINUOUS
 62
     7
100
AcDbLine
 10
38.21734836867877
 20
90.5509194905996
 30
0.0
 11
37.21734836867875
 21
90.5509194905996
 31
0.0
  0
LINE
  5
15DE
330
1505
100
AcDbEntity
  8
L-1
  6
CONTINUOUS
 62
     7
100
AcDbLine
 10
41.21734836867878
 20
90.05091949059965
 30
0.0
 11
40.21734836867874
 21
90.05091949059965
 31
0.0
  0
LINE
  5
15DF
330
1505
100
AcDbEntity
  8
L-1
  6
CONTINUOUS
 62
     7
100
AcDbLine
 10
40.21734836867874
 20
90.5509194905996
 30
0.0
 11
39.21734836867875
 21
90.5509194905996
 31
0.0
  0
LINE
  5
15E0
330
1505
100
AcDbEntity
  8
L-1
  6
CONTINUOUS
 62
     7
100
AcDbLine
 10
38.21734836867877
 20
108.2826224506163
 30
0.0
 11
39.21734836867877
 21
108.2826224506163
 31
0.0
  0
LINE
  5
15E1
330
1505
100
AcDbEntity
  8
L-1
  6
CONTINUOUS
 62
     7
100
AcDbLine
 10
36.71734836867882
 20
108.2826224506163
 30
0.0
 11
37.21734836867875
 21
108.2826224506163
 31
0.0
  0
ARC
  5
15E2
330
1505
100
AcDbEntity
  8
L-1
  6
CONTINUOUS
 62
     7
100
AcDbCircle
 10
36.71734836867882
 20
108.7826224506162
 30
0.0
 40
0.5
100
AcDbArc
 50
180.0
 51
270.0
  0
LINE
  5
15E3
330
1505
100
AcDbEntity
  8
L-1
  6
CONTINUOUS
 62
     7
100
AcDbLine
 10
38.21734836867877
 20
107.2826224506163
 30
0.0
 11
37.21734836867877
 21
107.2826224506163
 31
0.0
  0
LINE
  5
15E4
330
1505
100
AcDbEntity
  8
L-1
  6
CONTINUOUS
 62
     7
100
AcDbLine
 10
40.21734836867877
 20
108.2826224506163
 30
0.0
 11
41.21734836867878
 21
108.2826224506163
 31
0.0
  0
LINE
  5
15E5
330
1505
100
AcDbEntity
  8
L-1
  6
CONTINUOUS
 62
     7
100
AcDbLine
 10
40.21734836867874
 20
107.2826224506163
 30
0.0
 11
39.21734836867877
 21
107.2826224506163
 31
0.0
  0
LINE
  5
15E6
330
1505
100
AcDbEntity
  8
L-1
  6
CONTINUOUS
 62
     7
100
AcDbLine
 10
31.30963313093779
 20
115.2826224506163
 30
0.0
 11
25.00603678745951
 21
115.2826224506163
 31
0.0
  0
LINE
  5
15E7
330
1505
100
AcDbEntity
  8
L-1
  6
CONTINUOUS
 62
     7
100
AcDbLine
 10
31.3096331309377
 20
110.1826224506162
 30
0.0
 11
25.0060367874595
 21
110.1826224506162
 31
0.0
  0
LINE
  5
15E8
330
1505
100
AcDbEntity
  8
L-1
  6
CONTINUOUS
 62
     7
100
AcDbLine
 10
31.30963313093769
 20
110.5826224506162
 30
0.0
 11
25.00603678745948
 21
110.5826224506162
 31
0.0
  0
LINE
  5
15E9
330
1505
100
AcDbEntity
  8
L-1
  6
CONTINUOUS
 62
     7
100
AcDbLine
 10
31.30963313093772
 20
111.8826224506162
 30
0.0
 11
25.0060367874595
 21
111.8826224506162
 31
0.0
  0
LINE
  5
15EA
330
1505
100
AcDbEntity
  8
L-1
  6
CONTINUOUS
 62
     7
100
AcDbLine
 10
31.30963313093773
 20
112.2826224506163
 30
0.0
 11
25.0060367874595
 21
112.2826224506163
 31
0.0
  0
LINE
  5
15EB
330
1505
100
AcDbEntity
  8
L-1
  6
CONTINUOUS
 62
     7
100
AcDbLine
 10
31.30963313093777
 20
113.5826224506162
 30
0.0
 11
25.00603678745951
 21
113.5826224506162
 31
0.0
  0
LINE
  5
15EC
330
1505
100
AcDbEntity
  8
L-1
  6
CONTINUOUS
 62
     7
100
AcDbLine
 10
31.30963313093777
 20
113.9826224506162
 30
0.0
 11
25.00603678745951
 21
113.9826224506162
 31
0.0
  0
CIRCLE
  5
15ED
330
1505
100
AcDbEntity
  8
L-1
  6
CONTINUOUS
 62
     7
100
AcDbCircle
 10
15.22543961237895
 20
112.8326224506162
 30
0.0
 40
0.65
  0
CIRCLE
  5
15EE
330
1505
100
AcDbEntity
  8
L-1
  6
CONTINUOUS
 62
     7
100
AcDbCircle
 10
15.22543961237895
 20
111.3326224506163
 30
0.0
 40
0.65
  0
CIRCLE
  5
15EF
330
1505
100
AcDbEntity
  8
L-1
  6
CONTINUOUS
 62
     7
100
AcDbCircle
 10
15.22543961237895
 20
114.3326224506163
 30
0.0
 40
0.65
  0
ARC
  5
15F0
330
1505
100
AcDbEntity
  8
L-1
  6
CONTINUOUS
 62
     7
100
AcDbCircle
 10
16.97543961237895
 20
116.3826224506163
 30
0.0
 40
0.5
100
AcDbArc
 50
0.0
 51
90.0
  0
ARC
  5
15F1
330
1505
100
AcDbEntity
  8
L-1
  6
CONTINUOUS
 62
     7
100
AcDbCircle
 10
16.47543961237894
 20
115.3826224506163
 30
0.0
 40
0.5
100
AcDbArc
 50
0.0
 51
90.0
  0
ARC
  5
15F2
330
1505
100
AcDbEntity
  8
L-1
  6
CONTINUOUS
 62
     7
100
AcDbCircle
 10
17.97543961237894
 20
116.3826224506163
 30
0.0
 40
0.5
100
AcDbArc
 50
0.0
 51
90.0
  0
TEXT
  5
15F3
330
1505
100
AcDbEntity
  8
L-2
  6
CONTINUOUS
 62
     2
100
AcDbText
 10
22.60622599478636
 20
113.9672336234687
 30
0.0
 40
1.199999999999999
  1
黄
  7
MSゴシック
 72
     4
 11
23.38592142625844
 21
114.5215483442809
 31
0.0
100
AcDbText
  0
TEXT
  5
15F4
330
1505
100
AcDbEntity
  8
L-2
  6
CONTINUOUS
 62
     2
100
AcDbText
 10
22.68635583012065
 20
110.5978764298791
 30
0.0
 40
1.199999999999999
  1
青
  7
MSゴシック
 72
     4
 11
23.46605126159273
 21
111.1643738918081
 31
0.0
100
AcDbText
  0
TEXT
  5
15F5
330
1505
100
AcDbEntity
  8
L-2
  6
CONTINUOUS
 62
     2
100
AcDbText
 10
22.66629224617347
 20
112.341254206016
 30
0.0
 40
1.199999999999999
  1
白
  7
MSゴシック
 72
     4
 11
23.44598767764555
 21
112.9229800943409
 31
0.0
100
AcDbText
  0
LINE
  5
15F6
330
1505
100
AcDbEntity
  8
L-1
  6
CONTINUOUS
 62
     7
100
AcDbLine
 10
25.00603678745948
 20
113.9826224506162
 30
0.0
 11
25.00603678745948
 21
115.2826224506162
 31
0.0
  0
LINE
  5
15F7
330
1505
100
AcDbEntity
  8
L-1
  6
CONTINUOUS
 62
     7
100
AcDbLine
 10
25.0060367874595
 20
112.2826224506163
 30
0.0
 11
25.00603678745948
 21
113.5826224506162
 31
0.0
  0
LINE
  5
15F8
330
1505
100
AcDbEntity
  8
L-1
  6
CONTINUOUS
 62
     7
100
AcDbLine
 10
25.00603678745951
 20
110.5826224506162
 30
0.0
 11
25.0060367874595
 21
111.8826224506162
 31
0.0
  0
LINE
  5
15F9
330
1505
100
AcDbEntity
  8
L-1
  6
CONTINUOUS
 62
     7
100
AcDbLine
 10
36.21734836867883
 20
115.2826224506163
 30
0.0
 11
31.99407185154715
 21
115.2826224506163
 31
0.0
  0
LINE
  5
15FA
330
1505
100
AcDbEntity
  8
L-1
  6
CONTINUOUS
 62
     7
100
AcDbLine
 10
36.21734836867879
 20
113.9826224506162
 30
0.0
 11
31.99407185154715
 21
113.9826224506162
 31
0.0
  0
LINE
  5
15FB
330
1505
100
AcDbEntity
  8
L-1
  6
CONTINUOUS
 62
     7
100
AcDbLine
 10
36.21734836867879
 20
113.5826224506162
 30
0.0
 11
31.99407185154715
 21
113.5826224506162
 31
0.0
  0
LINE
  5
15FC
330
1505
100
AcDbEntity
  8
L-1
  6
CONTINUOUS
 62
     7
100
AcDbLine
 10
36.21734836867878
 20
112.2826224506163
 30
0.0
 11
31.99407185154715
 21
112.2826224506163
 31
0.0
  0
LINE
  5
15FD
330
1505
100
AcDbEntity
  8
L-1
  6
CONTINUOUS
 62
     7
100
AcDbLine
 10
36.21734836867875
 20
111.8826224506162
 30
0.0
 11
31.99407185154715
 21
111.8826224506163
 31
0.0
  0
LINE
  5
15FE
330
1505
100
AcDbEntity
  8
L-1
  6
CONTINUOUS
 62
     7
100
AcDbLine
 10
36.21734836867872
 20
110.5826224506162
 30
0.0
 11
31.99407185154715
 21
110.5826224506162
 31
0.0
  0
LINE
  5
15FF
330
1505
100
AcDbEntity
  8
L-1
  6
CONTINUOUS
 62
     7
100
AcDbLine
 10
36.21734836867875
 20
110.1826224506162
 30
0.0
 11
31.99407185154715
 21
110.1826224506162
 31
0.0
  0
POLYLINE
  5
1600
330
1505
100
AcDbEntity
  8
L-1
  6
CONTINUOUS
 62
     3
100
AcDb2dPolyline
 66
     1
 10
0.0
 20
0.0
 30
0.0
 70
     2
  0
VERTEX
  5
1601
330
1600
100
AcDbEntity
  8
L-1
  6
CONTINUOUS
 62
     3
100
AcDbVertex
100
AcDb2dVertex
 10
31.30963313093779
 20
115.2826224506163
 30
0.0
 42
0.0438764955251235
  0
VERTEX
  5
1602
330
1600
100
AcDbEntity
  8
L-1
  6
CONTINUOUS
 62
     3
100
AcDbVertex
100
AcDb2dVertex
 10
31.23811955138726
 20
115.0872552098159
 30
0.0
 42
0.0694411009133329
 70
     1
  0
VERTEX
  5
1603
330
1600
100
AcDbEntity
  8
L-1
  6
CONTINUOUS
 62
     3
100
AcDbVertex
100
AcDb2dVertex
 10
31.22174315498777
 20
114.9564428462426
 30
0.0
 42
0.1183875812258901
  0
VERTEX
  5
1604
330
1600
100
AcDbEntity
  8
L-1
  6
CONTINUOUS
 62
     3
100
AcDbVertex
100
AcDb2dVertex
 10
31.30052809423323
 20
114.6476329221751
 30
0.0
 42
-0.1140489613631568
 70
     1
  0
VERTEX
  5
1605
330
1600
100
AcDbEntity
  8
L-1
  6
CONTINUOUS
 62
     3
100
AcDbVertex
100
AcDb2dVertex
 10
31.38496754025974
 20
114.3281053497209
 30
0.0
 42
-0.0615614585235404
  0
VERTEX
  5
1606
330
1600
100
AcDbEntity
  8
L-1
  6
CONTINUOUS
 62
     3
100
AcDbVertex
100
AcDb2dVertex
 10
31.37192625398073
 20
114.186329295112
 30
0.0
 42
-0.0410594091454475
 70
     1
  0
VERTEX
  5
1607
330
1600
100
AcDbEntity
  8
L-1
  6
CONTINUOUS
 62
     3
100
AcDbVertex
100
AcDb2dVertex
 10
31.30963313093779
 20
113.9826224506162
 30
0.0
  0
SEQEND
  5
1608
330
1600
100
AcDbEntity
  8
L-1
  6
CONTINUOUS
 62
     3
  0
POLYLINE
  5
1609
330
1505
100
AcDbEntity
  8
L-1
  6
CONTINUOUS
 62
     3
100
AcDb2dPolyline
 66
     1
 10
0.0
 20
0.0
 30
0.0
 70
     2
  0
VERTEX
  5
160A
330
1609
100
AcDbEntity
  8
L-1
  6
CONTINUOUS
 62
     3
100
AcDbVertex
100
AcDb2dVertex
 10
31.30963313093778
 20
113.5826224506162
 30
0.0
 42
0.0438764955251235
  0
VERTEX
  5
160B
330
1609
100
AcDbEntity
  8
L-1
  6
CONTINUOUS
 62
     3
100
AcDbVertex
100
AcDb2dVertex
 10
31.23811955138724
 20
113.387255209816
 30
0.0
 42
0.0694411009133329
 70
     1
  0
VERTEX
  5
160C
330
1609
100
AcDbEntity
  8
L-1
  6
CONTINUOUS
 62
     3
100
AcDbVertex
100
AcDb2dVertex
 10
31.22174315498774
 20
113.2564428462426
 30
0.0
 42
0.1183875812258901
  0
VERTEX
  5
160D
330
1609
100
AcDbEntity
  8
L-1
  6
CONTINUOUS
 62
     3
100
AcDbVertex
100
AcDb2dVertex
 10
31.30052809423323
 20
112.9476329221751
 30
0.0
 42
-0.1140489613631568
 70
     1
  0
VERTEX
  5
160E
330
1609
100
AcDbEntity
  8
L-1
  6
CONTINUOUS
 62
     3
100
AcDbVertex
100
AcDb2dVertex
 10
31.38496754025974
 20
112.6281053497208
 30
0.0
 42
-0.0615614585235404
  0
VERTEX
  5
160F
330
1609
100
AcDbEntity
  8
L-1
  6
CONTINUOUS
 62
     3
100
AcDbVertex
100
AcDb2dVertex
 10
31.37192625398071
 20
112.4863292951119
 30
0.0
 42
-0.0410594091454475
 70
     1
  0
VERTEX
  5
1610
330
1609
100
AcDbEntity
  8
L-1
  6
CONTINUOUS
 62
     3
100
AcDbVertex
100
AcDb2dVertex
 10
31.30963313093778
 20
112.2826224506163
 30
0.0
  0
SEQEND
  5
1611
330
1609
100
AcDbEntity
  8
L-1
  6
CONTINUOUS
 62
     3
  0
POLYLINE
  5
1612
330
1505
100
AcDbEntity
  8
L-1
  6
CONTINUOUS
 62
     3
100
AcDb2dPolyline
 66
     1
 10
0.0
 20
0.0
 30
0.0
 70
     2
  0
VERTEX
  5
1613
330
1612
100
AcDbEntity
  8
L-1
  6
CONTINUOUS
 62
     3
100
AcDbVertex
100
AcDb2dVertex
 10
31.30963313093778
 20
111.8826224506163
 30
0.0
 42
0.0438764955251235
  0
VERTEX
  5
1614
330
1612
100
AcDbEntity
  8
L-1
  6
CONTINUOUS
 62
     3
100
AcDbVertex
100
AcDb2dVertex
 10
31.23811955138724
 20
111.6872552098159
 30
0.0
 42
0.0694411009133329
 70
     1
  0
VERTEX
  5
1615
330
1612
100
AcDbEntity
  8
L-1
  6
CONTINUOUS
 62
     3
100
AcDbVertex
100
AcDb2dVertex
 10
31.22174315498774
 20
111.5564428462425
 30
0.0
 42
0.1183875812258901
  0
VERTEX
  5
1616
330
1612
100
AcDbEntity
  8
L-1
  6
CONTINUOUS
 62
     3
100
AcDbVertex
100
AcDb2dVertex
 10
31.30052809423323
 20
111.247632922175
 30
0.0
 42
-0.1140489613631568
 70
     1
  0
VERTEX
  5
1617
330
1612
100
AcDbEntity
  8
L-1
  6
CONTINUOUS
 62
     3
100
AcDbVertex
100
AcDb2dVertex
 10
31.38496754025974
 20
110.9281053497209
 30
0.0
 42
-0.0615614585235404
  0
VERTEX
  5
1618
330
1612
100
AcDbEntity
  8
L-1
  6
CONTINUOUS
 62
     3
100
AcDbVertex
100
AcDb2dVertex
 10
31.37192625398071
 20
110.786329295112
 30
0.0
 42
-0.0410594091454475
 70
     1
  0
VERTEX
  5
1619
330
1612
100
AcDbEntity
  8
L-1
  6
CONTINUOUS
 62
     3
100
AcDbVertex
100
AcDb2dVertex
 10
31.30963313093778
 20
110.5826224506162
 30
0.0
  0
SEQEND
  5
161A
330
1612
100
AcDbEntity
  8
L-1
  6
CONTINUOUS
 62
     3
  0
POLYLINE
  5
161B
330
1505
100
AcDbEntity
  8
L-1
  6
CONTINUOUS
 62
     3
100
AcDb2dPolyline
 66
     1
 10
0.0
 20
0.0
 30
0.0
 70
     2
  0
VERTEX
  5
161C
330
161B
100
AcDbEntity
  8
L-1
  6
CONTINUOUS
 62
     3
100
AcDbVertex
100
AcDb2dVertex
 10
31.99407185154715
 20
115.2826224506163
 30
0.0
 42
0.0438764955251235
  0
VERTEX
  5
161D
330
161B
100
AcDbEntity
  8
L-1
  6
CONTINUOUS
 62
     3
100
AcDbVertex
100
AcDb2dVertex
 10
31.92255827199662
 20
115.0872552098159
 30
0.0
 42
0.0694411009133329
 70
     1
  0
VERTEX
  5
161E
330
161B
100
AcDbEntity
  8
L-1
  6
CONTINUOUS
 62
     3
100
AcDbVertex
100
AcDb2dVertex
 10
31.90618187559712
 20
114.9564428462426
 30
0.0
 42
0.1183875812258901
  0
VERTEX
  5
161F
330
161B
100
AcDbEntity
  8
L-1
  6
CONTINUOUS
 62
     3
100
AcDbVertex
100
AcDb2dVertex
 10
31.98496681484261
 20
114.6476329221751
 30
0.0
 42
-0.1140489613631568
 70
     1
  0
VERTEX
  5
1620
330
161B
100
AcDbEntity
  8
L-1
  6
CONTINUOUS
 62
     3
100
AcDbVertex
100
AcDb2dVertex
 10
32.06940626086911
 20
114.3281053497209
 30
0.0
 42
-0.0615614585235404
  0
VERTEX
  5
1621
330
161B
100
AcDbEntity
  8
L-1
  6
CONTINUOUS
 62
     3
100
AcDbVertex
100
AcDb2dVertex
 10
32.0563649745901
 20
114.186329295112
 30
0.0
 42
-0.0410594091454475
 70
     1
  0
VERTEX
  5
1622
330
161B
100
AcDbEntity
  8
L-1
  6
CONTINUOUS
 62
     3
100
AcDbVertex
100
AcDb2dVertex
 10
31.99407185154715
 20
113.9826224506162
 30
0.0
  0
SEQEND
  5
1623
330
161B
100
AcDbEntity
  8
L-1
  6
CONTINUOUS
 62
     3
  0
POLYLINE
  5
1624
330
1505
100
AcDbEntity
  8
L-1
  6
CONTINUOUS
 62
     3
100
AcDb2dPolyline
 66
     1
 10
0.0
 20
0.0
 30
0.0
 70
     2
  0
VERTEX
  5
1625
330
1624
100
AcDbEntity
  8
L-1
  6
CONTINUOUS
 62
     3
100
AcDbVertex
100
AcDb2dVertex
 10
31.99407185154715
 20
113.5826224506162
 30
0.0
 42
0.0438764955251235
  0
VERTEX
  5
1626
330
1624
100
AcDbEntity
  8
L-1
  6
CONTINUOUS
 62
     3
100
AcDbVertex
100
AcDb2dVertex
 10
31.92255827199661
 20
113.387255209816
 30
0.0
 42
0.0694411009133329
 70
     1
  0
VERTEX
  5
1627
330
1624
100
AcDbEntity
  8
L-1
  6
CONTINUOUS
 62
     3
100
AcDbVertex
100
AcDb2dVertex
 10
31.90618187559712
 20
113.2564428462426
 30
0.0
 42
0.1183875812258901
  0
VERTEX
  5
1628
330
1624
100
AcDbEntity
  8
L-1
  6
CONTINUOUS
 62
     3
100
AcDbVertex
100
AcDb2dVertex
 10
31.98496681484257
 20
112.9476329221751
 30
0.0
 42
-0.1140489613631568
 70
     1
  0
VERTEX
  5
1629
330
1624
100
AcDbEntity
  8
L-1
  6
CONTINUOUS
 62
     3
100
AcDbVertex
100
AcDb2dVertex
 10
32.06940626086907
 20
112.6281053497208
 30
0.0
 42
-0.0615614585235404
  0
VERTEX
  5
162A
330
1624
100
AcDbEntity
  8
L-1
  6
CONTINUOUS
 62
     3
100
AcDbVertex
100
AcDb2dVertex
 10
32.05636497459009
 20
112.4863292951119
 30
0.0
 42
-0.0410594091454475
 70
     1
  0
VERTEX
  5
162B
330
1624
100
AcDbEntity
  8
L-1
  6
CONTINUOUS
 62
     3
100
AcDbVertex
100
AcDb2dVertex
 10
31.99407185154715
 20
112.2826224506163
 30
0.0
  0
SEQEND
  5
162C
330
1624
100
AcDbEntity
  8
L-1
  6
CONTINUOUS
 62
     3
  0
POLYLINE
  5
162D
330
1505
100
AcDbEntity
  8
L-1
  6
CONTINUOUS
 62
     3
100
AcDb2dPolyline
 66
     1
 10
0.0
 20
0.0
 30
0.0
 70
     2
  0
VERTEX
  5
162E
330
162D
100
AcDbEntity
  8
L-1
  6
CONTINUOUS
 62
     3
100
AcDbVertex
100
AcDb2dVertex
 10
31.99407185154715
 20
111.8826224506163
 30
0.0
 42
0.0438764955251235
  0
VERTEX
  5
162F
330
162D
100
AcDbEntity
  8
L-1
  6
CONTINUOUS
 62
     3
100
AcDbVertex
100
AcDb2dVertex
 10
31.92255827199661
 20
111.6872552098159
 30
0.0
 42
0.0694411009133329
 70
     1
  0
VERTEX
  5
1630
330
162D
100
AcDbEntity
  8
L-1
  6
CONTINUOUS
 62
     3
100
AcDbVertex
100
AcDb2dVertex
 10
31.90618187559712
 20
111.5564428462425
 30
0.0
 42
0.1183875812258901
  0
VERTEX
  5
1631
330
162D
100
AcDbEntity
  8
L-1
  6
CONTINUOUS
 62
     3
100
AcDbVertex
100
AcDb2dVertex
 10
31.98496681484257
 20
111.247632922175
 30
0.0
 42
-0.1140489613631568
 70
     1
  0
VERTEX
  5
1632
330
162D
100
AcDbEntity
  8
L-1
  6
CONTINUOUS
 62
     3
100
AcDbVertex
100
AcDb2dVertex
 10
32.06940626086907
 20
110.9281053497209
 30
0.0
 42
-0.0615614585235404
  0
VERTEX
  5
1633
330
162D
100
AcDbEntity
  8
L-1
  6
CONTINUOUS
 62
     3
100
AcDbVertex
100
AcDb2dVertex
 10
32.05636497459009
 20
110.786329295112
 30
0.0
 42
-0.0410594091454475
 70
     1
  0
VERTEX
  5
1634
330
162D
100
AcDbEntity
  8
L-1
  6
CONTINUOUS
 62
     3
100
AcDbVertex
100
AcDb2dVertex
 10
31.99407185154715
 20
110.5826224506162
 30
0.0
  0
SEQEND
  5
1635
330
162D
100
AcDbEntity
  8
L-1
  6
CONTINUOUS
 62
     3
  0
LINE
  5
1636
330
1505
100
AcDbEntity
  8
L-1
  6
CONTINUOUS
 62
     7
100
AcDbLine
 10
38.21734836867877
 20
115.8826224506162
 30
0.0
 11
39.21734836867877
 21
115.8826224506162
 31
0.0
  0
LINE
  5
1637
330
1505
100
AcDbEntity
  8
L-1
  6
CONTINUOUS
 62
     7
100
AcDbLine
 10
36.71734836867882
 20
115.8826224506162
 30
0.0
 11
37.21734836867875
 21
115.8826224506162
 31
0.0
  0
ARC
  5
1638
330
1505
100
AcDbEntity
  8
L-1
  6
CONTINUOUS
 62
     7
100
AcDbCircle
 10
36.71734836867882
 20
115.3826224506162
 30
0.0
 40
0.5
100
AcDbArc
 50
90.0
 51
180.0
  0
LINE
  5
1639
330
1505
100
AcDbEntity
  8
L-1
  6
CONTINUOUS
 62
     7
100
AcDbLine
 10
38.21734836867877
 20
116.8826224506162
 30
0.0
 11
37.21734836867875
 21
116.8826224506162
 31
0.0
  0
LINE
  5
163A
330
1505
100
AcDbEntity
  8
L-1
  6
CONTINUOUS
 62
     7
100
AcDbLine
 10
40.21734836867877
 20
115.8826224506162
 30
0.0
 11
41.21734836867878
 21
115.8826224506162
 31
0.0
  0
LINE
  5
163B
330
1505
100
AcDbEntity
  8
L-1
  6
CONTINUOUS
 62
     7
100
AcDbLine
 10
40.21734836867874
 20
116.8826224506162
 30
0.0
 11
39.21734836867875
 21
116.8826224506162
 31
0.0
  0
LINE
  5
163C
330
1505
100
AcDbEntity
  8
L-1
  6
CONTINUOUS
 62
     5
100
AcDbLine
 10
85.5000001503935
 20
135.5000000878504
 30
0.0
 11
85.5000001503935
 21
0.0000000878506512
 31
0.0
  0
LINE
  5
163D
330
1505
100
AcDbEntity
  8
L-1
  6
CONTINUOUS
 62
     7
100
AcDbLine
 10
53.21734836867868
 20
74.4279308764678
 30
0.0
 11
53.21734836867868
 21
64.82793087646783
 31
0.0
  0
TEXT
  5
163E
330
1505
100
AcDbEntity
  8
L-2
  6
CONTINUOUS
 62
     5
100
AcDbText
 10
47.12153241905897
 20
65.76177972559752
 30
0.0
 40
2.0
  1
IN 2
  7
MSゴシック
100
AcDbText
  0
CIRCLE
  5
163F
330
1505
100
AcDbEntity
  8
L-1
  6
CONTINUOUS
 62
     7
100
AcDbCircle
 10
54.71734836867875
 20
66.72793087646787
 30
0.0
 40
0.47695
  0
DIMENSION
  5
1640
330
1505
100
AcDbEntity
  8
L-2
  6
CONTINUOUS
100
AcDbDimension
  2
*D4
 10
73.76441289795649
 20
74.4279308764678
 30
0.0
 11
72.71441289795649
 21
69.62793087646784
 31
0.0
 12
-1.999999849606524
 22
-2.499999912149348
 32
0.0
  3
CAD-STD1-1
100
AcDbAlignedDimension
 13
59.21734836867877
 23
64.82793087646783
 33
0.0
 14
59.21734836867877
 24
74.4279308764678
 34
0.0
 50
90.0
100
AcDbRotatedDimension
  0
LINE
  5
1641
330
1505
100
AcDbEntity
  8
L-1
  6
CONTINUOUS
 62
     7
100
AcDbLine
 10
65.21734836867875
 20
65.82793087646783
 30
0.0
 11
65.21734836867875
 21
67.62793087646793
 31
0.0
  0
LINE
  5
1642
330
1505
100
AcDbEntity
  8
L-1
  6
CONTINUOUS
 62
     7
100
AcDbLine
 10
59.21734836867877
 20
65.82793087646781
 30
0.0
 11
59.21734836867877
 21
73.42793087646779
 31
0.0
  0
TEXT
  5
1643
330
1505
100
AcDbEntity
  8
L-2
  6
CONTINUOUS
 62
     2
100
AcDbText
 10
49.94451123888315
 20
6.381998265899424
 30
0.0
 40
2.25
  1
（コード長標準700mm）
  7
MSゴシック
100
AcDbText
  0
TEXT
  5
1644
330
1505
100
AcDbEntity
  8
L-2
  6
CONTINUOUS
 62
     2
100
AcDbText
 10
50.86893266809774
 20
10.24093862625949
 30
0.0
 40
2.25
  1
ＭＴ２０　試験プラグ
  7
MSゴシック
100
AcDbText
  0
TEXT
  5
1645
330
1505
100
AcDbEntity
  8
L-1
  6
CONTINUOUS
 62
     2
100
AcDbText
 10
52.8668193066893
 20
0.9368703293714442
 30
0.0
 40
2.2
  1
東京通信機工業株式会社
  7
MSゴシック
100
AcDbText
  0
TEXT
  5
1646
330
1505
100
AcDbEntity
  8
L-2
  6
CONTINUOUS
 62
     2
100
AcDbText
 10
67.80786890862079
 20
15.9313842540086
 30
0.0
 40
2.0
  1
（単位：ｍｍ）
  7
MSゴシック
100
AcDbText
  0
LINE
  5
1647
330
1505
100
AcDbEntity
  8
L-1
  6
CONTINUOUS
 62
     5
100
AcDbLine
 10
45.50000015039347
 20
15.00000008785065
 30
0.0
 11
85.5000001503935
 21
15.00000008785065
 31
0.0
  0
LINE
  5
1648
330
1505
100
AcDbEntity
  8
L-1
  6
CONTINUOUS
 62
     5
100
AcDbLine
 10
45.50000015039347
 20
4.000000087850651
 30
0.0
 11
85.5000001503935
 21
4.000000087850651
 31
0.0
  0
LINE
  5
1649
330
1505
100
AcDbEntity
  8
L-2
  6
CONTINUOUS
 62
     4
100
AcDbLine
 10
59.81446258572691
 20
45.00616190990075
 30
0.0
 11
74.27627980512591
 21
45.00616190990075
 31
0.0
  0
LINE
  5
164A
330
1505
100
AcDbEntity
  8
L-2
  6
CONTINUOUS
 62
     4
100
AcDbLine
 10
59.81446258572691
 20
39.00616190990074
 30
0.0
 11
74.27627980512591
 21
39.00616190990074
 31
0.0
  0
LINE
  5
164B
330
1505
100
AcDbEntity
  8
L-2
  6
CONTINUOUS
 62
     4
100
AcDbLine
 10
59.81446258572691
 20
42.00616190990075
 30
0.0
 11
74.27627980512591
 21
42.00616190990075
 31
0.0
  0
LINE
  5
164C
330
1505
100
AcDbEntity
  8
L-2
  6
CONTINUOUS
 62
     4
100
AcDbLine
 10
59.81446258572691
 20
36.00616190990074
 30
0.0
 11
74.27627980512591
 21
36.00616190990074
 31
0.0
  0
LINE
  5
164D
330
1505
100
AcDbEntity
  8
L-2
  6
CONTINUOUS
 62
     4
100
AcDbLine
 10
59.81446258572691
 20
33.00616190990075
 30
0.0
 11
74.27627980512591
 21
33.00616190990075
 31
0.0
  0
LINE
  5
164E
330
1505
100
AcDbEntity
  8
L-1
  6
CONTINUOUS
 62
     5
100
AcDbLine
 10
45.50000015039347
 20
15.00000008785065
 30
0.0
 11
45.50000015039347
 21
0.0000000878506512
 31
0.0
  0
INSERT
  5
164F
330
1505
100
AcDbEntity
  8
L-1
100
AcDbBlockReference
  2
TK
 10
51.85411455042162
 20
1.888421275180581
 30
0.0
 41
0.5
 42
0.5
 43
0.5
  0
TEXT
  5
1650
330
1505
100
AcDbEntity
  8
L-2
  6
CONTINUOUS
 62
     2
100
AcDbText
 10
45.30461631002149
 20
55.9113845538847
 30
0.0
 40
1.5
  1
（樹脂色：青色）
  7
MSゴシック
100
AcDbText
  0
TEXT
  5
1651
330
1505
100
AcDbEntity
  8
L-2
  6
CONTINUOUS
 62
     2
100
AcDbText
 10
45.08591950523511
 20
58.57012141228651
 30
0.0
 40
1.199999999999999
  1
つまみ部
  7
MSゴシック
 72
     4
 11
48.20470123112343
 21
59.13052750365707
 31
0.0
100
AcDbText
  0
LINE
  5
1652
330
1505
100
AcDbEntity
  8
L-2
  6
CONTINUOUS
 62
     4
100
AcDbLine
 10
68.67232599951444
 20
45.00616190990075
 30
0.0
 11
68.67232599951444
 21
33.00616190990075
 31
0.0
  0
LINE
  5
1653
330
1505
100
AcDbEntity
  8
L-2
  6
CONTINUOUS
 62
     4
100
AcDbLine
 10
59.81446258572691
 20
45.00616190990075
 30
0.0
 11
59.81446258572691
 21
33.00616190990075
 31
0.0
  0
TEXT
  5
1654
330
1505
100
AcDbEntity
  8
L-2
  6
CONTINUOUS
 62
     2
100
AcDbText
 10
61.26245292927149
 20
42.81136782569102
 30
0.0
 40
1.5
  1
IN1
  7
MSゴシック
100
AcDbText
  0
TEXT
  5
1655
330
1505
100
AcDbEntity
  8
L-2
  6
CONTINUOUS
 62
     2
100
AcDbText
 10
61.26245292927149
 20
33.70876306120746
 30
0.0
 40
1.5
  1
OUT2
  7
MSゴシック
100
AcDbText
  0
TEXT
  5
1656
330
1505
100
AcDbEntity
  8
L-2
  6
CONTINUOUS
 62
     2
100
AcDbText
 10
61.26245292927149
 20
36.67743294224989
 30
0.0
 40
1.5
  1
IN2
  7
MSゴシック
100
AcDbText
  0
TEXT
  5
1657
330
1505
100
AcDbEntity
  8
L-2
  6
CONTINUOUS
 62
     2
100
AcDbText
 10
61.26245292927149
 20
39.86003927025787
 30
0.0
 40
1.5
  1
OUT1
  7
MSゴシック
100
AcDbText
  0
TEXT
  5
1658
330
1505
100
AcDbEntity
  8
L-2
  6
CONTINUOUS
 62
     2
100
AcDbText
 10
59.81552948359695
 20
45.92505027691617
 30
0.0
 40
1.5
  1
接続表
  7
MSゴシック
100
AcDbText
  0
LINE
  5
1659
330
1505
100
AcDbEntity
  8
L-1
  6
CONTINUOUS
 62
     7
100
AcDbLine
 10
59.21734836867877
 20
65.82793087646784
 30
0.0
 11
65.21734836867875
 21
65.82793087646783
 31
0.0
  0
LINE
  5
165A
330
1505
100
AcDbEntity
  8
L-2
  6
CONTINUOUS
 62
     4
100
AcDbLine
 10
59.83929383388782
 20
61.38997526324299
 30
0.0
 11
64.646505368082
 21
61.38997526324299
 31
0.0
  0
TEXT
  5
165B
330
1505
100
AcDbEntity
  8
L-2
  6
CONTINUOUS
 62
     2
100
AcDbText
 10
58.33225945064884
 20
58.41296257781841
 30
0.0
 40
1.199999999999999
  1
ブレード部
  7
MSゴシック
 72
     4
 11
62.23073660800924
 21
59.00382552198085
 31
0.0
100
AcDbText
  0
LINE
  5
165C
330
1505
100
AcDbEntity
  8
L-2
  6
CONTINUOUS
 62
     4
100
AcDbLine
 10
59.21734836867877
 20
62.42638598876775
 30
0.0
 11
58.59540290346965
 21
61.38997526324299
 31
0.0
  0
LINE
  5
165D
330
1505
100
AcDbEntity
  8
L-2
  6
CONTINUOUS
 62
     4
100
AcDbLine
 10
59.21734836867877
 20
62.42638598876775
 30
0.0
 11
59.83929383388782
 21
61.38997526324299
 31
0.0
  0
LINE
  5
165E
330
1505
100
AcDbEntity
  8
L-1
  6
CONTINUOUS
 62
     7
100
AcDbLine
 10
59.21734836867877
 20
65.82793087646783
 30
0.0
 11
59.21734836867877
 21
64.82793087646783
 31
0.0
  0
LINE
  5
165F
330
1505
100
AcDbEntity
  8
L-2
  6
CONTINUOUS
 62
     4
100
AcDbLine
 10
64.646505368082
 20
61.38997526324299
 30
0.0
 11
65.21734836867875
 21
62.42638598876775
 31
0.0
  0
LINE
  5
1660
330
1505
100
AcDbEntity
  8
L-1
  6
CONTINUOUS
 62
     5
100
AcDbLine
 10
85.00000015039349
 20
0.0000000878506512
 30
0.0
 11
85.5000001503935
 21
0.0000000878506512
 31
0.0
  0
LINE
  5
1661
330
1505
100
AcDbEntity
  8
L-2
  6
CONTINUOUS
 62
     4
100
AcDbLine
 10
74.27627980512591
 20
45.00616190990075
 30
0.0
 11
74.27627980512591
 21
33.00616190990075
 31
0.0
  0
TEXT
  5
1662
330
1505
100
AcDbEntity
  8
L-2
  6
CONTINUOUS
 62
     2
100
AcDbText
 10
70.69713033745734
 20
33.74932517671234
 30
0.0
 40
1.5
  1
黄
  7
MSゴシック
100
AcDbText
  0
TEXT
  5
1663
330
1505
100
AcDbEntity
  8
L-2
  6
CONTINUOUS
 62
     2
100
AcDbText
 10
70.69713033745734
 20
39.82333603640947
 30
0.0
 40
1.5
  1
青
  7
MSゴシック
100
AcDbText
  0
TEXT
  5
1664
330
1505
100
AcDbEntity
  8
L-2
  6
CONTINUOUS
 62
     2
100
AcDbText
 10
70.69713033745734
 20
36.82565677776739
 30
0.0
 40
1.5
  1
白
  7
MSゴシック
100
AcDbText
  0
TEXT
  5
1665
330
1505
100
AcDbEntity
  8
L-2
  6
CONTINUOUS
 62
     2
100
AcDbText
 10
70.69713033745734
 20
42.78172299356906
 30
0.0
 40
1.5
  1
赤
  7
MSゴシック
100
AcDbText
  0
DIMENSION
  5
1666
330
1505
100
AcDbEntity
  8
L-2
  6
CONTINUOUS
100
AcDbDimension
  2
*D5
 10
73.52557972809278
 20
91.55091949059963
 30
0.0
 11
72.47557972809277
 21
88.3009194905996
 31
0.0
 12
-1.999999849606524
 22
-2.499999912149348
 32
0.0
  3
CAD-STD1-1
100
AcDbAlignedDimension
 13
52.71734836867868
 23
85.05091949059957
 33
0.0
 14
52.71734836867877
 24
91.55091949059963
 34
0.0
 50
90.0
100
AcDbRotatedDimension
  0
CIRCLE
  5
1667
330
1505
100
AcDbEntity
  8
L-1
  6
CONTINUOUS
 62
     7
100
AcDbCircle
 10
54.71734836867875
 20
109.1826224506162
 30
0.0
 40
0.47695
  0
LINE
  5
1668
330
1505
100
AcDbEntity
  8
L-1
  6
CONTINUOUS
 62
     7
100
AcDbLine
 10
53.21734836867868
 20
107.2826224506163
 30
0.0
 11
53.21734836867868
 21
116.8826224506162
 31
0.0
  0
TEXT
  5
1669
330
1505
100
AcDbEntity
  8
L-2
  6
CONTINUOUS
 62
     5
100
AcDbText
 10
46.14495316547005
 20
108.2749975228575
 30
0.0
 40
2.0
  1
OUT 1
  7
MSゴシック
100
AcDbText
  0
LINE
  5
166A
330
1505
100
AcDbEntity
  8
L-1
  6
CONTINUOUS
 62
     7
100
AcDbLine
 10
65.21734836867875
 20
110.0826224506162
 30
0.0
 11
65.21734836867875
 21
108.2826224506163
 31
0.0
  0
LINE
  5
166B
330
1505
100
AcDbEntity
  8
L-1
  6
CONTINUOUS
 62
     7
100
AcDbLine
 10
59.21734836867877
 20
115.8826224506162
 30
0.0
 11
59.21734836867877
 21
108.2826224506163
 31
0.0
  0
LINE
  5
166C
330
1505
100
AcDbEntity
  8
L-1
  6
CONTINUOUS
 62
     7
100
AcDbLine
 10
59.21734836867869
 20
87.0509194905996
 30
0.0
 11
53.21734836867868
 21
87.0509194905996
 31
0.0
  0
LINE
  5
166D
330
1505
100
AcDbEntity
  8
L-1
  6
CONTINUOUS
 62
     7
100
AcDbLine
 10
59.21734836867877
 20
89.5509194905996
 30
0.0
 11
53.21734836867877
 21
89.5509194905996
 31
0.0
  0
TEXT
  5
166E
330
1505
100
AcDbEntity
  8
L-2
  6
CONTINUOUS
 62
     5
100
AcDbText
 10
47.15320485945361
 20
71.50103331631004
 30
0.0
 40
2.0
  1
IN 1
  7
MSゴシック
100
AcDbText
  0
CIRCLE
  5
166F
330
1505
100
AcDbEntity
  8
L-1
  6
CONTINUOUS
 62
     7
100
AcDbCircle
 10
54.71734836867875
 20
72.52793087646788
 30
0.0
 40
0.47695
  0
ARC
  5
1670
330
1505
100
AcDbEntity
  8
L-1
  6
CONTINUOUS
 62
     7
100
AcDbCircle
 10
52.71734836867866
 20
85.5509194905996
 30
0.0
 40
0.5
100
AcDbArc
 50
270.0
 51
359.9999999999983
  0
LINE
  5
1671
330
1505
100
AcDbEntity
  8
L-1
  6
CONTINUOUS
 62
     7
100
AcDbLine
 10
53.21734836867868
 20
87.0509194905996
 30
0.0
 11
53.21734836867864
 21
85.5509194905996
 31
0.0
  0
ARC
  5
1672
330
1505
100
AcDbEntity
  8
L-1
  6
CONTINUOUS
 62
     7
100
AcDbCircle
 10
54.71734836867877
 20
87.20091949059961
 30
0.0
 40
0.5
100
AcDbArc
 50
197.457603123723
 51
342.5423968762776
  0
LINE
  5
1673
330
1505
100
AcDbEntity
  8
L-1
  6
CONTINUOUS
 62
     7
100
AcDbLine
 10
53.21734836867877
 20
91.05091949059959
 30
0.0
 11
53.21734836867877
 21
89.5509194905996
 31
0.0
  0
ARC
  5
1674
330
1505
100
AcDbEntity
  8
L-1
  6
CONTINUOUS
 62
     7
100
AcDbCircle
 10
52.71734836867874
 20
91.05091949059959
 30
0.0
 40
0.5
100
AcDbArc
 50
359.9999999999983
 51
90.0
  0
ARC
  5
1675
330
1505
100
AcDbEntity
  8
L-1
  6
CONTINUOUS
 62
     7
100
AcDbCircle
 10
54.71734836867877
 20
89.4009194905996
 30
0.0
 40
0.5
100
AcDbArc
 50
17.45760312372197
 51
162.5423968762779
  0
LINE
  5
1676
330
1505
100
AcDbEntity
  8
L-1
  6
CONTINUOUS
 62
     7
100
AcDbLine
 10
59.21734836867877
 20
89.5509194905996
 30
0.0
 11
59.21734836867869
 21
87.0509194905996
 31
0.0
  0
LINE
  5
1677
330
1505
100
AcDbEntity
  8
L-1
  6
CONTINUOUS
 62
     7
100
AcDbLine
 10
65.21734836867875
 20
88.80091949059965
 30
0.0
 11
65.21734836867875
 21
87.80091949059963
 31
0.0
  0
LINE
  5
1678
330
1505
100
AcDbEntity
  8
L-1
  6
CONTINUOUS
 62
     7
100
AcDbLine
 10
65.21734836867875
 20
87.80091949059963
 30
0.0
 11
59.21734836867869
 21
87.80091949059963
 31
0.0
  0
LINE
  5
1679
330
1505
100
AcDbEntity
  8
L-1
  6
CONTINUOUS
 62
     7
100
AcDbLine
 10
65.21734836867875
 20
67.62793087646793
 30
0.0
 11
59.21734836867877
 21
67.6279308764679
 31
0.0
  0
LINE
  5
167A
330
1505
100
AcDbEntity
  8
L-1
  6
CONTINUOUS
 62
     7
100
AcDbLine
 10
65.21734836867875
 20
71.62793087646793
 30
0.0
 11
59.21734836867877
 21
71.62793087646789
 31
0.0
  0
LINE
  5
167B
330
1505
100
AcDbEntity
  8
L-1
  6
CONTINUOUS
 62
     7
100
AcDbLine
 10
59.21734836867877
 20
73.42793087646779
 30
0.0
 11
65.21734836867875
 21
73.42793087646779
 31
0.0
  0
LINE
  5
167C
330
1505
100
AcDbEntity
  8
L-1
  6
CONTINUOUS
 62
     7
100
AcDbLine
 10
59.21734836867877
 20
73.42793087646779
 30
0.0
 11
59.21734836867877
 21
74.4279308764678
 31
0.0
  0
LINE
  5
167D
330
1505
100
AcDbEntity
  8
L-1
  6
CONTINUOUS
 62
     7
100
AcDbLine
 10
65.21734836867875
 20
71.62793087646793
 30
0.0
 11
65.21734836867875
 21
73.42793087646779
 31
0.0
  0
LINE
  5
167E
330
1505
100
AcDbEntity
  8
L-1
  6
CONTINUOUS
 62
     7
100
AcDbLine
 10
59.21734836867877
 20
108.2826224506163
 30
0.0
 11
65.21734836867875
 21
108.2826224506163
 31
0.0
  0
LINE
  5
167F
330
1505
100
AcDbEntity
  8
L-1
  6
CONTINUOUS
 62
     7
100
AcDbLine
 10
65.21734836867875
 20
88.80091949059965
 30
0.0
 11
59.21734836867877
 21
88.80091949059965
 31
0.0
  0
LINE
  5
1680
330
1505
100
AcDbEntity
  8
L-1
  6
CONTINUOUS
 62
     7
100
AcDbLine
 10
59.21734836867877
 20
108.2826224506163
 30
0.0
 11
59.21734836867877
 21
107.2826224506163
 31
0.0
  0
TEXT
  5
1681
330
1505
100
AcDbEntity
  8
L-2
  6
CONTINUOUS
 62
     5
100
AcDbText
 10
46.17662560586468
 20
113.9557248904585
 30
0.0
 40
2.0
  1
OUT 2
  7
MSゴシック
100
AcDbText
  0
CIRCLE
  5
1682
330
1505
100
AcDbEntity
  8
L-1
  6
CONTINUOUS
 62
     7
100
AcDbCircle
 10
54.71734836867877
 20
114.9826224506162
 30
0.0
 40
0.47695
  0
LINE
  5
1683
330
1505
100
AcDbEntity
  8
L-1
  6
CONTINUOUS
 62
     7
100
AcDbLine
 10
59.21734836867877
 20
115.8826224506162
 30
0.0
 11
65.21734836867878
 21
115.8826224506162
 31
0.0
  0
LINE
  5
1684
330
1505
100
AcDbEntity
  8
L-1
  6
CONTINUOUS
 62
     7
100
AcDbLine
 10
65.21734836867875
 20
110.0826224506162
 30
0.0
 11
59.21734836867877
 21
110.0826224506162
 31
0.0
  0
LINE
  5
1685
330
1505
100
AcDbEntity
  8
L-1
  6
CONTINUOUS
 62
     7
100
AcDbLine
 10
65.21734836867875
 20
114.0826224506162
 30
0.0
 11
59.21734836867877
 21
114.0826224506162
 31
0.0
  0
LINE
  5
1686
330
1505
100
AcDbEntity
  8
L-1
  6
CONTINUOUS
 62
     7
100
AcDbLine
 10
59.21734836867877
 20
115.8826224506162
 30
0.0
 11
59.21734836867877
 21
116.8826224506162
 31
0.0
  0
LINE
  5
1687
330
1505
100
AcDbEntity
  8
L-1
  6
CONTINUOUS
 62
     7
100
AcDbLine
 10
65.21734836867878
 20
115.8826224506162
 30
0.0
 11
65.21734836867875
 21
114.0826224506162
 31
0.0
  0
ENDBLK
  5
1689
330
1505
100
AcDbEntity
  8
0
100
AcDbBlockEnd
  0
BLOCK
  5
1F53
330
1F49
100
AcDbEntity
  8
0
100
AcDbBlockBegin
  2
*D9
 70
     1
 10
0.0
 20
0.0
 30
0.0
  3
*D9
  1

  0
LINE
  5
208D
330
1F49
100
AcDbEntity
  8
L-2
  6
CONTINUOUS
 62
     4
100
AcDbLine
 10
105.4569613378194
 20
193.6694682515321
 30
0.0
 11
147.1280711920782
 21
193.6694682515321
 31
0.0
  0
LINE
  5
208E
330
1F49
100
AcDbEntity
  8
L-2
  6
CONTINUOUS
 62
     4
100
AcDbLine
 10
105.4569613378194
 20
66.469468251532
 30
0.0
 11
147.1280711920782
 21
66.469468251532
 31
0.0
  0
LINE
  5
208F
330
1F49
100
AcDbEntity
  8
L-2
  6
CONTINUOUS
 62
     4
100
AcDbLine
 10
146.1280711920784
 20
191.1694682515321
 30
0.0
 11
146.1280711920784
 21
68.969468251532
 31
0.0
  0
INSERT
  5
2090
330
1F49
100
AcDbEntity
  8
L-2
  6
CONTINUOUS
 62
     4
100
AcDbBlockReference
  2
_OPEN
 10
146.1280711920784
 20
193.6694682515321
 30
0.0
 41
2.5
 42
2.5
 43
2.5
 50
90.0
  0
INSERT
  5
2091
330
1F49
100
AcDbEntity
  8
L-2
  6
CONTINUOUS
 62
     4
100
AcDbBlockReference
  2
_OPEN
 10
146.1280711920784
 20
66.469468251532
 30
0.0
 41
2.5
 42
2.5
 43
2.5
 50
270.0
  0
MTEXT
  5
2092
330
1F49
100
AcDbEntity
  8
L-2
  6
CONTINUOUS
 62
     2
100
AcDbMText
 10
144.0280711920783
 20
130.069468251532
 30
0.0
 40
3.2
 41
0.0
 71
     5
 72
     1
  1
\A1;127.2
  7
MSゴシック
 11
0.0000000000000001
 21
1.0
 31
0.0
1001
ACAD
1000
MTEXTBEGIN
1070
    73
1070
     1
1070
    44
1040
1.0
1070
    74
1070
     0
1000
MTEXTEND
1000
MTEXTBEGIN
1070
    73
1070
     1
1070
    44
1040
1.0
1070
    74
1070
     0
1000
MTEXTEND
1000
MTEXTBEGIN
1070
    73
1070
     1
1070
    44
1040
1.0
1070
    74
1070
     0
1000
MTEXTEND
  0
POINT
  5
2093
330
1F49
100
AcDbEntity
  8
DEFPOINTS
  6
CONTINUOUS
 62
     0
100
AcDbPoint
 10
104.9569613378194
 20
193.6694682515321
 30
0.0
  0
POINT
  5
2094
330
1F49
100
AcDbEntity
  8
DEFPOINTS
  6
CONTINUOUS
 62
     0
100
AcDbPoint
 10
104.9569613378194
 20
66.469468251532
 30
0.0
  0
POINT
  5
2095
330
1F49
100
AcDbEntity
  8
DEFPOINTS
  6
CONTINUOUS
 62
     0
100
AcDbPoint
 10
146.1280711920784
 20
66.469468251532
 30
0.0
  0
ENDBLK
  5
1F54
330
1F49
100
AcDbEntity
  8
0
100
AcDbBlockEnd
  0
BLOCK
  5
1F7B
330
1F71
100
AcDbEntity
  8
0
100
AcDbBlockBegin
  2
*D10
 70
     1
 10
0.0
 20
0.0
 30
0.0
  3
*D10
  1

  0
LINE
  5
2096
330
1F71
100
AcDbEntity
  8
L-2
  6
CONTINUOUS
 62
     4
100
AcDbLine
 10
114.4569613378197
 20
192.2694682515319
 30
0.0
 11
134.6237756655461
 21
192.2694682515319
 31
0.0
  0
LINE
  5
2097
330
1F71
100
AcDbEntity
  8
L-2
  6
CONTINUOUS
 62
     4
100
AcDbLine
 10
114.4569613378189
 20
67.86946825153203
 30
0.0
 11
134.6237756655459
 21
67.86946825153203
 31
0.0
  0
LINE
  5
2098
330
1F71
100
AcDbEntity
  8
L-2
  6
CONTINUOUS
 62
     4
100
AcDbLine
 10
133.6237756655459
 20
189.7694682515319
 30
0.0
 11
133.6237756655459
 21
70.36946825153203
 31
0.0
  0
INSERT
  5
2099
330
1F71
100
AcDbEntity
  8
L-2
  6
CONTINUOUS
 62
     4
100
AcDbBlockReference
  2
_OPEN
 10
133.6237756655461
 20
192.2694682515319
 30
0.0
 41
2.5
 42
2.5
 43
2.5
 50
90.0
  0
INSERT
  5
209A
330
1F71
100
AcDbEntity
  8
L-2
  6
CONTINUOUS
 62
     4
100
AcDbBlockReference
  2
_OPEN
 10
133.6237756655459
 20
67.86946825153203
 30
0.0
 41
2.5
 42
2.5
 43
2.5
 50
270.0
  0
MTEXT
  5
209B
330
1F71
100
AcDbEntity
  8
L-2
  6
CONTINUOUS
 62
     2
100
AcDbMText
 10
131.523775665546
 20
130.069468251532
 30
0.0
 40
3.2
 41
0.0
 71
     5
 72
     1
  1
\A1;124.4
  7
MSゴシック
 11
0.0000000000000001
 21
1.0
 31
0.0
1001
ACAD
1000
MTEXTBEGIN
1070
    73
1070
     1
1070
    44
1040
1.0
1070
    74
1070
     0
1000
MTEXTEND
1000
MTEXTBEGIN
1070
    73
1070
     1
1070
    44
1040
1.0
1070
    74
1070
     0
1000
MTEXTEND
1000
MTEXTBEGIN
1070
    73
1070
     1
1070
    44
1040
1.0
1070
    74
1070
     0
1000
MTEXTEND
  0
POINT
  5
209C
330
1F71
100
AcDbEntity
  8
DEFPOINTS
  6
CONTINUOUS
 62
     0
100
AcDbPoint
 10
113.9569613378197
 20
192.2694682515319
 30
0.0
  0
POINT
  5
209D
330
1F71
100
AcDbEntity
  8
DEFPOINTS
  6
CONTINUOUS
 62
     0
100
AcDbPoint
 10
113.9569613378189
 20
67.86946825153203
 30
0.0
  0
POINT
  5
209E
330
1F71
100
AcDbEntity
  8
DEFPOINTS
  6
CONTINUOUS
 62
     0
100
AcDbPoint
 10
133.6237756655459
 20
67.86946825153203
 30
0.0
  0
ENDBLK
  5
1F7C
330
1F71
100
AcDbEntity
  8
0
100
AcDbBlockEnd
  0
BLOCK
  5
1FAC
330
1FA2
100
AcDbEntity
  8
0
100
AcDbBlockBegin
  2
*D11
 70
     1
 10
0.0
 20
0.0
 30
0.0
  3
*D11
  1

  0
LINE
  5
1FE3
330
1FA2
100
AcDbEntity
  8
L-2
  6
CONTINUOUS
 62
     4
100
AcDbLine
 10
61.26796088902387
 20
67.86946825153214
 30
0.0
 11
61.26796088902387
 21
50.0978678187422
 31
0.0
  0
LINE
  5
1FE4
330
1FA2
100
AcDbEntity
  8
L-2
  6
CONTINUOUS
 62
     4
100
AcDbLine
 10
75.26796088902393
 20
67.86946825153214
 30
0.0
 11
75.26796088902393
 21
50.0978678187422
 31
0.0
  0
LINE
  5
1FE5
330
1FA2
100
AcDbEntity
  8
L-2
  6
CONTINUOUS
 62
     4
100
AcDbLine
 10
63.76796088902387
 20
51.0978678187422
 30
0.0
 11
72.76796088902393
 21
51.0978678187422
 31
0.0
  0
INSERT
  5
1FE6
330
1FA2
100
AcDbEntity
  8
L-2
  6
CONTINUOUS
 62
     4
100
AcDbBlockReference
  2
_OPEN
 10
61.26796088902387
 20
51.0978678187422
 30
0.0
 41
2.5
 42
2.5
 43
2.5
 50
180.0
  0
INSERT
  5
1FE7
330
1FA2
100
AcDbEntity
  8
L-2
  6
CONTINUOUS
 62
     4
100
AcDbBlockReference
  2
_OPEN
 10
75.26796088902393
 20
51.0978678187422
 30
0.0
 41
2.5
 42
2.5
 43
2.5
  0
MTEXT
  5
1FE8
330
1FA2
100
AcDbEntity
  8
L-2
  6
CONTINUOUS
 62
     2
100
AcDbMText
 10
68.2679608890239
 20
53.19786781874221
 30
0.0
 40
3.2
 41
0.0
 71
     5
 72
     1
  1
\A1;14
  7
MSゴシック
1001
ACAD
1000
MTEXTBEGIN
1070
    73
1070
     1
1070
    44
1040
1.0
1070
    74
1070
     0
1000
MTEXTEND
1000
MTEXTBEGIN
1070
    73
1070
     1
1070
    44
1040
1.0
1070
    74
1070
     0
1000
MTEXTEND
1000
MTEXTBEGIN
1070
    73
1070
     1
1070
    44
1040
1.0
1070
    74
1070
     0
1000
MTEXTEND
  0
POINT
  5
1FE9
330
1FA2
100
AcDbEntity
  8
DEFPOINTS
  6
CONTINUOUS
 62
     0
100
AcDbPoint
 10
61.26796088902387
 20
68.36946825153214
 30
0.0
  0
POINT
  5
1FEA
330
1FA2
100
AcDbEntity
  8
DEFPOINTS
  6
CONTINUOUS
 62
     0
100
AcDbPoint
 10
75.26796088902393
 20
68.36946825153214
 30
0.0
  0
POINT
  5
1FEB
330
1FA2
100
AcDbEntity
  8
DEFPOINTS
  6
CONTINUOUS
 62
     0
100
AcDbPoint
 10
75.26796088902393
 20
51.0978678187422
 30
0.0
  0
ENDBLK
  5
1FAD
330
1FA2
100
AcDbEntity
  8
0
100
AcDbBlockEnd
  0
BLOCK
  5
1FCB
330
1FC1
100
AcDbEntity
  8
0
100
AcDbBlockBegin
  2
*D12
 70
     1
 10
0.0
 20
0.0
 30
0.0
  3
*D12
  1

  0
LINE
  5
1FF5
330
1FC1
100
AcDbEntity
  8
L-2
  6
CONTINUOUS
 62
     4
100
AcDbLine
 10
62.76796088902393
 20
69.06946825153202
 30
0.0
 11
51.35262817911687
 21
69.06946825153202
 31
0.0
  0
LINE
  5
1FF6
330
1FC1
100
AcDbEntity
  8
L-2
  6
CONTINUOUS
 62
     4
100
AcDbLine
 10
62.76796088902393
 20
98.06946825153195
 30
0.0
 11
51.35262817911689
 21
98.06946825153195
 31
0.0
  0
LINE
  5
1FF7
330
1FC1
100
AcDbEntity
  8
L-2
  6
CONTINUOUS
 62
     4
100
AcDbLine
 10
52.35262817911689
 20
71.56946825153202
 30
0.0
 11
52.35262817911689
 21
95.56946825153195
 31
0.0
  0
INSERT
  5
1FF8
330
1FC1
100
AcDbEntity
  8
L-2
  6
CONTINUOUS
 62
     4
100
AcDbBlockReference
  2
_OPEN
 10
52.35262817911689
 20
69.06946825153202
 30
0.0
 41
2.5
 42
2.5
 43
2.5
 50
270.0
  0
INSERT
  5
1FF9
330
1FC1
100
AcDbEntity
  8
L-2
  6
CONTINUOUS
 62
     4
100
AcDbBlockReference
  2
_OPEN
 10
52.35262817911689
 20
98.06946825153195
 30
0.0
 41
2.5
 42
2.5
 43
2.5
 50
90.0
  0
MTEXT
  5
1FFA
330
1FC1
100
AcDbEntity
  8
L-2
  6
CONTINUOUS
 62
     2
100
AcDbMText
 10
50.25262817911688
 20
83.56946825153199
 30
0.0
 40
3.2
 41
0.0
 71
     5
 72
     1
  1
\A1;29
  7
MSゴシック
 11
0.0000000000000001
 21
1.0
 31
0.0
1001
ACAD
1000
MTEXTBEGIN
1070
    73
1070
     1
1070
    44
1040
1.0
1070
    74
1070
     0
1000
MTEXTEND
1000
MTEXTBEGIN
1070
    73
1070
     1
1070
    44
1040
1.0
1070
    74
1070
     0
1000
MTEXTEND
1000
MTEXTBEGIN
1070
    73
1070
     1
1070
    44
1040
1.0
1070
    74
1070
     0
1000
MTEXTEND
  0
POINT
  5
1FFB
330
1FC1
100
AcDbEntity
  8
DEFPOINTS
  6
CONTINUOUS
 62
     0
100
AcDbPoint
 10
63.26796088902392
 20
69.06946825153202
 30
0.0
  0
POINT
  5
1FFC
330
1FC1
100
AcDbEntity
  8
DEFPOINTS
  6
CONTINUOUS
 62
     0
100
AcDbPoint
 10
63.26796088902392
 20
98.06946825153195
 30
0.0
  0
POINT
  5
1FFD
330
1FC1
100
AcDbEntity
  8
DEFPOINTS
  6
CONTINUOUS
 62
     0
100
AcDbPoint
 10
52.35262817911689
 20
98.06946825153195
 30
0.0
  0
ENDBLK
  5
1FCC
330
1FC1
100
AcDbEntity
  8
0
100
AcDbBlockEnd
  0
BLOCK
  5
1FD8
330
1FCE
100
AcDbEntity
  8
0
100
AcDbBlockBegin
  2
*D13
 70
     1
 10
0.0
 20
0.0
 30
0.0
  3
*D13
  1

  0
LINE
  5
1FEC
330
1FCE
100
AcDbEntity
  8
L-2
  6
CONTINUOUS
 62
     4
100
AcDbLine
 10
63.26796088902392
 20
68.56946825153201
 30
0.0
 11
63.26796088902392
 21
57.31737277645493
 31
0.0
  0
LINE
  5
1FED
330
1FCE
100
AcDbEntity
  8
L-2
  6
CONTINUOUS
 62
     4
100
AcDbLine
 10
73.26796088902392
 20
68.56946825153201
 30
0.0
 11
73.26796088902392
 21
57.31737277645493
 31
0.0
  0
LINE
  5
1FEE
330
1FCE
100
AcDbEntity
  8
L-2
  6
CONTINUOUS
 62
     4
100
AcDbLine
 10
65.76796088902392
 20
58.31737277645492
 30
0.0
 11
70.76796088902392
 21
58.31737277645492
 31
0.0
  0
INSERT
  5
1FEF
330
1FCE
100
AcDbEntity
  8
L-2
  6
CONTINUOUS
 62
     4
100
AcDbBlockReference
  2
_OPEN
 10
63.26796088902392
 20
58.31737277645492
 30
0.0
 41
2.5
 42
2.5
 43
2.5
 50
180.0
  0
INSERT
  5
1FF0
330
1FCE
100
AcDbEntity
  8
L-2
  6
CONTINUOUS
 62
     4
100
AcDbBlockReference
  2
_OPEN
 10
73.26796088902392
 20
58.31737277645492
 30
0.0
 41
2.5
 42
2.5
 43
2.5
  0
MTEXT
  5
1FF1
330
1FCE
100
AcDbEntity
  8
L-2
  6
CONTINUOUS
 62
     2
100
AcDbMText
 10
68.26796088902392
 20
60.41737277645492
 30
0.0
 40
3.2
 41
0.0
 71
     5
 72
     1
  1
\A1;10
  7
MSゴシック
1001
ACAD
1000
MTEXTBEGIN
1070
    73
1070
     1
1070
    44
1040
1.0
1070
    74
1070
     0
1000
MTEXTEND
1000
MTEXTBEGIN
1070
    73
1070
     1
1070
    44
1040
1.0
1070
    74
1070
     0
1000
MTEXTEND
1000
MTEXTBEGIN
1070
    73
1070
     1
1070
    44
1040
1.0
1070
    74
1070
     0
1000
MTEXTEND
  0
POINT
  5
1FF2
330
1FCE
100
AcDbEntity
  8
DEFPOINTS
  6
CONTINUOUS
 62
     0
100
AcDbPoint
 10
63.26796088902392
 20
69.06946825153202
 30
0.0
  0
POINT
  5
1FF3
330
1FCE
100
AcDbEntity
  8
DEFPOINTS
  6
CONTINUOUS
 62
     0
100
AcDbPoint
 10
73.26796088902392
 20
69.06946825153202
 30
0.0
  0
POINT
  5
1FF4
330
1FCE
100
AcDbEntity
  8
DEFPOINTS
  6
CONTINUOUS
 62
     0
100
AcDbPoint
 10
73.26796088902392
 20
58.31737277645492
 30
0.0
  0
ENDBLK
  5
1FD9
330
1FCE
100
AcDbEntity
  8
0
100
AcDbBlockEnd
  0
BLOCK
  5
2009
330
1FFF
100
AcDbEntity
  8
0
100
AcDbBlockBegin
  2
*D14
 70
     1
 10
0.0
 20
0.0
 30
0.0
  3
*D14
  1

  0
LINE
  5
2060
330
1FFF
100
AcDbEntity
  8
L-2
  6
CONTINUOUS
 62
     4
100
AcDbLine
 10
62.76796088902393
 20
100.0694682515319
 30
0.0
 11
51.35262817911689
 21
100.0694682515319
 31
0.0
  0
LINE
  5
2061
330
1FFF
100
AcDbEntity
  8
L-2
  6
CONTINUOUS
 62
     4
100
AcDbLine
 10
62.76796088902393
 20
129.0694682515322
 30
0.0
 11
51.3526281791169
 21
129.0694682515322
 31
0.0
  0
LINE
  5
2062
330
1FFF
100
AcDbEntity
  8
L-2
  6
CONTINUOUS
 62
     4
100
AcDbLine
 10
52.35262817911689
 20
102.5694682515319
 30
0.0
 11
52.3526281791169
 21
126.5694682515322
 31
0.0
  0
INSERT
  5
2063
330
1FFF
100
AcDbEntity
  8
L-2
  6
CONTINUOUS
 62
     4
100
AcDbBlockReference
  2
_OPEN
 10
52.35262817911689
 20
100.0694682515319
 30
0.0
 41
2.5
 42
2.5
 43
2.5
 50
270.0
  0
INSERT
  5
2064
330
1FFF
100
AcDbEntity
  8
L-2
  6
CONTINUOUS
 62
     4
100
AcDbBlockReference
  2
_OPEN
 10
52.3526281791169
 20
129.0694682515322
 30
0.0
 41
2.5
 42
2.5
 43
2.5
 50
90.0
  0
MTEXT
  5
2065
330
1FFF
100
AcDbEntity
  8
L-2
  6
CONTINUOUS
 62
     2
100
AcDbMText
 10
50.25262817911688
 20
114.5694682515321
 30
0.0
 40
3.2
 41
0.0
 71
     5
 72
     1
  1
\A1;29
  7
MSゴシック
 11
0.0000000000000001
 21
1.0
 31
0.0
1001
ACAD
1000
MTEXTBEGIN
1070
    73
1070
     1
1070
    44
1040
1.0
1070
    74
1070
     0
1000
MTEXTEND
1000
MTEXTBEGIN
1070
    73
1070
     1
1070
    44
1040
1.0
1070
    74
1070
     0
1000
MTEXTEND
1000
MTEXTBEGIN
1070
    73
1070
     1
1070
    44
1040
1.0
1070
    74
1070
     0
1000
MTEXTEND
  0
POINT
  5
2066
330
1FFF
100
AcDbEntity
  8
DEFPOINTS
  6
CONTINUOUS
 62
     0
100
AcDbPoint
 10
63.26796088902392
 20
100.0694682515319
 30
0.0
  0
POINT
  5
2067
330
1FFF
100
AcDbEntity
  8
DEFPOINTS
  6
CONTINUOUS
 62
     0
100
AcDbPoint
 10
63.26796088902392
 20
129.0694682515322
 30
0.0
  0
POINT
  5
2068
330
1FFF
100
AcDbEntity
  8
DEFPOINTS
  6
CONTINUOUS
 62
     0
100
AcDbPoint
 10
52.3526281791169
 20
129.0694682515322
 30
0.0
  0
ENDBLK
  5
200A
330
1FFF
100
AcDbEntity
  8
0
100
AcDbBlockEnd
  0
BLOCK
  5
2016
330
200C
100
AcDbEntity
  8
0
100
AcDbBlockBegin
  2
*D15
 70
     1
 10
0.0
 20
0.0
 30
0.0
  3
*D15
  1

  0
LINE
  5
2069
330
200C
100
AcDbEntity
  8
L-2
  6
CONTINUOUS
 62
     4
100
AcDbLine
 10
62.76796088902393
 20
131.0694682515322
 30
0.0
 11
51.3526281791169
 21
131.0694682515322
 31
0.0
  0
LINE
  5
206A
330
200C
100
AcDbEntity
  8
L-2
  6
CONTINUOUS
 62
     4
100
AcDbLine
 10
62.76796088902393
 20
160.0694682515323
 30
0.0
 11
51.35262817911691
 21
160.0694682515323
 31
0.0
  0
LINE
  5
206B
330
200C
100
AcDbEntity
  8
L-2
  6
CONTINUOUS
 62
     4
100
AcDbLine
 10
52.3526281791169
 20
133.5694682515323
 30
0.0
 11
52.3526281791169
 21
157.5694682515323
 31
0.0
  0
INSERT
  5
206C
330
200C
100
AcDbEntity
  8
L-2
  6
CONTINUOUS
 62
     4
100
AcDbBlockReference
  2
_OPEN
 10
52.3526281791169
 20
131.0694682515322
 30
0.0
 41
2.5
 42
2.5
 43
2.5
 50
270.0
  0
INSERT
  5
206D
330
200C
100
AcDbEntity
  8
L-2
  6
CONTINUOUS
 62
     4
100
AcDbBlockReference
  2
_OPEN
 10
52.3526281791169
 20
160.0694682515323
 30
0.0
 41
2.5
 42
2.5
 43
2.5
 50
90.0
  0
MTEXT
  5
206E
330
200C
100
AcDbEntity
  8
L-2
  6
CONTINUOUS
 62
     2
100
AcDbMText
 10
50.25262817911688
 20
145.569468251532
 30
0.0
 40
3.2
 41
0.0
 71
     5
 72
     1
  1
\A1;29
  7
MSゴシック
 11
0.0000000000000001
 21
1.0
 31
0.0
1001
ACAD
1000
MTEXTBEGIN
1070
    73
1070
     1
1070
    44
1040
1.0
1070
    74
1070
     0
1000
MTEXTEND
1000
MTEXTBEGIN
1070
    73
1070
     1
1070
    44
1040
1.0
1070
    74
1070
     0
1000
MTEXTEND
1000
MTEXTBEGIN
1070
    73
1070
     1
1070
    44
1040
1.0
1070
    74
1070
     0
1000
MTEXTEND
  0
POINT
  5
206F
330
200C
100
AcDbEntity
  8
DEFPOINTS
  6
CONTINUOUS
 62
     0
100
AcDbPoint
 10
63.26796088902392
 20
131.0694682515322
 30
0.0
  0
POINT
  5
2070
330
200C
100
AcDbEntity
  8
DEFPOINTS
  6
CONTINUOUS
 62
     0
100
AcDbPoint
 10
63.26796088902392
 20
160.0694682515323
 30
0.0
  0
POINT
  5
2071
330
200C
100
AcDbEntity
  8
DEFPOINTS
  6
CONTINUOUS
 62
     0
100
AcDbPoint
 10
52.3526281791169
 20
160.0694682515323
 30
0.0
  0
ENDBLK
  5
2017
330
200C
100
AcDbEntity
  8
0
100
AcDbBlockEnd
  0
BLOCK
  5
2023
330
2019
100
AcDbEntity
  8
0
100
AcDbBlockBegin
  2
*D16
 70
     1
 10
0.0
 20
0.0
 30
0.0
  3
*D16
  1

  0
LINE
  5
2072
330
2019
100
AcDbEntity
  8
L-2
  6
CONTINUOUS
 62
     4
100
AcDbLine
 10
62.76796088902393
 20
162.0694682515321
 30
0.0
 11
51.35262817911691
 21
162.0694682515321
 31
0.0
  0
LINE
  5
2073
330
2019
100
AcDbEntity
  8
L-2
  6
CONTINUOUS
 62
     4
100
AcDbLine
 10
62.76796088902393
 20
191.0694682515321
 30
0.0
 11
51.35262817911691
 21
191.0694682515321
 31
0.0
  0
LINE
  5
2074
330
2019
100
AcDbEntity
  8
L-2
  6
CONTINUOUS
 62
     4
100
AcDbLine
 10
52.3526281791169
 20
164.5694682515323
 30
0.0
 11
52.3526281791169
 21
188.5694682515321
 31
0.0
  0
INSERT
  5
2075
330
2019
100
AcDbEntity
  8
L-2
  6
CONTINUOUS
 62
     4
100
AcDbBlockReference
  2
_OPEN
 10
52.3526281791169
 20
162.0694682515321
 30
0.0
 41
2.5
 42
2.5
 43
2.5
 50
270.0
  0
INSERT
  5
2076
330
2019
100
AcDbEntity
  8
L-2
  6
CONTINUOUS
 62
     4
100
AcDbBlockReference
  2
_OPEN
 10
52.3526281791169
 20
191.0694682515321
 30
0.0
 41
2.5
 42
2.5
 43
2.5
 50
90.0
  0
MTEXT
  5
2077
330
2019
100
AcDbEntity
  8
L-2
  6
CONTINUOUS
 62
     2
100
AcDbMText
 10
50.25262817911688
 20
176.5694682515321
 30
0.0
 40
3.2
 41
0.0
 71
     5
 72
     1
  1
\A1;29
  7
MSゴシック
 11
0.0000000000000001
 21
1.0
 31
0.0
1001
ACAD
1000
MTEXTBEGIN
1070
    73
1070
     1
1070
    44
1040
1.0
1070
    74
1070
     0
1000
MTEXTEND
1000
MTEXTBEGIN
1070
    73
1070
     1
1070
    44
1040
1.0
1070
    74
1070
     0
1000
MTEXTEND
1000
MTEXTBEGIN
1070
    73
1070
     1
1070
    44
1040
1.0
1070
    74
1070
     0
1000
MTEXTEND
  0
POINT
  5
2078
330
2019
100
AcDbEntity
  8
DEFPOINTS
  6
CONTINUOUS
 62
     0
100
AcDbPoint
 10
63.26796088902392
 20
162.0694682515321
 30
0.0
  0
POINT
  5
2079
330
2019
100
AcDbEntity
  8
DEFPOINTS
  6
CONTINUOUS
 62
     0
100
AcDbPoint
 10
63.26796088902392
 20
191.0694682515321
 30
0.0
  0
POINT
  5
207A
330
2019
100
AcDbEntity
  8
DEFPOINTS
  6
CONTINUOUS
 62
     0
100
AcDbPoint
 10
52.3526281791169
 20
191.0694682515321
 30
0.0
  0
ENDBLK
  5
2024
330
2019
100
AcDbEntity
  8
0
100
AcDbBlockEnd
  0
BLOCK
  5
2031
330
2026
100
AcDbEntity
  8
0
100
AcDbBlockBegin
  2
*D17
 70
     1
 10
0.0
 20
0.0
 30
0.0
  3
*D17
  1

  0
LINE
  5
2057
330
2026
100
AcDbEntity
  8
L-2
  6
CONTINUOUS
 62
     4
100
AcDbLine
 10
101.9569613378194
 20
67.96946825153205
 30
0.0
 11
101.9569613378194
 21
50.0978678187422
 31
0.0
  0
LINE
  5
2058
330
2026
100
AcDbEntity
  8
L-2
  6
CONTINUOUS
 62
     4
100
AcDbLine
 10
115.6569613378195
 20
68.86946825153202
 30
0.0
 11
115.6569613378195
 21
50.0978678187422
 31
0.0
  0
LINE
  5
2059
330
2026
100
AcDbEntity
  8
L-2
  6
CONTINUOUS
 62
     4
100
AcDbLine
 10
104.4569613378194
 20
51.0978678187422
 30
0.0
 11
113.1569613378196
 21
51.0978678187422
 31
0.0
  0
INSERT
  5
205A
330
2026
100
AcDbEntity
  8
L-2
  6
CONTINUOUS
 62
     4
100
AcDbBlockReference
  2
_OPEN
 10
101.9569613378194
 20
51.0978678187422
 30
0.0
 41
2.5
 42
2.5
 43
2.5
 50
180.0
  0
INSERT
  5
205B
330
2026
100
AcDbEntity
  8
L-2
  6
CONTINUOUS
 62
     4
100
AcDbBlockReference
  2
_OPEN
 10
115.6569613378195
 20
51.0978678187422
 30
0.0
 41
2.5
 42
2.5
 43
2.5
  0
MTEXT
  5
205C
330
2026
100
AcDbEntity
  8
L-2
  6
CONTINUOUS
 62
     2
100
AcDbMText
 10
108.8069613378195
 20
53.19786781874221
 30
0.0
 40
3.2
 41
0.0
 71
     5
 72
     1
  1
\A1;13.7
  7
MSゴシック
1001
ACAD
1000
MTEXTBEGIN
1070
    73
1070
     1
1070
    44
1040
1.0
1070
    74
1070
     0
1000
MTEXTEND
1000
MTEXTBEGIN
1070
    73
1070
     1
1070
    44
1040
1.0
1070
    74
1070
     0
1000
MTEXTEND
1000
MTEXTBEGIN
1070
    73
1070
     1
1070
    44
1040
1.0
1070
    74
1070
     0
1000
MTEXTEND
  0
POINT
  5
205D
330
2026
100
AcDbEntity
  8
DEFPOINTS
  6
CONTINUOUS
 62
     0
100
AcDbPoint
 10
101.9569613378194
 20
68.46946825153205
 30
0.0
  0
POINT
  5
205E
330
2026
100
AcDbEntity
  8
DEFPOINTS
  6
CONTINUOUS
 62
     0
100
AcDbPoint
 10
115.6569613378195
 20
69.36946825153203
 30
0.0
  0
POINT
  5
205F
330
2026
100
AcDbEntity
  8
DEFPOINTS
  6
CONTINUOUS
 62
     0
100
AcDbPoint
 10
115.6569613378195
 20
51.0978678187422
 30
0.0
  0
ENDBLK
  5
2032
330
2026
100
AcDbEntity
  8
0
100
AcDbBlockEnd
  0
BLOCK
  5
20E4
330
20DA
100
AcDbEntity
  8
0
100
AcDbBlockBegin
  2
*D18
 70
     1
 10
0.0
 20
0.0
 30
0.0
  3
*D18
  1

  0
LINE
  5
20DB
330
20DA
100
AcDbEntity
  8
L-2
  6
CONTINUOUS
 62
     4
100
AcDbLine
 10
121.6394393343828
 20
222.0465189899462
 30
0.0
 11
139.4321366152322
 21
222.0465189899462
 31
0.0
  0
LINE
  5
20DC
330
20DA
100
AcDbEntity
  8
L-2
  6
CONTINUOUS
 62
     4
100
AcDbLine
 10
121.8394393343826
 20
97.64651898994614
 30
0.0
 11
139.4321366152322
 21
97.64651898994614
 31
0.0
  0
LINE
  5
20DD
330
20DA
100
AcDbEntity
  8
L-2
  6
CONTINUOUS
 62
     4
100
AcDbLine
 10
138.4321366152322
 20
219.5465189899462
 30
0.0
 11
138.4321366152322
 21
100.1465189899461
 31
0.0
  0
INSERT
  5
20DE
330
20DA
100
AcDbEntity
  8
L-2
  6
CONTINUOUS
 62
     4
100
AcDbBlockReference
  2
_OPEN
 10
138.4321366152322
 20
222.0465189899462
 30
0.0
 41
2.5
 42
2.5
 43
2.5
 50
90.0
  0
INSERT
  5
20DF
330
20DA
100
AcDbEntity
  8
L-2
  6
CONTINUOUS
 62
     4
100
AcDbBlockReference
  2
_OPEN
 10
138.4321366152322
 20
97.64651898994614
 30
0.0
 41
2.5
 42
2.5
 43
2.5
 50
270.0
  0
MTEXT
  5
20E0
330
20DA
100
AcDbEntity
  8
L-2
  6
CONTINUOUS
 62
     2
100
AcDbMText
 10
136.3321366152322
 20
159.8465189899462
 30
0.0
 40
3.2
 41
0.0
 71
     5
 72
     1
  1
\A1;124.4
  7
BGS
 11
0.0000000000000001
 21
1.0
 31
0.0
1001
ACAD
1000
MTEXTBEGIN
1070
    73
1070
     1
1070
    44
1040
1.0
1070
    74
1070
     0
1000
MTEXTEND
  0
POINT
  5
20E1
330
20DA
100
AcDbEntity
  8
DEFPOINTS
  6
CONTINUOUS
 62
     0
100
AcDbPoint
 10
121.1394393343828
 20
222.0465189899462
 30
0.0
  0
POINT
  5
20E2
330
20DA
100
AcDbEntity
  8
DEFPOINTS
  6
CONTINUOUS
 62
     0
100
AcDbPoint
 10
121.3394393343826
 20
97.64651898994614
 30
0.0
  0
POINT
  5
20E3
330
20DA
100
AcDbEntity
  8
DEFPOINTS
  6
CONTINUOUS
 62
     0
100
AcDbPoint
 10
138.4321366152322
 20
97.64651898994614
 30
0.0
  0
ENDBLK
  5
20E5
330
20DA
100
AcDbEntity
  8
0
100
AcDbBlockEnd
  0
BLOCK
  5
20F0
330
20E6
100
AcDbEntity
  8
0
100
AcDbBlockBegin
  2
*D19
 70
     1
 10
0.0
 20
0.0
 30
0.0
  3
*D19
  1

  0
LINE
  5
20E7
330
20E6
100
AcDbEntity
  8
L-2
  6
CONTINUOUS
 62
     4
100
AcDbLine
 10
68.45043888558709
 20
245.5768032302859
 30
0.0
 11
68.45043888558709
 21
253.8019005189859
 31
0.0
  0
LINE
  5
20E8
330
20E6
100
AcDbEntity
  8
L-2
  6
CONTINUOUS
 62
     4
100
AcDbLine
 10
82.45043888558715
 20
245.5768032302859
 30
0.0
 11
82.45043888558715
 21
253.8019005189859
 31
0.0
  0
LINE
  5
20E9
330
20E6
100
AcDbEntity
  8
L-2
  6
CONTINUOUS
 62
     4
100
AcDbLine
 10
70.95043888558709
 20
252.8019005189859
 30
0.0
 11
79.95043888558715
 21
252.8019005189859
 31
0.0
  0
INSERT
  5
20EA
330
20E6
100
AcDbEntity
  8
L-2
  6
CONTINUOUS
 62
     4
100
AcDbBlockReference
  2
_OPEN
 10
68.45043888558709
 20
252.8019005189859
 30
0.0
 41
2.5
 42
2.5
 43
2.5
 50
180.0
  0
INSERT
  5
20EB
330
20E6
100
AcDbEntity
  8
L-2
  6
CONTINUOUS
 62
     4
100
AcDbBlockReference
  2
_OPEN
 10
82.45043888558715
 20
252.8019005189859
 30
0.0
 41
2.5
 42
2.5
 43
2.5
  0
MTEXT
  5
20EC
330
20E6
100
AcDbEntity
  8
L-2
  6
CONTINUOUS
 62
     2
100
AcDbMText
 10
75.45043888558712
 20
254.9019005189859
 30
0.0
 40
3.2
 41
0.0
 71
     5
 72
     1
  1
\A1;14
  7
BGS
1001
ACAD
1000
MTEXTBEGIN
1070
    73
1070
     1
1070
    44
1040
1.0
1070
    74
1070
     0
1000
MTEXTEND
  0
POINT
  5
20ED
330
20E6
100
AcDbEntity
  8
DEFPOINTS
  6
CONTINUOUS
 62
     0
100
AcDbPoint
 10
68.45043888558709
 20
245.0768032302859
 30
0.0
  0
POINT
  5
20EE
330
20E6
100
AcDbEntity
  8
DEFPOINTS
  6
CONTINUOUS
 62
     0
100
AcDbPoint
 10
82.45043888558715
 20
245.0768032302859
 30
0.0
  0
POINT
  5
20EF
330
20E6
100
AcDbEntity
  8
DEFPOINTS
  6
CONTINUOUS
 62
     0
100
AcDbPoint
 10
82.45043888558715
 20
252.8019005189859
 30
0.0
  0
ENDBLK
  5
20F1
330
20E6
100
AcDbEntity
  8
0
100
AcDbBlockEnd
  0
BLOCK
  5
20FC
330
20F2
100
AcDbEntity
  8
0
100
AcDbBlockBegin
  2
*D20
 70
     1
 10
0.0
 20
0.0
 30
0.0
  3
*D20
  1

  0
LINE
  5
20F3
330
20F2
100
AcDbEntity
  8
L-2
  6
CONTINUOUS
 62
     4
100
AcDbLine
 10
122.8394393343828
 20
222.3313535141766
 30
0.0
 11
122.8394393343828
 21
230.8763066823865
 31
0.0
  0
LINE
  5
20F4
330
20F2
100
AcDbEntity
  8
L-2
  6
CONTINUOUS
 62
     4
100
AcDbLine
 10
109.1394393343827
 20
221.9465189899462
 30
0.0
 11
109.1394393343827
 21
230.8763066823865
 31
0.0
  0
LINE
  5
20F5
330
20F2
100
AcDbEntity
  8
L-2
  6
CONTINUOUS
 62
     4
100
AcDbLine
 10
120.3394393343828
 20
229.8763066823866
 30
0.0
 11
111.6394393343826
 21
229.8763066823866
 31
0.0
  0
INSERT
  5
20F6
330
20F2
100
AcDbEntity
  8
L-2
  6
CONTINUOUS
 62
     4
100
AcDbBlockReference
  2
_OPEN
 10
122.8394393343828
 20
229.8763066823866
 30
0.0
 41
2.5
 42
2.5
 43
2.5
  0
INSERT
  5
20F7
330
20F2
100
AcDbEntity
  8
L-2
  6
CONTINUOUS
 62
     4
100
AcDbBlockReference
  2
_OPEN
 10
109.1394393343827
 20
229.8763066823866
 30
0.0
 41
2.5
 42
2.5
 43
2.5
 50
180.0
  0
MTEXT
  5
20F8
330
20F2
100
AcDbEntity
  8
L-2
  6
CONTINUOUS
 62
     2
100
AcDbMText
 10
115.9894393343827
 20
231.9763066823866
 30
0.0
 40
3.2
 41
0.0
 71
     5
 72
     1
  1
\A1;13.7
  7
BGS
1001
ACAD
1000
MTEXTBEGIN
1070
    73
1070
     1
1070
    44
1040
1.0
1070
    74
1070
     0
1000
MTEXTEND
  0
POINT
  5
20F9
330
20F2
100
AcDbEntity
  8
DEFPOINTS
  6
CONTINUOUS
 62
     0
100
AcDbPoint
 10
122.8394393343828
 20
221.8313535141766
 30
0.0
  0
POINT
  5
20FA
330
20F2
100
AcDbEntity
  8
DEFPOINTS
  6
CONTINUOUS
 62
     0
100
AcDbPoint
 10
109.1394393343827
 20
221.4465189899462
 30
0.0
  0
POINT
  5
20FB
330
20F2
100
AcDbEntity
  8
DEFPOINTS
  6
CONTINUOUS
 62
     0
100
AcDbPoint
 10
109.1394393343827
 20
229.8763066823866
 30
0.0
  0
ENDBLK
  5
20FD
330
20F2
100
AcDbEntity
  8
0
100
AcDbBlockEnd
  0
BLOCK
  5
210A
330
20FE
100
AcDbEntity
  8
0
100
AcDbBlockBegin
  2
*D21
 70
     1
 10
0.0
 20
0.0
 30
0.0
  3
*D21
  1

  0
LINE
  5
20FF
330
20FE
100
AcDbEntity
  8
L-2
  6
CONTINUOUS
 62
     4
100
AcDbLine
 10
73.95043888558712
 20
232.8768032302859
 30
0.0
 11
73.95043888558712
 21
228.4453194047531
 31
0.0
  0
LINE
  5
2100
330
20FE
100
AcDbEntity
  8
L-2
  6
CONTINUOUS
 62
     4
100
AcDbLine
 10
76.95043888558714
 20
232.8768032302859
 30
0.0
 11
76.95043888558714
 21
228.4453194047531
 31
0.0
  0
LINE
  5
2101
330
20FE
100
AcDbEntity
  8
L-2
  6
CONTINUOUS
 62
     4
100
AcDbLine
 10
71.45043888558712
 20
229.4453194047531
 30
0.0
 11
68.95043888558712
 21
229.4453194047531
 31
0.0
  0
LINE
  5
2102
330
20FE
100
AcDbEntity
  8
L-2
  6
CONTINUOUS
 62
     4
100
AcDbLine
 10
79.45043888558714
 20
229.4453194047531
 30
0.0
 11
85.08377221892049
 21
229.4453194047531
 31
0.0
  0
LINE
  5
2103
330
20FE
100
AcDbEntity
  8
L-2
  6
CONTINUOUS
 62
     4
100
AcDbLine
 10
73.95043888558712
 20
229.4453194047531
 30
0.0
 11
76.95043888558714
 21
229.4453194047531
 31
0.0
  0
INSERT
  5
2104
330
20FE
100
AcDbEntity
  8
L-2
  6
CONTINUOUS
 62
     4
100
AcDbBlockReference
  2
_OPEN
 10
73.95043888558712
 20
229.4453194047531
 30
0.0
 41
2.5
 42
2.5
 43
2.5
  0
INSERT
  5
2105
330
20FE
100
AcDbEntity
  8
L-2
  6
CONTINUOUS
 62
     4
100
AcDbBlockReference
  2
_OPEN
 10
76.95043888558714
 20
229.4453194047531
 30
0.0
 41
2.5
 42
2.5
 43
2.5
 50
180.0
  0
MTEXT
  5
2106
330
20FE
100
AcDbEntity
  8
L-2
  6
CONTINUOUS
 62
     2
100
AcDbMText
 10
83.5171055522538
 20
231.5453194047531
 30
0.0
 40
3.2
 41
0.0
 71
     5
 72
     1
  1
\A1;3
  7
BGS
1001
ACAD
1000
MTEXTBEGIN
1070
    73
1070
     1
1070
    44
1040
1.0
1070
    74
1070
     0
1000
MTEXTEND
  0
POINT
  5
2107
330
20FE
100
AcDbEntity
  8
DEFPOINTS
  6
CONTINUOUS
 62
     0
100
AcDbPoint
 10
73.95043888558712
 20
233.3768032302859
 30
0.0
  0
POINT
  5
2108
330
20FE
100
AcDbEntity
  8
DEFPOINTS
  6
CONTINUOUS
 62
     0
100
AcDbPoint
 10
76.95043888558714
 20
233.3768032302859
 30
0.0
  0
POINT
  5
2109
330
20FE
100
AcDbEntity
  8
DEFPOINTS
  6
CONTINUOUS
 62
     0
100
AcDbPoint
 10
76.95043888558714
 20
229.4453194047531
 30
0.0
  0
ENDBLK
  5
210B
330
20FE
100
AcDbEntity
  8
0
100
AcDbBlockEnd
  0
BLOCK
  5
2216
330
220A
100
AcDbEntity
  8
0
100
AcDbBlockBegin
  2
*D23
 70
     1
 10
0.0
 20
0.0
 30
0.0
  3
*D23
  1

  0
LINE
  5
223C
330
220A
100
AcDbEntity
  8
L-2
  6
CONTINUOUS
 62
     4
100
AcDbLine
 10
239.7882502740737
 20
195.1196490021805
 30
0.0
 11
239.7882502740737
 21
190.6881651766477
 31
0.0
  0
LINE
  5
223D
330
220A
100
AcDbEntity
  8
L-2
  6
CONTINUOUS
 62
     4
100
AcDbLine
 10
242.7882502740738
 20
195.1196490021805
 30
0.0
 11
242.7882502740738
 21
190.6881651766477
 31
0.0
  0
LINE
  5
223E
330
220A
100
AcDbEntity
  8
L-2
  6
CONTINUOUS
 62
     4
100
AcDbLine
 10
237.2882502740738
 20
191.6881651766477
 30
0.0
 11
234.7882502740737
 21
191.6881651766477
 31
0.0
  0
LINE
  5
223F
330
220A
100
AcDbEntity
  8
L-2
  6
CONTINUOUS
 62
     4
100
AcDbLine
 10
245.2882502740738
 20
191.6881651766477
 30
0.0
 11
250.9215836074071
 21
191.6881651766477
 31
0.0
  0
LINE
  5
2240
330
220A
100
AcDbEntity
  8
L-2
  6
CONTINUOUS
 62
     4
100
AcDbLine
 10
239.7882502740737
 20
191.6881651766477
 30
0.0
 11
242.7882502740738
 21
191.6881651766477
 31
0.0
  0
INSERT
  5
2241
330
220A
100
AcDbEntity
  8
L-2
  6
CONTINUOUS
 62
     4
100
AcDbBlockReference
  2
_OPEN
 10
239.7882502740737
 20
191.6881651766477
 30
0.0
 41
2.5
 42
2.5
 43
2.5
  0
INSERT
  5
2242
330
220A
100
AcDbEntity
  8
L-2
  6
CONTINUOUS
 62
     4
100
AcDbBlockReference
  2
_OPEN
 10
242.7882502740738
 20
191.6881651766477
 30
0.0
 41
2.5
 42
2.5
 43
2.5
 50
180.0
  0
MTEXT
  5
2243
330
220A
100
AcDbEntity
  8
L-2
  6
CONTINUOUS
 62
     2
100
AcDbMText
 10
249.3549169407404
 20
193.7881651766477
 30
0.0
 40
3.2
 41
0.0
 71
     5
 72
     1
  1
\A1;3
  7
BGS
1001
ACAD
1000
MTEXTBEGIN
1070
    73
1070
     1
1070
    44
1040
1.0
1070
    74
1070
     0
1000
MTEXTEND
  0
POINT
  5
2244
330
220A
100
AcDbEntity
  8
DEFPOINTS
  6
CONTINUOUS
 62
     0
100
AcDbPoint
 10
239.7882502740737
 20
195.6196490021805
 30
0.0
  0
POINT
  5
2245
330
220A
100
AcDbEntity
  8
DEFPOINTS
  6
CONTINUOUS
 62
     0
100
AcDbPoint
 10
242.7882502740738
 20
195.6196490021805
 30
0.0
  0
POINT
  5
2246
330
220A
100
AcDbEntity
  8
DEFPOINTS
  6
CONTINUOUS
 62
     0
100
AcDbPoint
 10
242.7882502740738
 20
191.6881651766477
 30
0.0
  0
ENDBLK
  5
2217
330
220A
100
AcDbEntity
  8
0
100
AcDbBlockEnd
  0
BLOCK
  5
2222
330
2218
100
AcDbEntity
  8
0
100
AcDbBlockBegin
  2
*D24
 70
     1
 10
0.0
 20
0.0
 30
0.0
  3
*D24
  1

  0
LINE
  5
2247
330
2218
100
AcDbEntity
  8
L-2
  6
CONTINUOUS
 62
     4
100
AcDbLine
 10
234.2882502740737
 20
207.8196490021805
 30
0.0
 11
234.2882502740737
 21
216.0447462908805
 31
0.0
  0
LINE
  5
2248
330
2218
100
AcDbEntity
  8
L-2
  6
CONTINUOUS
 62
     4
100
AcDbLine
 10
248.2882502740738
 20
207.8196490021805
 30
0.0
 11
248.2882502740738
 21
216.0447462908805
 31
0.0
  0
LINE
  5
2249
330
2218
100
AcDbEntity
  8
L-2
  6
CONTINUOUS
 62
     4
100
AcDbLine
 10
236.7882502740737
 20
215.0447462908805
 30
0.0
 11
245.7882502740738
 21
215.0447462908805
 31
0.0
  0
INSERT
  5
224A
330
2218
100
AcDbEntity
  8
L-2
  6
CONTINUOUS
 62
     4
100
AcDbBlockReference
  2
_OPEN
 10
234.2882502740737
 20
215.0447462908805
 30
0.0
 41
2.5
 42
2.5
 43
2.5
 50
180.0
  0
INSERT
  5
224B
330
2218
100
AcDbEntity
  8
L-2
  6
CONTINUOUS
 62
     4
100
AcDbBlockReference
  2
_OPEN
 10
248.2882502740738
 20
215.0447462908805
 30
0.0
 41
2.5
 42
2.5
 43
2.5
  0
MTEXT
  5
224C
330
2218
100
AcDbEntity
  8
L-2
  6
CONTINUOUS
 62
     2
100
AcDbMText
 10
241.2882502740738
 20
217.1447462908805
 30
0.0
 40
3.2
 41
0.0
 71
     5
 72
     1
  1
\A1;14
  7
BGS
1001
ACAD
1000
MTEXTBEGIN
1070
    73
1070
     1
1070
    44
1040
1.0
1070
    74
1070
     0
1000
MTEXTEND
  0
POINT
  5
224D
330
2218
100
AcDbEntity
  8
DEFPOINTS
  6
CONTINUOUS
 62
     0
100
AcDbPoint
 10
234.2882502740737
 20
207.3196490021805
 30
0.0
  0
POINT
  5
224E
330
2218
100
AcDbEntity
  8
DEFPOINTS
  6
CONTINUOUS
 62
     0
100
AcDbPoint
 10
248.2882502740738
 20
207.3196490021805
 30
0.0
  0
POINT
  5
224F
330
2218
100
AcDbEntity
  8
DEFPOINTS
  6
CONTINUOUS
 62
     0
100
AcDbPoint
 10
248.2882502740738
 20
215.0447462908805
 30
0.0
  0
ENDBLK
  5
2223
330
2218
100
AcDbEntity
  8
0
100
AcDbBlockEnd
  0
BLOCK
  5
222E
330
2224
100
AcDbEntity
  8
0
100
AcDbBlockBegin
  2
*D25
 70
     1
 10
0.0
 20
0.0
 30
0.0
  3
*D25
  1

  0
LINE
  5
2250
330
2224
100
AcDbEntity
  8
L-2
  6
CONTINUOUS
 62
     4
100
AcDbLine
 10
288.6772507228694
 20
184.5741992860712
 30
0.0
 11
288.6772507228694
 21
193.1191524542812
 31
0.0
  0
LINE
  5
2251
330
2224
100
AcDbEntity
  8
L-2
  6
CONTINUOUS
 62
     4
100
AcDbLine
 10
274.9772507228693
 20
184.1893647618408
 30
0.0
 11
274.9772507228693
 21
193.1191524542812
 31
0.0
  0
LINE
  5
2252
330
2224
100
AcDbEntity
  8
L-2
  6
CONTINUOUS
 62
     4
100
AcDbLine
 10
286.1772507228694
 20
192.1191524542812
 30
0.0
 11
277.4772507228693
 21
192.1191524542812
 31
0.0
  0
INSERT
  5
2253
330
2224
100
AcDbEntity
  8
L-2
  6
CONTINUOUS
 62
     4
100
AcDbBlockReference
  2
_OPEN
 10
288.6772507228694
 20
192.1191524542812
 30
0.0
 41
2.5
 42
2.5
 43
2.5
  0
INSERT
  5
2254
330
2224
100
AcDbEntity
  8
L-2
  6
CONTINUOUS
 62
     4
100
AcDbBlockReference
  2
_OPEN
 10
274.9772507228693
 20
192.1191524542812
 30
0.0
 41
2.5
 42
2.5
 43
2.5
 50
180.0
  0
MTEXT
  5
2255
330
2224
100
AcDbEntity
  8
L-2
  6
CONTINUOUS
 62
     2
100
AcDbMText
 10
281.8272507228694
 20
194.2191524542812
 30
0.0
 40
3.2
 41
0.0
 71
     5
 72
     1
  1
\A1;13.7
  7
BGS
1001
ACAD
1000
MTEXTBEGIN
1070
    73
1070
     1
1070
    44
1040
1.0
1070
    74
1070
     0
1000
MTEXTEND
  0
POINT
  5
2256
330
2224
100
AcDbEntity
  8
DEFPOINTS
  6
CONTINUOUS
 62
     0
100
AcDbPoint
 10
288.6772507228694
 20
184.0741992860712
 30
0.0
  0
POINT
  5
2257
330
2224
100
AcDbEntity
  8
DEFPOINTS
  6
CONTINUOUS
 62
     0
100
AcDbPoint
 10
274.9772507228693
 20
183.6893647618408
 30
0.0
  0
POINT
  5
2258
330
2224
100
AcDbEntity
  8
DEFPOINTS
  6
CONTINUOUS
 62
     0
100
AcDbPoint
 10
274.9772507228693
 20
192.1191524542812
 30
0.0
  0
ENDBLK
  5
222F
330
2224
100
AcDbEntity
  8
0
100
AcDbBlockEnd
  0
BLOCK
  5
223A
330
2230
100
AcDbEntity
  8
0
100
AcDbBlockBegin
  2
*D26
 70
     1
 10
0.0
 20
0.0
 30
0.0
  3
*D26
  1

  0
LINE
  5
2259
330
2230
100
AcDbEntity
  8
L-2
  6
CONTINUOUS
 62
     4
100
AcDbLine
 10
287.4772507228695
 20
184.2893647618408
 30
0.0
 11
305.269948003719
 21
184.2893647618408
 31
0.0
  0
LINE
  5
225A
330
2230
100
AcDbEntity
  8
L-2
  6
CONTINUOUS
 62
     4
100
AcDbLine
 10
287.6772507228693
 20
59.88936476184076
 30
0.0
 11
305.2699480037189
 21
59.88936476184075
 31
0.0
  0
LINE
  5
225B
330
2230
100
AcDbEntity
  8
L-2
  6
CONTINUOUS
 62
     4
100
AcDbLine
 10
304.2699480037189
 20
181.7893647618408
 30
0.0
 11
304.2699480037189
 21
62.38936476184075
 31
0.0
  0
INSERT
  5
225C
330
2230
100
AcDbEntity
  8
L-2
  6
CONTINUOUS
 62
     4
100
AcDbBlockReference
  2
_OPEN
 10
304.2699480037189
 20
184.2893647618408
 30
0.0
 41
2.5
 42
2.5
 43
2.5
 50
90.0
  0
INSERT
  5
225D
330
2230
100
AcDbEntity
  8
L-2
  6
CONTINUOUS
 62
     4
100
AcDbBlockReference
  2
_OPEN
 10
304.2699480037189
 20
59.88936476184075
 30
0.0
 41
2.5
 42
2.5
 43
2.5
 50
270.0
  0
MTEXT
  5
225E
330
2230
100
AcDbEntity
  8
L-2
  6
CONTINUOUS
 62
     2
100
AcDbMText
 10
302.1699480037189
 20
122.0893647618408
 30
0.0
 40
3.2
 41
0.0
 71
     5
 72
     1
  1
\A1;124.4
  7
BGS
 11
0.0000000000000001
 21
1.0
 31
0.0
1001
ACAD
1000
MTEXTBEGIN
1070
    73
1070
     1
1070
    44
1040
1.0
1070
    74
1070
     0
1000
MTEXTEND
  0
POINT
  5
225F
330
2230
100
AcDbEntity
  8
DEFPOINTS
  6
CONTINUOUS
 62
     0
100
AcDbPoint
 10
286.9772507228695
 20
184.2893647618408
 30
0.0
  0
POINT
  5
2260
330
2230
100
AcDbEntity
  8
DEFPOINTS
  6
CONTINUOUS
 62
     0
100
AcDbPoint
 10
287.1772507228693
 20
59.88936476184076
 30
0.0
  0
POINT
  5
2261
330
2230
100
AcDbEntity
  8
DEFPOINTS
  6
CONTINUOUS
 62
     0
100
AcDbPoint
 10
304.2699480037189
 20
59.88936476184075
 30
0.0
  0
ENDBLK
  5
223B
330
2230
100
AcDbEntity
  8
0
100
AcDbBlockEnd
  0
BLOCK
  5
2271
330
2265
100
AcDbEntity
  8
0
100
AcDbBlockBegin
  2
*D27
 70
     1
 10
0.0
 20
0.0
 30
0.0
  3
*D27
  1

  0
LINE
  5
2266
330
2265
100
AcDbEntity
  8
L-2
  6
CONTINUOUS
 62
     4
100
AcDbLine
 10
239.7882502740737
 20
195.1196490021805
 30
0.0
 11
239.7882502740737
 21
190.6881651766477
 31
0.0
  0
LINE
  5
2267
330
2265
100
AcDbEntity
  8
L-2
  6
CONTINUOUS
 62
     4
100
AcDbLine
 10
242.7882502740738
 20
195.1196490021805
 30
0.0
 11
242.7882502740738
 21
190.6881651766477
 31
0.0
  0
LINE
  5
2268
330
2265
100
AcDbEntity
  8
L-2
  6
CONTINUOUS
 62
     4
100
AcDbLine
 10
237.2882502740738
 20
191.6881651766477
 30
0.0
 11
234.7882502740737
 21
191.6881651766477
 31
0.0
  0
LINE
  5
2269
330
2265
100
AcDbEntity
  8
L-2
  6
CONTINUOUS
 62
     4
100
AcDbLine
 10
245.2882502740738
 20
191.6881651766477
 30
0.0
 11
250.9215836074071
 21
191.6881651766477
 31
0.0
  0
LINE
  5
226A
330
2265
100
AcDbEntity
  8
L-2
  6
CONTINUOUS
 62
     4
100
AcDbLine
 10
239.7882502740737
 20
191.6881651766477
 30
0.0
 11
242.7882502740738
 21
191.6881651766477
 31
0.0
  0
INSERT
  5
226B
330
2265
100
AcDbEntity
  8
L-2
  6
CONTINUOUS
 62
     4
100
AcDbBlockReference
  2
_OPEN
 10
239.7882502740737
 20
191.6881651766477
 30
0.0
 41
2.5
 42
2.5
 43
2.5
  0
INSERT
  5
226C
330
2265
100
AcDbEntity
  8
L-2
  6
CONTINUOUS
 62
     4
100
AcDbBlockReference
  2
_OPEN
 10
242.7882502740738
 20
191.6881651766477
 30
0.0
 41
2.5
 42
2.5
 43
2.5
 50
180.0
  0
MTEXT
  5
226D
330
2265
100
AcDbEntity
  8
L-2
  6
CONTINUOUS
 62
     2
100
AcDbMText
 10
249.3549169407404
 20
193.7881651766477
 30
0.0
 40
3.2
 41
0.0
 71
     5
 72
     1
  1
\A1;3
  7
BGS
1001
ACAD
1000
MTEXTBEGIN
1070
    73
1070
     1
1070
    44
1040
1.0
1070
    74
1070
     0
1000
MTEXTEND
  0
POINT
  5
226E
330
2265
100
AcDbEntity
  8
DEFPOINTS
  6
CONTINUOUS
 62
     0
100
AcDbPoint
 10
239.7882502740737
 20
195.6196490021805
 30
0.0
  0
POINT
  5
226F
330
2265
100
AcDbEntity
  8
DEFPOINTS
  6
CONTINUOUS
 62
     0
100
AcDbPoint
 10
242.7882502740738
 20
195.6196490021805
 30
0.0
  0
POINT
  5
2270
330
2265
100
AcDbEntity
  8
DEFPOINTS
  6
CONTINUOUS
 62
     0
100
AcDbPoint
 10
242.7882502740738
 20
191.6881651766477
 30
0.0
  0
ENDBLK
  5
2272
330
2265
100
AcDbEntity
  8
0
100
AcDbBlockEnd
  0
BLOCK
  5
227D
330
2273
100
AcDbEntity
  8
0
100
AcDbBlockBegin
  2
*D28
 70
     1
 10
0.0
 20
0.0
 30
0.0
  3
*D28
  1

  0
LINE
  5
2274
330
2273
100
AcDbEntity
  8
L-2
  6
CONTINUOUS
 62
     4
100
AcDbLine
 10
234.2882502740737
 20
207.8196490021805
 30
0.0
 11
234.2882502740737
 21
216.0447462908805
 31
0.0
  0
LINE
  5
2275
330
2273
100
AcDbEntity
  8
L-2
  6
CONTINUOUS
 62
     4
100
AcDbLine
 10
248.2882502740738
 20
207.8196490021805
 30
0.0
 11
248.2882502740738
 21
216.0447462908805
 31
0.0
  0
LINE
  5
2276
330
2273
100
AcDbEntity
  8
L-2
  6
CONTINUOUS
 62
     4
100
AcDbLine
 10
236.7882502740737
 20
215.0447462908805
 30
0.0
 11
245.7882502740738
 21
215.0447462908805
 31
0.0
  0
INSERT
  5
2277
330
2273
100
AcDbEntity
  8
L-2
  6
CONTINUOUS
 62
     4
100
AcDbBlockReference
  2
_OPEN
 10
234.2882502740737
 20
215.0447462908805
 30
0.0
 41
2.5
 42
2.5
 43
2.5
 50
180.0
  0
INSERT
  5
2278
330
2273
100
AcDbEntity
  8
L-2
  6
CONTINUOUS
 62
     4
100
AcDbBlockReference
  2
_OPEN
 10
248.2882502740738
 20
215.0447462908805
 30
0.0
 41
2.5
 42
2.5
 43
2.5
  0
MTEXT
  5
2279
330
2273
100
AcDbEntity
  8
L-2
  6
CONTINUOUS
 62
     2
100
AcDbMText
 10
241.2882502740738
 20
217.1447462908805
 30
0.0
 40
3.2
 41
0.0
 71
     5
 72
     1
  1
\A1;14
  7
BGS
1001
ACAD
1000
MTEXTBEGIN
1070
    73
1070
     1
1070
    44
1040
1.0
1070
    74
1070
     0
1000
MTEXTEND
  0
POINT
  5
227A
330
2273
100
AcDbEntity
  8
DEFPOINTS
  6
CONTINUOUS
 62
     0
100
AcDbPoint
 10
234.2882502740737
 20
207.3196490021805
 30
0.0
  0
POINT
  5
227B
330
2273
100
AcDbEntity
  8
DEFPOINTS
  6
CONTINUOUS
 62
     0
100
AcDbPoint
 10
248.2882502740738
 20
207.3196490021805
 30
0.0
  0
POINT
  5
227C
330
2273
100
AcDbEntity
  8
DEFPOINTS
  6
CONTINUOUS
 62
     0
100
AcDbPoint
 10
248.2882502740738
 20
215.0447462908805
 30
0.0
  0
ENDBLK
  5
227E
330
2273
100
AcDbEntity
  8
0
100
AcDbBlockEnd
  0
BLOCK
  5
2289
330
227F
100
AcDbEntity
  8
0
100
AcDbBlockBegin
  2
*D29
 70
     1
 10
0.0
 20
0.0
 30
0.0
  3
*D29
  1

  0
LINE
  5
2280
330
227F
100
AcDbEntity
  8
L-2
  6
CONTINUOUS
 62
     4
100
AcDbLine
 10
288.6772507228694
 20
184.5741992860712
 30
0.0
 11
288.6772507228694
 21
193.1191524542812
 31
0.0
  0
LINE
  5
2281
330
227F
100
AcDbEntity
  8
L-2
  6
CONTINUOUS
 62
     4
100
AcDbLine
 10
274.9772507228693
 20
184.1893647618408
 30
0.0
 11
274.9772507228693
 21
193.1191524542812
 31
0.0
  0
LINE
  5
2282
330
227F
100
AcDbEntity
  8
L-2
  6
CONTINUOUS
 62
     4
100
AcDbLine
 10
286.1772507228694
 20
192.1191524542812
 30
0.0
 11
277.4772507228693
 21
192.1191524542812
 31
0.0
  0
INSERT
  5
2283
330
227F
100
AcDbEntity
  8
L-2
  6
CONTINUOUS
 62
     4
100
AcDbBlockReference
  2
_OPEN
 10
288.6772507228694
 20
192.1191524542812
 30
0.0
 41
2.5
 42
2.5
 43
2.5
  0
INSERT
  5
2284
330
227F
100
AcDbEntity
  8
L-2
  6
CONTINUOUS
 62
     4
100
AcDbBlockReference
  2
_OPEN
 10
274.9772507228693
 20
192.1191524542812
 30
0.0
 41
2.5
 42
2.5
 43
2.5
 50
180.0
  0
MTEXT
  5
2285
330
227F
100
AcDbEntity
  8
L-2
  6
CONTINUOUS
 62
     2
100
AcDbMText
 10
281.8272507228694
 20
194.2191524542812
 30
0.0
 40
3.2
 41
0.0
 71
     5
 72
     1
  1
\A1;13.7
  7
BGS
1001
ACAD
1000
MTEXTBEGIN
1070
    73
1070
     1
1070
    44
1040
1.0
1070
    74
1070
     0
1000
MTEXTEND
  0
POINT
  5
2286
330
227F
100
AcDbEntity
  8
DEFPOINTS
  6
CONTINUOUS
 62
     0
100
AcDbPoint
 10
288.6772507228694
 20
184.0741992860712
 30
0.0
  0
POINT
  5
2287
330
227F
100
AcDbEntity
  8
DEFPOINTS
  6
CONTINUOUS
 62
     0
100
AcDbPoint
 10
274.9772507228693
 20
183.6893647618408
 30
0.0
  0
POINT
  5
2288
330
227F
100
AcDbEntity
  8
DEFPOINTS
  6
CONTINUOUS
 62
     0
100
AcDbPoint
 10
274.9772507228693
 20
192.1191524542812
 30
0.0
  0
ENDBLK
  5
228A
330
227F
100
AcDbEntity
  8
0
100
AcDbBlockEnd
  0
BLOCK
  5
2295
330
228B
100
AcDbEntity
  8
0
100
AcDbBlockBegin
  2
*D30
 70
     1
 10
0.0
 20
0.0
 30
0.0
  3
*D30
  1

  0
LINE
  5
228C
330
228B
100
AcDbEntity
  8
L-2
  6
CONTINUOUS
 62
     4
100
AcDbLine
 10
287.4772507228695
 20
184.2893647618408
 30
0.0
 11
305.269948003719
 21
184.2893647618408
 31
0.0
  0
LINE
  5
228D
330
228B
100
AcDbEntity
  8
L-2
  6
CONTINUOUS
 62
     4
100
AcDbLine
 10
287.6772507228693
 20
59.88936476184076
 30
0.0
 11
305.2699480037189
 21
59.88936476184075
 31
0.0
  0
LINE
  5
228E
330
228B
100
AcDbEntity
  8
L-2
  6
CONTINUOUS
 62
     4
100
AcDbLine
 10
304.2699480037189
 20
181.7893647618408
 30
0.0
 11
304.2699480037189
 21
62.38936476184075
 31
0.0
  0
INSERT
  5
228F
330
228B
100
AcDbEntity
  8
L-2
  6
CONTINUOUS
 62
     4
100
AcDbBlockReference
  2
_OPEN
 10
304.2699480037189
 20
184.2893647618408
 30
0.0
 41
2.5
 42
2.5
 43
2.5
 50
90.0
  0
INSERT
  5
2290
330
228B
100
AcDbEntity
  8
L-2
  6
CONTINUOUS
 62
     4
100
AcDbBlockReference
  2
_OPEN
 10
304.2699480037189
 20
59.88936476184075
 30
0.0
 41
2.5
 42
2.5
 43
2.5
 50
270.0
  0
MTEXT
  5
2291
330
228B
100
AcDbEntity
  8
L-2
  6
CONTINUOUS
 62
     2
100
AcDbMText
 10
302.1699480037189
 20
122.0893647618408
 30
0.0
 40
3.2
 41
0.0
 71
     5
 72
     1
  1
\A1;124.4
  7
BGS
 11
0.0000000000000001
 21
1.0
 31
0.0
1001
ACAD
1000
MTEXTBEGIN
1070
    73
1070
     1
1070
    44
1040
1.0
1070
    74
1070
     0
1000
MTEXTEND
  0
POINT
  5
2292
330
228B
100
AcDbEntity
  8
DEFPOINTS
  6
CONTINUOUS
 62
     0
100
AcDbPoint
 10
286.9772507228695
 20
184.2893647618408
 30
0.0
  0
POINT
  5
2293
330
228B
100
AcDbEntity
  8
DEFPOINTS
  6
CONTINUOUS
 62
     0
100
AcDbPoint
 10
287.1772507228693
 20
59.88936476184076
 30
0.0
  0
POINT
  5
2294
330
228B
100
AcDbEntity
  8
DEFPOINTS
  6
CONTINUOUS
 62
     0
100
AcDbPoint
 10
304.2699480037189
 20
59.88936476184075
 30
0.0
  0
ENDBLK
  5
2296
330
228B
100
AcDbEntity
  8
0
100
AcDbBlockEnd
  0
BLOCK
  5
2313
330
2297
100
AcDbEntity
  8
0
100
AcDbBlockBegin
  2
A$C0E811368
 70
     0
 10
0.0
 20
0.0
 30
0.0
  3
A$C0E811368
  1

  0
LINE
  5
2298
330
2297
100
AcDbEntity
  8
L-1
  6
CONTINUOUS
 62
     7
100
AcDbLine
 10
54.51182218337669
 20
125.2999999150153
 30
0.0
 11
54.51182218337669
 21
1.899999915015229
 31
0.0
  0
LINE
  5
2299
330
2297
100
AcDbEntity
  8
L-1
  6
CONTINUOUS
 62
     7
100
AcDbLine
 10
40.51182218337669
 20
125.2999999150153
 30
0.0
 11
40.51182218337664
 21
1.899999915015342
 31
0.0
  0
LINE
  5
229A
330
2297
100
AcDbEntity
  8
L-1
  6
CONTINUOUS
 62
     7
100
AcDbLine
 10
94.90082263217244
 20
2.899999915015229
 30
0.0
 11
94.90082263217249
 21
124.2999999150153
 31
0.0
  0
LINE
  5
229B
330
2297
100
AcDbEntity
  8
L-1
  6
CONTINUOUS
 62
     7
100
AcDbLine
 10
92.2008226321725
 20
1.399999915015229
 30
0.0
 11
92.2008226321725
 21
125.7999999150152
 31
0.0
  0
DIMENSION
  5
229C
330
2297
100
AcDbEntity
  8
L-2
  6
CONTINUOUS
100
AcDbDimension
  2
*D30
 10
110.4935199130219
 20
1.399999915015222
 30
0.0
 11
108.3935199130219
 21
63.59999991501531
 31
0.0
 12
-193.7764280906969
 22
-58.48936484682553
 32
0.0
  3
CAD-STD
100
AcDbAlignedDimension
 13
93.20082263217257
 23
125.7999999150153
 33
0.0
 14
93.40082263217238
 24
1.399999915015229
 34
0.0
 50
90.0
100
AcDbRotatedDimension
  0
LINE
  5
229D
330
2297
100
AcDbEntity
  8
L-1
  6
DASHED2
 62
     3
 48
0.2
100
AcDbLine
 10
93.50082263217245
 20
64.59999991501527
 30
0.0
 11
93.50082263217245
 21
93.59999991501528
 31
0.0
  0
LINE
  5
229E
330
2297
100
AcDbEntity
  8
L-1
  6
CONTINUOUS
 62
     7
100
AcDbLine
 10
52.51182218337669
 20
93.59999991501528
 30
0.0
 11
52.51182218337669
 21
64.59999991501527
 31
0.0
  0
LINE
  5
229F
330
2297
100
AcDbEntity
  8
L-1
  6
CONTINUOUS
 62
     7
100
AcDbLine
 10
42.51182218337669
 20
93.59999991501551
 30
0.0
 11
42.51182218337669
 21
64.5999999150155
 31
0.0
  0
LINE
  5
22A0
330
2297
100
AcDbEntity
  8
L-1
  6
CONTINUOUS
 62
     7
100
AcDbLine
 10
54.0118221833767
 20
1.399999915015229
 30
0.0
 11
49.0118221833767
 21
1.399999915015285
 31
0.0
  0
LINE
  5
22A1
330
2297
100
AcDbEntity
  8
L-1
  6
CONTINUOUS
 62
     4
100
AcDbLine
 10
26.68819646951061
 20
28.867580450353
 30
0.0
 11
0.000000527209977
 21
28.867580450353
 31
0.0
  0
TEXT
  5
22A2
330
2297
100
AcDbEntity
  8
L-2
  6
CONTINUOUS
 62
     2
100
AcDbText
 10
2.504480011349642
 20
29.52527531866872
 30
0.0
 40
3.2
  1
材料名表示
  7
BGS
100
AcDbText
  0
LINE
  5
22A3
330
2297
100
AcDbEntity
  8
L-1
  6
CONTINUOUS
 62
     7
100
AcDbLine
 10
42.51182218337669
 20
62.5999999150155
 30
0.0
 11
42.51182218337669
 21
33.59999991501516
 31
0.0
  0
LINE
  5
22A4
330
2297
100
AcDbEntity
  8
L-1
  6
CONTINUOUS
 62
     7
100
AcDbLine
 10
52.51182218337669
 20
62.59999991501527
 30
0.0
 11
52.51182218337669
 21
33.59999991501527
 31
0.0
  0
LEADER
  5
22A5
330
2297
100
AcDbEntity
  8
L-2
  6
CONTINUOUS
 62
     4
100
AcDbLeader
  3
CAD-STD
 40
3.629148174659983
 41
32.24658008658009
 76
     2
 10
49.24865177886136
 20
18.6144077433247
 30
0.0
 10
26.68819646951061
 20
28.867580450353
 30
0.0
1001
ACAD
1000
DSTYLE
1002
{
1070
     6
1000
OPEN
1002
}
1000
LEANOF
1010
0.0
1020
0.0
1030
0.0
  0
TEXT
  5
22A6
330
2297
100
AcDbEntity
  8
L-2
  6
CONTINUOUS
 62
     2
100
AcDbText
 10
51.69346313661026
 20
10.47767829870143
 30
0.0
 40
3.0
  1
>PC<
 50
90.0
  7
BGS
 72
     4
 11
50.19346313661026
 21
16.04910687013
 31
0.0
100
AcDbText
  0
LINE
  5
22A7
330
2297
100
AcDbEntity
  8
L-1
  6
CONTINUOUS
 62
     7
100
AcDbLine
 10
52.51182218337669
 20
31.59999991501527
 30
0.0
 11
52.51182218337669
 21
2.599999915015274
 31
0.0
  0
LINE
  5
22A8
330
2297
100
AcDbEntity
  8
L-1
  6
CONTINUOUS
 62
     7
100
AcDbLine
 10
42.51182218337669
 20
31.59999991501516
 30
0.0
 11
42.51182218337669
 21
2.599999915015217
 31
0.0
  0
LINE
  5
22A9
330
2297
100
AcDbEntity
  8
L-1
  6
DASHED2
 62
     3
 48
0.2
100
AcDbLine
 10
49.0118221833767
 20
1.399999915015285
 30
0.0
 11
46.01182218337669
 21
1.399999915015342
 31
0.0
  0
LINE
  5
22AA
330
2297
100
AcDbEntity
  8
L-1
  6
CONTINUOUS
 62
     7
100
AcDbLine
 10
48.51182218337669
 20
0.1999999150152121
 30
0.0
 11
46.51182218337669
 21
0.1999999150152689
 31
0.0
  0
LINE
  5
22AB
330
2297
100
AcDbEntity
  8
L-1
  6
CONTINUOUS
 62
     7
100
AcDbLine
 10
52.51182218337669
 20
2.599999915015274
 30
0.0
 11
42.51182218337669
 21
2.599999915015217
 31
0.0
  0
LINE
  5
22AC
330
2297
100
AcDbEntity
  8
L-1
  6
CONTINUOUS
 62
     7
100
AcDbLine
 10
46.01182218337669
 20
1.399999915015342
 30
0.0
 11
46.01182218337669
 21
3.099999915015274
 31
0.0
  0
LINE
  5
22AD
330
2297
100
AcDbEntity
  8
L-1
  6
CONTINUOUS
 62
     7
100
AcDbLine
 10
46.01182218337669
 20
1.399999915015342
 30
0.0
 11
41.01182218337664
 21
1.399999915015342
 31
0.0
  0
ARC
  5
22AE
330
2297
100
AcDbEntity
  8
L-1
  6
CONTINUOUS
 62
     7
100
AcDbCircle
 10
41.01182218337664
 20
1.899999915015285
 30
0.0
 40
0.5
100
AcDbArc
 50
180.0
 51
270.0
  0
LINE
  5
22AF
330
2297
100
AcDbEntity
  8
L-1
  6
CONTINUOUS
 62
     7
100
AcDbLine
 10
45.01182218337643
 20
1.399999915015342
 30
0.0
 11
45.01182218337641
 21
2.599999915015246
 31
0.0
  0
LINE
  5
22B0
330
2297
100
AcDbEntity
  8
L-1
  6
CONTINUOUS
 62
     7
100
AcDbLine
 10
46.01182218337669
 20
1.399999915015342
 30
0.0
 11
46.01182218337669
 21
0.6999999150152121
 31
0.0
  0
ARC
  5
22B1
330
2297
100
AcDbEntity
  8
L-1
  6
CONTINUOUS
 62
     7
100
AcDbCircle
 10
46.51182218337663
 20
0.6999999150152121
 30
0.0
 40
0.5
100
AcDbArc
 50
180.0
 51
270.0
  0
LINE
  5
22B2
330
2297
100
AcDbEntity
  8
L-1
  6
CONTINUOUS
 62
     7
100
AcDbLine
 10
49.0118221833767
 20
1.399999915015229
 30
0.0
 11
49.0118221833767
 21
3.099999915015274
 31
0.0
  0
LINE
  5
22B3
330
2297
100
AcDbEntity
  8
L-1
  6
CONTINUOUS
 62
     7
100
AcDbLine
 10
49.0118221833767
 20
1.399999915015285
 30
0.0
 11
49.0118221833767
 21
0.6999999150152121
 31
0.0
  0
ARC
  5
22B4
330
2297
100
AcDbEntity
  8
L-1
  6
CONTINUOUS
 62
     7
100
AcDbCircle
 10
48.51182218337664
 20
0.6999999150152121
 30
0.0
 40
0.5
100
AcDbArc
 50
270.0
 51
0.0
  0
LINE
  5
22B5
330
2297
100
AcDbEntity
  8
L-1
  6
CONTINUOUS
 62
     7
100
AcDbLine
 10
50.01182218337641
 20
1.399999915015314
 30
0.0
 11
50.01182218337641
 21
2.599999915015274
 31
0.0
  0
LINE
  5
22B6
330
2297
100
AcDbEntity
  8
L-1
  6
CONTINUOUS
 62
     7
100
AcDbLine
 10
52.51182218337669
 20
33.59999991501527
 30
0.0
 11
42.51182218337669
 21
33.59999991501516
 31
0.0
  0
LINE
  5
22B7
330
2297
100
AcDbEntity
  8
L-1
  6
CONTINUOUS
 62
     7
100
AcDbLine
 10
52.51182218337669
 20
31.59999991501527
 30
0.0
 11
42.51182218337669
 21
31.59999991501516
 31
0.0
  0
LINE
  5
22B8
330
2297
100
AcDbEntity
  8
L-1
  6
CONTINUOUS
 62
     7
100
AcDbLine
 10
52.51182218337669
 20
64.59999991501527
 30
0.0
 11
42.51182218337669
 21
64.5999999150155
 31
0.0
  0
LINE
  5
22B9
330
2297
100
AcDbEntity
  8
L-1
  6
CONTINUOUS
 62
     7
100
AcDbLine
 10
52.51182218337669
 20
62.59999991501527
 30
0.0
 11
42.51182218337669
 21
62.59999991501544
 31
0.0
  0
ARC
  5
22BA
330
2297
100
AcDbEntity
  8
L-1
  6
CONTINUOUS
 62
     7
100
AcDbCircle
 10
54.01182218337663
 20
1.899999915015229
 30
0.0
 40
0.5
100
AcDbArc
 50
270.0
 51
0.0
  0
LINE
  5
22BB
330
2297
100
AcDbEntity
  8
L-1
  6
DASHED2
 62
     3
 48
0.2
100
AcDbLine
 10
93.50082263217245
 20
33.59999991501527
 30
0.0
 11
93.50082263217245
 21
62.59999991501527
 31
0.0
  0
ARC
  5
22BC
330
2297
100
AcDbEntity
  8
L-1
  6
CONTINUOUS
 62
     7
100
AcDbCircle
 10
93.40082263217238
 20
2.899999915015229
 30
0.0
 40
1.5
100
AcDbArc
 50
270.0
 51
0.0
  0
LINE
  5
22BD
330
2297
100
AcDbEntity
  8
L-1
  6
DASHED2
 62
     3
 48
0.2
100
AcDbLine
 10
93.50082263217245
 20
3.099999915015288
 30
0.0
 11
93.50082263217245
 21
31.59999991501527
 31
0.0
  0
LINE
  5
22BE
330
2297
100
AcDbEntity
  8
L-1
  6
CONTINUOUS
 62
     7
100
AcDbLine
 10
93.40082263217244
 20
1.399999915015229
 30
0.0
 11
84.20082263217244
 21
1.399999915015285
 31
0.0
  0
LINE
  5
22BF
330
2297
100
AcDbEntity
  8
L-1
  6
CONTINUOUS
 62
     7
100
AcDbLine
 10
92.2008226321725
 20
2.599999915015274
 30
0.0
 11
84.2008226321721
 21
2.599999915015274
 31
0.0
  0
LINE
  5
22C0
330
2297
100
AcDbEntity
  8
L-1
  6
CONTINUOUS
 62
     7
100
AcDbLine
 10
84.20082263217244
 20
-0.0000000849847908
 30
0.0
 11
83.20082263217239
 21
-0.0000000849847908
 31
0.0
  0
LINE
  5
22C1
330
2297
100
AcDbEntity
  8
L-1
  6
CONTINUOUS
 62
     7
100
AcDbLine
 10
84.20082263217238
 20
2.599999915015274
 30
0.0
 11
81.63544381106778
 21
2.495707096475172
 31
0.0
  0
LINE
  5
22C2
330
2297
100
AcDbEntity
  8
L-1
  6
CONTINUOUS
 62
     7
100
AcDbLine
 10
83.20082263217239
 20
-0.0000000849847908
 30
0.0
 11
81.50406215560378
 21
1.54034209134582
 31
0.0
  0
ARC
  5
22C3
330
2297
100
AcDbEntity
  8
L-1
  6
CONTINUOUS
 62
     7
100
AcDbCircle
 10
81.70082263217233
 20
1.999999915015251
 30
0.0
 40
0.5
100
AcDbArc
 50
86.38384846281182
 51
246.826238423448
  0
POINT
  5
22C4
330
2297
100
AcDbEntity
  8
DEFPOINTS
  6
BYBLOCK
 62
     0
100
AcDbPoint
 10
83.20082263217239
 20
-0.0000000849847908
 30
0.0
  0
POINT
  5
22C5
330
2297
100
AcDbEntity
  8
DEFPOINTS
  6
BYBLOCK
 62
     0
100
AcDbPoint
 10
84.20082263217244
 20
1.399999915015285
 30
0.0
  0
POINT
  5
22C6
330
2297
100
AcDbEntity
  8
DEFPOINTS
  6
BYBLOCK
 62
     0
100
AcDbPoint
 10
84.20082263217238
 20
2.599999915015274
 30
0.0
  0
LINE
  5
22C7
330
2297
100
AcDbEntity
  8
L-1
  6
CONTINUOUS
 62
     7
100
AcDbLine
 10
84.20082263217244
 20
1.399999915015285
 30
0.0
 11
84.20082263217244
 21
-0.0000000849847908
 31
0.0
  0
ARC
  5
22C8
330
2297
100
AcDbEntity
  8
L-1
  6
DASHED2
 62
     3
 48
0.2
100
AcDbCircle
 10
93.00082263217246
 20
3.099999915015288
 30
0.0
 40
0.5
100
AcDbArc
 50
270.0
 51
0.0
  0
LINE
  5
22C9
330
2297
100
AcDbEntity
  8
L-1
  6
DASHED2
 62
     3
 48
0.2
100
AcDbLine
 10
92.2008226321725
 20
2.599999915015274
 30
0.0
 11
93.00082263217246
 21
2.599999915015288
 31
0.0
  0
LINE
  5
22CA
330
2297
100
AcDbEntity
  8
L-1
  6
DASHED2
 62
     3
100
AcDbLine
 10
92.90082263217248
 20
1.399999915015229
 30
0.0
 11
92.90082263217248
 21
2.599999915015288
 31
0.0
  0
LINE
  5
22CB
330
2297
100
AcDbEntity
  8
L-1
  6
DASHED2
 62
     3
 48
0.2
100
AcDbLine
 10
92.2008226321725
 20
33.59999991501527
 30
0.0
 11
93.50082263217245
 21
33.59999991501527
 31
0.0
  0
LINE
  5
22CC
330
2297
100
AcDbEntity
  8
L-1
  6
DASHED2
 62
     3
 48
0.2
100
AcDbLine
 10
92.2008226321725
 20
31.59999991501527
 30
0.0
 11
93.50082263217245
 21
31.59999991501527
 31
0.0
  0
LINE
  5
22CD
330
2297
100
AcDbEntity
  8
L-1
  6
DASHED2
 62
     3
 48
0.2
100
AcDbLine
 10
92.2008226321725
 20
64.59999991501527
 30
0.0
 11
93.50082263217245
 21
64.59999991501527
 31
0.0
  0
LINE
  5
22CE
330
2297
100
AcDbEntity
  8
L-1
  6
DASHED2
 62
     3
 48
0.2
100
AcDbLine
 10
92.2008226321725
 20
62.59999991501527
 30
0.0
 11
93.50082263217245
 21
62.59999991501527
 31
0.0
  0
LINE
  5
22CF
330
2297
100
AcDbEntity
  8
L-1
  6
CONTINUOUS
 62
     7
100
AcDbLine
 10
54.0118221833767
 20
125.7999999150153
 30
0.0
 11
49.0118221833767
 21
125.7999999150152
 31
0.0
  0
LINE
  5
22D0
330
2297
100
AcDbEntity
  8
L-1
  6
CONTINUOUS
 62
     7
100
AcDbLine
 10
49.0118221833768
 20
147.6302841553549
 30
0.0
 11
54.51182218337684
 21
147.630284155355
 31
0.0
  0
DIMENSION
  5
22D1
330
2297
100
AcDbEntity
  8
L-2
  6
CONTINUOUS
100
AcDbDimension
  2
*D28
 10
54.51182218337684
 20
156.555381444055
 30
0.0
 11
47.51182218337681
 21
158.6553814440549
 31
0.0
 12
-193.7764280906969
 22
-58.48936484682553
 32
0.0
  3
CAD-STD
100
AcDbAlignedDimension
 13
40.51182218337678
 23
148.8302841553549
 33
0.0
 14
54.51182218337684
 24
148.8302841553549
 34
0.0
100
AcDbRotatedDimension
  0
DIMENSION
  5
22D2
330
2297
100
AcDbEntity
  8
L-2
  6
CONTINUOUS
100
AcDbDimension
  2
*D27
 10
49.01182218337684
 20
133.1988003298222
 30
0.0
 11
55.5784888500435
 21
135.2988003298222
 31
0.0
 12
-193.7764280906969
 22
-58.48936484682553
 32
0.0
  3
CAD-STD
100
AcDbAlignedDimension
 13
46.0118221833768
 23
137.1302841553549
 33
0.0
 14
49.01182218337684
 24
137.130284155355
 34
0.0
100
AcDbRotatedDimension
  0
ARC
  5
22D3
330
2297
100
AcDbEntity
  8
L-1
  6
CONTINUOUS
 62
     7
100
AcDbCircle
 10
53.01182218337683
 20
148.8302841553549
 30
0.0
 40
1.5
100
AcDbArc
 50
0.0
 51
90.0
  0
LINE
  5
22D4
330
2297
100
AcDbEntity
  8
L-1
  6
CONTINUOUS
 62
     7
100
AcDbLine
 10
52.51182218337669
 20
124.5999999150152
 30
0.0
 11
52.51182218337669
 21
95.59999991501527
 31
0.0
  0
LINE
  5
22D5
330
2297
100
AcDbEntity
  8
L-1
  6
CONTINUOUS
 62
     7
100
AcDbLine
 10
42.51182218337669
 20
124.5999999150154
 30
0.0
 11
42.51182218337669
 21
95.5999999150155
 31
0.0
  0
LINE
  5
22D6
330
2297
100
AcDbEntity
  8
L-1
  6
CONTINUOUS
 62
     7
100
AcDbLine
 10
52.51182218337669
 20
95.59999991501527
 30
0.0
 11
42.51182218337669
 21
95.5999999150155
 31
0.0
  0
LINE
  5
22D7
330
2297
100
AcDbEntity
  8
L-1
  6
CONTINUOUS
 62
     7
100
AcDbLine
 10
52.51182218337669
 20
93.59999991501528
 30
0.0
 11
42.51182218337669
 21
93.59999991501551
 31
0.0
  0
LINE
  5
22D8
330
2297
100
AcDbEntity
  8
L-1
  6
CONTINUOUS
 62
     7
100
AcDbLine
 10
46.01182218337683
 20
148.330284155355
 30
0.0
 11
46.0118221833768
 21
137.1302841553549
 31
0.0
  0
LINE
  5
22D9
330
2297
100
AcDbEntity
  8
L-1
  6
CONTINUOUS
 62
     7
100
AcDbLine
 10
49.0118221833768
 20
148.330284155355
 30
0.0
 11
49.01182218337684
 21
137.130284155355
 31
0.0
  0
LINE
  5
22DA
330
2297
100
AcDbEntity
  8
L-1
  6
CONTINUOUS
 62
     7
100
AcDbLine
 10
46.01182218337683
 20
139.6302841553549
 30
0.0
 11
49.01182218337684
 21
139.630284155355
 31
0.0
  0
LINE
  5
22DB
330
2297
100
AcDbEntity
  8
L-1
  6
CONTINUOUS
 62
     7
100
AcDbLine
 10
46.01182218337683
 20
138.6302841553549
 30
0.0
 11
49.01182218337684
 21
138.630284155355
 31
0.0
  0
LINE
  5
22DC
330
2297
100
AcDbEntity
  8
L-1
  6
CONTINUOUS
 62
     7
100
AcDbLine
 10
46.51182218337683
 20
136.6302841553549
 30
0.0
 11
48.51182218337687
 21
136.630284155355
 31
0.0
  0
LINE
  5
22DD
330
2297
100
AcDbEntity
  8
L-1
  6
CONTINUOUS
 62
     7
100
AcDbLine
 10
48.51182218337669
 20
126.9999999150153
 30
0.0
 11
46.51182218337669
 21
126.9999999150153
 31
0.0
  0
LINE
  5
22DE
330
2297
100
AcDbEntity
  8
L-1
  6
DASHED2
 62
     3
 48
0.2
100
AcDbLine
 10
49.0118221833767
 20
125.7999999150152
 30
0.0
 11
46.01182218337669
 21
125.7999999150152
 31
0.0
  0
LINE
  5
22DF
330
2297
100
AcDbEntity
  8
L-1
  6
CONTINUOUS
 62
     7
100
AcDbLine
 10
52.51182218337669
 20
124.5999999150153
 30
0.0
 11
42.51182218337669
 21
124.5999999150154
 31
0.0
  0
LINE
  5
22E0
330
2297
100
AcDbEntity
  8
L-1
  6
CONTINUOUS
 62
     7
100
AcDbLine
 10
46.01182218337669
 20
125.7999999150152
 30
0.0
 11
41.01182218337664
 21
125.7999999150152
 31
0.0
  0
ARC
  5
22E1
330
2297
100
AcDbEntity
  8
L-1
  6
CONTINUOUS
 62
     7
100
AcDbCircle
 10
41.01182218337669
 20
125.2999999150152
 30
0.0
 40
0.5
100
AcDbArc
 50
90.0
 51
180.0
  0
LINE
  5
22E2
330
2297
100
AcDbEntity
  8
L-1
  6
CONTINUOUS
 62
     7
100
AcDbLine
 10
46.01182218337669
 20
126.4999999150153
 30
0.0
 11
46.01182218337669
 21
124.5999999150153
 31
0.0
  0
LINE
  5
22E3
330
2297
100
AcDbEntity
  8
L-1
  6
CONTINUOUS
 62
     7
100
AcDbLine
 10
45.01182218337643
 20
125.7999999150152
 30
0.0
 11
45.01182218337641
 21
124.5999999150153
 31
0.0
  0
LINE
  5
22E4
330
2297
100
AcDbEntity
  8
L-1
  6
CONTINUOUS
 62
     7
100
AcDbLine
 10
46.01182218337669
 20
124.5999999150153
 30
0.0
 11
46.01182218337669
 21
124.0999999150153
 31
0.0
  0
ARC
  5
22E5
330
2297
100
AcDbEntity
  8
L-1
  6
CONTINUOUS
 62
     7
100
AcDbCircle
 10
46.51182218337669
 20
126.4999999150153
 30
0.0
 40
0.5
100
AcDbArc
 50
90.0
 51
180.0
  0
ARC
  5
22E6
330
2297
100
AcDbEntity
  8
L-1
  6
CONTINUOUS
 62
     7
100
AcDbCircle
 10
46.5118221833768
 20
137.1302841553549
 30
0.0
 40
0.5
100
AcDbArc
 50
180.0
 51
270.0000000000016
  0
POINT
  5
22E7
330
2297
100
AcDbEntity
  8
DEFPOINTS
  6
BYBLOCK
 62
     0
100
AcDbPoint
 10
46.0118221833768
 20
137.1302841553549
 30
0.0
  0
POINT
  5
22E8
330
2297
100
AcDbEntity
  8
DEFPOINTS
  6
BYBLOCK
 62
     0
100
AcDbPoint
 10
46.0118221833768
 20
137.1302841553549
 30
0.0
  0
LINE
  5
22E9
330
2297
100
AcDbEntity
  8
L-1
  6
CONTINUOUS
 62
     7
100
AcDbLine
 10
49.0118221833767
 20
126.4999999150153
 30
0.0
 11
49.0118221833767
 21
124.5999999150153
 31
0.0
  0
LINE
  5
22EA
330
2297
100
AcDbEntity
  8
L-1
  6
CONTINUOUS
 62
     7
100
AcDbLine
 10
50.01182218337641
 20
125.7999999150152
 30
0.0
 11
50.01182218337641
 21
124.5999999150153
 31
0.0
  0
LINE
  5
22EB
330
2297
100
AcDbEntity
  8
L-1
  6
CONTINUOUS
 62
     7
100
AcDbLine
 10
49.0118221833767
 20
124.5999999150153
 30
0.0
 11
49.0118221833767
 21
124.0999999150153
 31
0.0
  0
ARC
  5
22EC
330
2297
100
AcDbEntity
  8
L-1
  6
CONTINUOUS
 62
     7
100
AcDbCircle
 10
48.51182218337669
 20
126.4999999150153
 30
0.0
 40
0.5
100
AcDbArc
 50
0.0
 51
90.0
  0
LINE
  5
22ED
330
2297
100
AcDbEntity
  8
L-1
  6
CONTINUOUS
 62
     7
100
AcDbLine
 10
49.0118221833767
 20
125.7999999150152
 30
0.0
 11
49.0118221833767
 21
126.0999999150153
 31
0.0
  0
ARC
  5
22EE
330
2297
100
AcDbEntity
  8
L-1
  6
CONTINUOUS
 62
     7
100
AcDbCircle
 10
48.51182218337683
 20
137.130284155355
 30
0.0
 40
0.5
100
AcDbArc
 50
270.0000000000016
 51
0.0
  0
POINT
  5
22EF
330
2297
100
AcDbEntity
  8
DEFPOINTS
  6
BYBLOCK
 62
     0
100
AcDbPoint
 10
49.0118221833768
 20
137.130284155355
 30
0.0
  0
POINT
  5
22F0
330
2297
100
AcDbEntity
  8
DEFPOINTS
  6
BYBLOCK
 62
     0
100
AcDbPoint
 10
49.0118221833768
 20
137.130284155355
 30
0.0
  0
LINE
  5
22F1
330
2297
100
AcDbEntity
  8
L-1
  6
CONTINUOUS
 62
     7
100
AcDbLine
 10
42.01182218337677
 20
150.330284155355
 30
0.0
 11
53.01182218337683
 21
150.330284155355
 31
0.0
  0
LINE
  5
22F2
330
2297
100
AcDbEntity
  8
L-1
  6
DASHED2
 62
     3
 48
0.2
100
AcDbLine
 10
42.51182218337681
 20
149.130284155355
 30
0.0
 11
52.51182218337675
 21
149.130284155355
 31
0.0
  0
LINE
  5
22F3
330
2297
100
AcDbEntity
  8
L-1
  6
CONTINUOUS
 62
     7
100
AcDbLine
 10
40.51182218337678
 20
147.630284155355
 30
0.0
 11
46.0118221833768
 21
147.6302841553549
 31
0.0
  0
ARC
  5
22F4
330
2297
100
AcDbEntity
  8
L-1
  6
CONTINUOUS
 62
     7
100
AcDbCircle
 10
42.01182218337677
 20
148.8302841553549
 30
0.0
 40
1.5
100
AcDbArc
 50
90.0
 51
180.0000000000024
  0
LINE
  5
22F5
330
2297
100
AcDbEntity
  8
L-1
  6
CONTINUOUS
 62
     7
100
AcDbLine
 10
40.51182218337678
 20
147.630284155355
 30
0.0
 11
40.51182218337678
 21
148.8302841553549
 31
0.0
  0
LINE
  5
22F6
330
2297
100
AcDbEntity
  8
L-1
  6
DASHED2
 62
     3
 48
0.2
100
AcDbLine
 10
42.51182218337681
 20
147.630284155355
 30
0.0
 11
42.51182218337681
 21
149.130284155355
 31
0.0
  0
LINE
  5
22F7
330
2297
100
AcDbEntity
  8
L-1
  6
CONTINUOUS
 62
     7
100
AcDbLine
 10
45.01182218337683
 20
148.330284155355
 30
0.0
 11
46.01182218337683
 21
148.330284155355
 31
0.0
  0
LINE
  5
22F8
330
2297
100
AcDbEntity
  8
L-1
  6
CONTINUOUS
 62
     7
100
AcDbLine
 10
45.01182218337683
 20
148.330284155355
 30
0.0
 11
45.01182218337683
 21
147.630284155355
 31
0.0
  0
POINT
  5
22F9
330
2297
100
AcDbEntity
  8
DEFPOINTS
  6
BYBLOCK
 62
     0
100
AcDbPoint
 10
45.01182218337683
 20
147.6302841553549
 30
0.0
  0
LINE
  5
22FA
330
2297
100
AcDbEntity
  8
L-1
  6
DASHED2
 62
     3
 48
0.2
100
AcDbLine
 10
46.0118221833768
 20
148.330284155355
 30
0.0
 11
46.01182218337678
 21
149.130284155355
 31
0.0
  0
LINE
  5
22FB
330
2297
100
AcDbEntity
  8
L-1
  6
DASHED2
 62
     3
 48
0.2
100
AcDbLine
 10
49.01182218337675
 20
148.330284155355
 30
0.0
 11
49.01182218337672
 21
149.130284155355
 31
0.0
  0
LINE
  5
22FC
330
2297
100
AcDbEntity
  8
L-1
  6
CONTINUOUS
 62
     7
100
AcDbLine
 10
49.01182218337678
 20
148.330284155355
 30
0.0
 11
50.01182218337681
 21
148.330284155355
 31
0.0
  0
LINE
  5
22FD
330
2297
100
AcDbEntity
  8
L-1
  6
CONTINUOUS
 62
     7
100
AcDbLine
 10
50.01182218337681
 20
148.330284155355
 30
0.0
 11
50.01182218337681
 21
147.630284155355
 31
0.0
  0
POINT
  5
22FE
330
2297
100
AcDbEntity
  8
DEFPOINTS
  6
BYBLOCK
 62
     0
100
AcDbPoint
 10
50.01182218337681
 20
147.630284155355
 30
0.0
  0
LINE
  5
22FF
330
2297
100
AcDbEntity
  8
L-1
  6
DASHED2
 62
     3
 48
0.2
100
AcDbLine
 10
52.51182218337686
 20
147.630284155355
 30
0.0
 11
52.51182218337675
 21
149.130284155355
 31
0.0
  0
ARC
  5
2300
330
2297
100
AcDbEntity
  8
L-1
  6
CONTINUOUS
 62
     7
100
AcDbCircle
 10
54.0118221833767
 20
125.2999999150153
 30
0.0
 40
0.5
100
AcDbArc
 50
0.0
 51
90.0
  0
LINE
  5
2301
330
2297
100
AcDbEntity
  8
L-1
  6
CONTINUOUS
 62
     7
100
AcDbLine
 10
54.51182218337684
 20
147.630284155355
 30
0.0
 11
54.51182218337684
 21
148.8302841553549
 31
0.0
  0
LINE
  5
2302
330
2297
100
AcDbEntity
  8
L-1
  6
DASHED2
 62
     3
 48
0.2
100
AcDbLine
 10
93.50082263217245
 20
95.59999991501532
 30
0.0
 11
93.50082263217245
 21
124.0999999150153
 31
0.0
  0
LINE
  5
2303
330
2297
100
AcDbEntity
  8
L-1
  6
DASHED2
 62
     3
 48
0.2
100
AcDbLine
 10
92.2008226321725
 20
95.59999991501527
 30
0.0
 11
93.50082263217245
 21
95.59999991501527
 31
0.0
  0
LINE
  5
2304
330
2297
100
AcDbEntity
  8
L-1
  6
DASHED2
 62
     3
 48
0.2
100
AcDbLine
 10
92.2008226321725
 20
93.59999991501528
 30
0.0
 11
93.50082263217245
 21
93.59999991501528
 31
0.0
  0
ARC
  5
2305
330
2297
100
AcDbEntity
  8
L-1
  6
CONTINUOUS
 62
     7
100
AcDbCircle
 10
93.22859130938002
 20
124.1181377491837
 30
0.0
 40
1.682091389993235
100
AcDbArc
 50
6.206762783406862
 51
90.94590596658681
  0
DIMENSION
  5
2306
330
2297
100
AcDbEntity
  8
L-2
  6
CONTINUOUS
100
AcDbDimension
  2
*D29
 10
81.2008226321724
 20
133.6297876074556
 30
0.0
 11
88.05082263217242
 21
135.7297876074556
 31
0.0
 12
-193.7764280906969
 22
-58.48936484682553
 32
0.0
  3
CAD-STD
100
AcDbAlignedDimension
 13
94.90082263217249
 23
125.5848344392457
 33
0.0
 14
81.2008226321724
 24
125.1999999150152
 34
0.0
100
AcDbRotatedDimension
  0
LINE
  5
2307
330
2297
100
AcDbEntity
  8
L-1
  6
CONTINUOUS
 62
     7
100
AcDbLine
 10
92.2008226321725
 20
124.5999999150153
 30
0.0
 11
84.2008226321721
 21
124.5999999150153
 31
0.0
  0
LINE
  5
2308
330
2297
100
AcDbEntity
  8
L-1
  6
CONTINUOUS
 62
     7
100
AcDbLine
 10
93.20082263217249
 20
125.7999999150152
 30
0.0
 11
84.20082263217244
 21
125.7999999150152
 31
0.0
  0
LINE
  5
2309
330
2297
100
AcDbEntity
  8
L-1
  6
CONTINUOUS
 62
     7
100
AcDbLine
 10
84.20082263217238
 20
124.5999999150153
 30
0.0
 11
81.63544381106778
 21
124.7042927335553
 31
0.0
  0
LINE
  5
230A
330
2297
100
AcDbEntity
  8
L-1
  6
CONTINUOUS
 62
     7
100
AcDbLine
 10
84.20082263217244
 20
127.1999999150153
 30
0.0
 11
83.20082263217239
 21
127.1999999150153
 31
0.0
  0
ARC
  5
230B
330
2297
100
AcDbEntity
  8
L-1
  6
CONTINUOUS
 62
     7
100
AcDbCircle
 10
81.70082263217238
 20
125.1999999150152
 30
0.0
 40
0.5
100
AcDbArc
 50
113.1737615765519
 51
273.6161515371881
  0
LINE
  5
230C
330
2297
100
AcDbEntity
  8
L-1
  6
CONTINUOUS
 62
     7
100
AcDbLine
 10
83.20082263217239
 20
127.1999999150153
 30
0.0
 11
81.50406215560378
 21
125.6596577386847
 31
0.0
  0
POINT
  5
230D
330
2297
100
AcDbEntity
  8
DEFPOINTS
  6
BYBLOCK
 62
     0
100
AcDbPoint
 10
83.20082263217239
 20
127.1999999150153
 30
0.0
  0
POINT
  5
230E
330
2297
100
AcDbEntity
  8
DEFPOINTS
  6
BYBLOCK
 62
     0
100
AcDbPoint
 10
84.20082263217238
 20
124.5999999150153
 30
0.0
  0
LINE
  5
230F
330
2297
100
AcDbEntity
  8
L-1
  6
CONTINUOUS
 62
     7
100
AcDbLine
 10
84.20082263217244
 20
125.7999999150152
 30
0.0
 11
84.20082263217244
 21
127.1999999150153
 31
0.0
  0
POINT
  5
2310
330
2297
100
AcDbEntity
  8
DEFPOINTS
  6
BYBLOCK
 62
     0
100
AcDbPoint
 10
84.20082263217244
 20
125.7999999150152
 30
0.0
  0
ARC
  5
2311
330
2297
100
AcDbEntity
  8
L-1
  6
CONTINUOUS
 62
     3
100
AcDbCircle
 10
93.00082263217246
 20
124.0999999150153
 30
0.0
 40
0.5
100
AcDbArc
 50
0.0
 51
90.0
  0
LINE
  5
2312
330
2297
100
AcDbEntity
  8
L-1
  6
CONTINUOUS
 62
     3
100
AcDbLine
 10
92.2008226321725
 20
124.5999999150153
 30
0.0
 11
93.00082263217246
 21
124.5999999150153
 31
0.0
  0
ENDBLK
  5
2314
330
2297
100
AcDbEntity
  8
0
100
AcDbBlockEnd
  0
BLOCK
  5
2322
330
2316
100
AcDbEntity
  8
0
100
AcDbBlockBegin
  2
*D32
 70
     1
 10
0.0
 20
0.0
 30
0.0
  3
*D32
  1

  0
LINE
  5
2317
330
2316
100
AcDbEntity
  8
L-2
  6
CONTINUOUS
 62
     4
100
AcDbLine
 10
239.7882502740737
 20
195.1196490021805
 30
0.0
 11
239.7882502740737
 21
190.6881651766477
 31
0.0
  0
LINE
  5
2318
330
2316
100
AcDbEntity
  8
L-2
  6
CONTINUOUS
 62
     4
100
AcDbLine
 10
242.7882502740738
 20
195.1196490021805
 30
0.0
 11
242.7882502740738
 21
190.6881651766477
 31
0.0
  0
LINE
  5
2319
330
2316
100
AcDbEntity
  8
L-2
  6
CONTINUOUS
 62
     4
100
AcDbLine
 10
237.2882502740738
 20
191.6881651766477
 30
0.0
 11
234.7882502740737
 21
191.6881651766477
 31
0.0
  0
LINE
  5
231A
330
2316
100
AcDbEntity
  8
L-2
  6
CONTINUOUS
 62
     4
100
AcDbLine
 10
245.2882502740738
 20
191.6881651766477
 30
0.0
 11
250.9215836074071
 21
191.6881651766477
 31
0.0
  0
LINE
  5
231B
330
2316
100
AcDbEntity
  8
L-2
  6
CONTINUOUS
 62
     4
100
AcDbLine
 10
239.7882502740737
 20
191.6881651766477
 30
0.0
 11
242.7882502740738
 21
191.6881651766477
 31
0.0
  0
INSERT
  5
231C
330
2316
100
AcDbEntity
  8
L-2
  6
CONTINUOUS
 62
     4
100
AcDbBlockReference
  2
_OPEN
 10
239.7882502740737
 20
191.6881651766477
 30
0.0
 41
2.5
 42
2.5
 43
2.5
  0
INSERT
  5
231D
330
2316
100
AcDbEntity
  8
L-2
  6
CONTINUOUS
 62
     4
100
AcDbBlockReference
  2
_OPEN
 10
242.7882502740738
 20
191.6881651766477
 30
0.0
 41
2.5
 42
2.5
 43
2.5
 50
180.0
  0
MTEXT
  5
231E
330
2316
100
AcDbEntity
  8
L-2
  6
CONTINUOUS
 62
     2
100
AcDbMText
 10
249.3549169407404
 20
193.7881651766477
 30
0.0
 40
3.2
 41
0.0
 71
     5
 72
     1
  1
\A1;3
  7
BGS
1001
ACAD
1000
MTEXTBEGIN
1070
    73
1070
     1
1070
    44
1040
1.0
1070
    74
1070
     0
1000
MTEXTEND
  0
POINT
  5
231F
330
2316
100
AcDbEntity
  8
DEFPOINTS
  6
CONTINUOUS
 62
     0
100
AcDbPoint
 10
239.7882502740737
 20
195.6196490021805
 30
0.0
  0
POINT
  5
2320
330
2316
100
AcDbEntity
  8
DEFPOINTS
  6
CONTINUOUS
 62
     0
100
AcDbPoint
 10
242.7882502740738
 20
195.6196490021805
 30
0.0
  0
POINT
  5
2321
330
2316
100
AcDbEntity
  8
DEFPOINTS
  6
CONTINUOUS
 62
     0
100
AcDbPoint
 10
242.7882502740738
 20
191.6881651766477
 30
0.0
  0
ENDBLK
  5
2323
330
2316
100
AcDbEntity
  8
0
100
AcDbBlockEnd
  0
BLOCK
  5
232E
330
2324
100
AcDbEntity
  8
0
100
AcDbBlockBegin
  2
*D33
 70
     1
 10
0.0
 20
0.0
 30
0.0
  3
*D33
  1

  0
LINE
  5
2325
330
2324
100
AcDbEntity
  8
L-2
  6
CONTINUOUS
 62
     4
100
AcDbLine
 10
234.2882502740737
 20
207.8196490021805
 30
0.0
 11
234.2882502740737
 21
216.0447462908805
 31
0.0
  0
LINE
  5
2326
330
2324
100
AcDbEntity
  8
L-2
  6
CONTINUOUS
 62
     4
100
AcDbLine
 10
248.2882502740738
 20
207.8196490021805
 30
0.0
 11
248.2882502740738
 21
216.0447462908805
 31
0.0
  0
LINE
  5
2327
330
2324
100
AcDbEntity
  8
L-2
  6
CONTINUOUS
 62
     4
100
AcDbLine
 10
236.7882502740737
 20
215.0447462908805
 30
0.0
 11
245.7882502740738
 21
215.0447462908805
 31
0.0
  0
INSERT
  5
2328
330
2324
100
AcDbEntity
  8
L-2
  6
CONTINUOUS
 62
     4
100
AcDbBlockReference
  2
_OPEN
 10
234.2882502740737
 20
215.0447462908805
 30
0.0
 41
2.5
 42
2.5
 43
2.5
 50
180.0
  0
INSERT
  5
2329
330
2324
100
AcDbEntity
  8
L-2
  6
CONTINUOUS
 62
     4
100
AcDbBlockReference
  2
_OPEN
 10
248.2882502740738
 20
215.0447462908805
 30
0.0
 41
2.5
 42
2.5
 43
2.5
  0
MTEXT
  5
232A
330
2324
100
AcDbEntity
  8
L-2
  6
CONTINUOUS
 62
     2
100
AcDbMText
 10
241.2882502740738
 20
217.1447462908805
 30
0.0
 40
3.2
 41
0.0
 71
     5
 72
     1
  1
\A1;14
  7
BGS
1001
ACAD
1000
MTEXTBEGIN
1070
    73
1070
     1
1070
    44
1040
1.0
1070
    74
1070
     0
1000
MTEXTEND
  0
POINT
  5
232B
330
2324
100
AcDbEntity
  8
DEFPOINTS
  6
CONTINUOUS
 62
     0
100
AcDbPoint
 10
234.2882502740737
 20
207.3196490021805
 30
0.0
  0
POINT
  5
232C
330
2324
100
AcDbEntity
  8
DEFPOINTS
  6
CONTINUOUS
 62
     0
100
AcDbPoint
 10
248.2882502740738
 20
207.3196490021805
 30
0.0
  0
POINT
  5
232D
330
2324
100
AcDbEntity
  8
DEFPOINTS
  6
CONTINUOUS
 62
     0
100
AcDbPoint
 10
248.2882502740738
 20
215.0447462908805
 30
0.0
  0
ENDBLK
  5
232F
330
2324
100
AcDbEntity
  8
0
100
AcDbBlockEnd
  0
BLOCK
  5
233A
330
2330
100
AcDbEntity
  8
0
100
AcDbBlockBegin
  2
*D34
 70
     1
 10
0.0
 20
0.0
 30
0.0
  3
*D34
  1

  0
LINE
  5
2331
330
2330
100
AcDbEntity
  8
L-2
  6
CONTINUOUS
 62
     4
100
AcDbLine
 10
288.6772507228694
 20
184.5741992860712
 30
0.0
 11
288.6772507228694
 21
193.1191524542812
 31
0.0
  0
LINE
  5
2332
330
2330
100
AcDbEntity
  8
L-2
  6
CONTINUOUS
 62
     4
100
AcDbLine
 10
274.9772507228693
 20
184.1893647618408
 30
0.0
 11
274.9772507228693
 21
193.1191524542812
 31
0.0
  0
LINE
  5
2333
330
2330
100
AcDbEntity
  8
L-2
  6
CONTINUOUS
 62
     4
100
AcDbLine
 10
286.1772507228694
 20
192.1191524542812
 30
0.0
 11
277.4772507228693
 21
192.1191524542812
 31
0.0
  0
INSERT
  5
2334
330
2330
100
AcDbEntity
  8
L-2
  6
CONTINUOUS
 62
     4
100
AcDbBlockReference
  2
_OPEN
 10
288.6772507228694
 20
192.1191524542812
 30
0.0
 41
2.5
 42
2.5
 43
2.5
  0
INSERT
  5
2335
330
2330
100
AcDbEntity
  8
L-2
  6
CONTINUOUS
 62
     4
100
AcDbBlockReference
  2
_OPEN
 10
274.9772507228693
 20
192.1191524542812
 30
0.0
 41
2.5
 42
2.5
 43
2.5
 50
180.0
  0
MTEXT
  5
2336
330
2330
100
AcDbEntity
  8
L-2
  6
CONTINUOUS
 62
     2
100
AcDbMText
 10
281.8272507228694
 20
194.2191524542812
 30
0.0
 40
3.2
 41
0.0
 71
     5
 72
     1
  1
\A1;13.7
  7
BGS
1001
ACAD
1000
MTEXTBEGIN
1070
    73
1070
     1
1070
    44
1040
1.0
1070
    74
1070
     0
1000
MTEXTEND
  0
POINT
  5
2337
330
2330
100
AcDbEntity
  8
DEFPOINTS
  6
CONTINUOUS
 62
     0
100
AcDbPoint
 10
288.6772507228694
 20
184.0741992860712
 30
0.0
  0
POINT
  5
2338
330
2330
100
AcDbEntity
  8
DEFPOINTS
  6
CONTINUOUS
 62
     0
100
AcDbPoint
 10
274.9772507228693
 20
183.6893647618408
 30
0.0
  0
POINT
  5
2339
330
2330
100
AcDbEntity
  8
DEFPOINTS
  6
CONTINUOUS
 62
     0
100
AcDbPoint
 10
274.9772507228693
 20
192.1191524542812
 30
0.0
  0
ENDBLK
  5
233B
330
2330
100
AcDbEntity
  8
0
100
AcDbBlockEnd
  0
BLOCK
  5
2346
330
233C
100
AcDbEntity
  8
0
100
AcDbBlockBegin
  2
*D35
 70
     1
 10
0.0
 20
0.0
 30
0.0
  3
*D35
  1

  0
LINE
  5
233D
330
233C
100
AcDbEntity
  8
L-2
  6
CONTINUOUS
 62
     4
100
AcDbLine
 10
287.4772507228695
 20
184.2893647618408
 30
0.0
 11
305.269948003719
 21
184.2893647618408
 31
0.0
  0
LINE
  5
233E
330
233C
100
AcDbEntity
  8
L-2
  6
CONTINUOUS
 62
     4
100
AcDbLine
 10
287.6772507228693
 20
59.88936476184076
 30
0.0
 11
305.2699480037189
 21
59.88936476184075
 31
0.0
  0
LINE
  5
233F
330
233C
100
AcDbEntity
  8
L-2
  6
CONTINUOUS
 62
     4
100
AcDbLine
 10
304.2699480037189
 20
181.7893647618408
 30
0.0
 11
304.2699480037189
 21
62.38936476184075
 31
0.0
  0
INSERT
  5
2340
330
233C
100
AcDbEntity
  8
L-2
  6
CONTINUOUS
 62
     4
100
AcDbBlockReference
  2
_OPEN
 10
304.2699480037189
 20
184.2893647618408
 30
0.0
 41
2.5
 42
2.5
 43
2.5
 50
90.0
  0
INSERT
  5
2341
330
233C
100
AcDbEntity
  8
L-2
  6
CONTINUOUS
 62
     4
100
AcDbBlockReference
  2
_OPEN
 10
304.2699480037189
 20
59.88936476184075
 30
0.0
 41
2.5
 42
2.5
 43
2.5
 50
270.0
  0
MTEXT
  5
2342
330
233C
100
AcDbEntity
  8
L-2
  6
CONTINUOUS
 62
     2
100
AcDbMText
 10
302.1699480037189
 20
122.0893647618408
 30
0.0
 40
3.2
 41
0.0
 71
     5
 72
     1
  1
\A1;124.4
  7
BGS
 11
0.0000000000000001
 21
1.0
 31
0.0
1001
ACAD
1000
MTEXTBEGIN
1070
    73
1070
     1
1070
    44
1040
1.0
1070
    74
1070
     0
1000
MTEXTEND
  0
POINT
  5
2343
330
233C
100
AcDbEntity
  8
DEFPOINTS
  6
CONTINUOUS
 62
     0
100
AcDbPoint
 10
286.9772507228695
 20
184.2893647618408
 30
0.0
  0
POINT
  5
2344
330
233C
100
AcDbEntity
  8
DEFPOINTS
  6
CONTINUOUS
 62
     0
100
AcDbPoint
 10
287.1772507228693
 20
59.88936476184076
 30
0.0
  0
POINT
  5
2345
330
233C
100
AcDbEntity
  8
DEFPOINTS
  6
CONTINUOUS
 62
     0
100
AcDbPoint
 10
304.2699480037189
 20
59.88936476184075
 30
0.0
  0
ENDBLK
  5
2347
330
233C
100
AcDbEntity
  8
0
100
AcDbBlockEnd
  0
BLOCK
  5
244C
330
2442
100
AcDbEntity
  8
0
100
AcDbBlockBegin
  2
*D37
 70
     1
 10
0.0
 20
0.0
 30
0.0
  3
*D37
  1

  0
LINE
  5
249A
330
2442
100
AcDbEntity
  8
L-2
  6
CONTINUOUS
 62
     4
100
AcDbLine
 10
109.944643971407
 20
197.1470660498343
 30
0.0
 11
127.7373412522564
 21
197.1470660498343
 31
0.0
  0
LINE
  5
249B
330
2442
100
AcDbEntity
  8
L-2
  6
CONTINUOUS
 62
     4
100
AcDbLine
 10
110.1446439714068
 20
72.74706604983421
 30
0.0
 11
127.7373412522564
 21
72.74706604983421
 31
0.0
  0
LINE
  5
249C
330
2442
100
AcDbEntity
  8
L-2
  6
CONTINUOUS
 62
     4
100
AcDbLine
 10
126.7373412522564
 20
194.6470660498343
 30
0.0
 11
126.7373412522564
 21
75.24706604983421
 31
0.0
  0
INSERT
  5
249D
330
2442
100
AcDbEntity
  8
L-2
  6
CONTINUOUS
 62
     4
100
AcDbBlockReference
  2
_OPEN
 10
126.7373412522564
 20
197.1470660498343
 30
0.0
 41
2.5
 42
2.5
 43
2.5
 50
90.0
  0
INSERT
  5
249E
330
2442
100
AcDbEntity
  8
L-2
  6
CONTINUOUS
 62
     4
100
AcDbBlockReference
  2
_OPEN
 10
126.7373412522564
 20
72.74706604983421
 30
0.0
 41
2.5
 42
2.5
 43
2.5
 50
270.0
  0
MTEXT
  5
249F
330
2442
100
AcDbEntity
  8
L-2
  6
CONTINUOUS
 62
     2
100
AcDbMText
 10
124.6373412522564
 20
134.9470660498342
 30
0.0
 40
3.2
 41
0.0
 71
     5
 72
     1
  1
\A1;124.4
  7
MSゴシック
 11
0.0000000000000001
 21
1.0
 31
0.0
1001
ACAD
1000
MTEXTBEGIN
1070
    73
1070
     1
1070
    44
1040
1.0
1070
    74
1070
     0
1000
MTEXTEND
  0
POINT
  5
24A0
330
2442
100
AcDbEntity
  8
DEFPOINTS
  6
CONTINUOUS
 62
     0
100
AcDbPoint
 10
109.444643971407
 20
197.1470660498343
 30
0.0
  0
POINT
  5
24A1
330
2442
100
AcDbEntity
  8
DEFPOINTS
  6
CONTINUOUS
 62
     0
100
AcDbPoint
 10
109.6446439714068
 20
72.74706604983421
 30
0.0
  0
POINT
  5
24A2
330
2442
100
AcDbEntity
  8
DEFPOINTS
  6
CONTINUOUS
 62
     0
100
AcDbPoint
 10
126.7373412522564
 20
72.74706604983421
 30
0.0
  0
ENDBLK
  5
244D
330
2442
100
AcDbEntity
  8
0
100
AcDbBlockEnd
  0
BLOCK
  5
2458
330
244E
100
AcDbEntity
  8
0
100
AcDbBlockBegin
  2
*D38
 70
     1
 10
0.0
 20
0.0
 30
0.0
  3
*D38
  1

  0
LINE
  5
24B7
330
244E
100
AcDbEntity
  8
L-2
  6
CONTINUOUS
 62
     4
100
AcDbLine
 10
56.75564352261128
 20
220.6773502901739
 30
0.0
 11
56.75564352261128
 21
228.9024475788739
 31
0.0
  0
LINE
  5
24B8
330
244E
100
AcDbEntity
  8
L-2
  6
CONTINUOUS
 62
     4
100
AcDbLine
 10
70.75564352261134
 20
220.6773502901739
 30
0.0
 11
70.75564352261134
 21
228.9024475788739
 31
0.0
  0
LINE
  5
24B9
330
244E
100
AcDbEntity
  8
L-2
  6
CONTINUOUS
 62
     4
100
AcDbLine
 10
59.25564352261128
 20
227.902447578874
 30
0.0
 11
68.25564352261134
 21
227.902447578874
 31
0.0
  0
INSERT
  5
24BA
330
244E
100
AcDbEntity
  8
L-2
  6
CONTINUOUS
 62
     4
100
AcDbBlockReference
  2
_OPEN
 10
56.75564352261128
 20
227.902447578874
 30
0.0
 41
2.5
 42
2.5
 43
2.5
 50
180.0
  0
INSERT
  5
24BB
330
244E
100
AcDbEntity
  8
L-2
  6
CONTINUOUS
 62
     4
100
AcDbBlockReference
  2
_OPEN
 10
70.75564352261134
 20
227.902447578874
 30
0.0
 41
2.5
 42
2.5
 43
2.5
  0
MTEXT
  5
24BC
330
244E
100
AcDbEntity
  8
L-2
  6
CONTINUOUS
 62
     2
100
AcDbMText
 10
63.75564352261131
 20
230.002447578874
 30
0.0
 40
3.2
 41
0.0
 71
     5
 72
     1
  1
\A1;14
  7
MSゴシック
1001
ACAD
1000
MTEXTBEGIN
1070
    73
1070
     1
1070
    44
1040
1.0
1070
    74
1070
     0
1000
MTEXTEND
  0
POINT
  5
24BD
330
244E
100
AcDbEntity
  8
DEFPOINTS
  6
CONTINUOUS
 62
     0
100
AcDbPoint
 10
56.75564352261128
 20
220.177350290174
 30
0.0
  0
POINT
  5
24BE
330
244E
100
AcDbEntity
  8
DEFPOINTS
  6
CONTINUOUS
 62
     0
100
AcDbPoint
 10
70.75564352261134
 20
220.177350290174
 30
0.0
  0
POINT
  5
24BF
330
244E
100
AcDbEntity
  8
DEFPOINTS
  6
CONTINUOUS
 62
     0
100
AcDbPoint
 10
70.75564352261134
 20
227.902447578874
 30
0.0
  0
ENDBLK
  5
2459
330
244E
100
AcDbEntity
  8
0
100
AcDbBlockEnd
  0
BLOCK
  5
2466
330
245A
100
AcDbEntity
  8
0
100
AcDbBlockBegin
  2
*D39
 70
     1
 10
0.0
 20
0.0
 30
0.0
  3
*D39
  1

  0
LINE
  5
24C0
330
245A
100
AcDbEntity
  8
L-2
  6
CONTINUOUS
 62
     4
100
AcDbLine
 10
62.2556435226113
 20
207.9773502901739
 30
0.0
 11
62.2556435226113
 21
200.5006152431209
 31
0.0
  0
LINE
  5
24C1
330
245A
100
AcDbEntity
  8
L-2
  6
CONTINUOUS
 62
     4
100
AcDbLine
 10
65.25564352261134
 20
207.977350290174
 30
0.0
 11
65.25564352261134
 21
200.5006152431209
 31
0.0
  0
LINE
  5
24C2
330
245A
100
AcDbEntity
  8
L-2
  6
CONTINUOUS
 62
     4
100
AcDbLine
 10
59.7556435226113
 20
201.5006152431209
 30
0.0
 11
57.2556435226113
 21
201.5006152431209
 31
0.0
  0
LINE
  5
24C3
330
245A
100
AcDbEntity
  8
L-2
  6
CONTINUOUS
 62
     4
100
AcDbLine
 10
67.75564352261134
 20
201.5006152431209
 30
0.0
 11
70.25564352261134
 21
201.5006152431209
 31
0.0
  0
LINE
  5
24C4
330
245A
100
AcDbEntity
  8
L-2
  6
CONTINUOUS
 62
     4
100
AcDbLine
 10
62.2556435226113
 20
201.5006152431209
 30
0.0
 11
65.25564352261134
 21
201.5006152431209
 31
0.0
  0
INSERT
  5
24C5
330
245A
100
AcDbEntity
  8
L-2
  6
CONTINUOUS
 62
     4
100
AcDbBlockReference
  2
_OPEN
 10
62.2556435226113
 20
201.5006152431209
 30
0.0
 41
2.5
 42
2.5
 43
2.5
  0
INSERT
  5
24C6
330
245A
100
AcDbEntity
  8
L-2
  6
CONTINUOUS
 62
     4
100
AcDbBlockReference
  2
_OPEN
 10
65.25564352261134
 20
201.5006152431209
 30
0.0
 41
2.5
 42
2.5
 43
2.5
 50
180.0
  0
MTEXT
  5
24C7
330
245A
100
AcDbEntity
  8
L-2
  6
CONTINUOUS
 62
     2
100
AcDbMText
 10
63.75564352261132
 20
203.6006152431209
 30
0.0
 40
3.2
 41
0.0
 71
     5
 72
     1
  1
\A1;3
  7
MSゴシック
1001
ACAD
1000
MTEXTBEGIN
1070
    73
1070
     1
1070
    44
1040
1.0
1070
    74
1070
     0
1000
MTEXTEND
  0
POINT
  5
24C8
330
245A
100
AcDbEntity
  8
DEFPOINTS
  6
CONTINUOUS
 62
     0
100
AcDbPoint
 10
62.2556435226113
 20
208.4773502901739
 30
0.0
  0
POINT
  5
24C9
330
245A
100
AcDbEntity
  8
DEFPOINTS
  6
CONTINUOUS
 62
     0
100
AcDbPoint
 10
65.25564352261134
 20
208.477350290174
 30
0.0
  0
POINT
  5
24CA
330
245A
100
AcDbEntity
  8
DEFPOINTS
  6
CONTINUOUS
 62
     0
100
AcDbPoint
 10
65.25564352261134
 20
201.5006152431209
 30
0.0
  0
ENDBLK
  5
2467
330
245A
100
AcDbEntity
  8
0
100
AcDbBlockEnd
  0
BLOCK
  5
2472
330
2468
100
AcDbEntity
  8
0
100
AcDbBlockBegin
  2
*D40
 70
     1
 10
0.0
 20
0.0
 30
0.0
  3
*D40
  1

  0
LINE
  5
24A3
330
2468
100
AcDbEntity
  8
L-2
  6
CONTINUOUS
 62
     4
100
AcDbLine
 10
111.1446439714069
 20
197.4319005740646
 30
0.0
 11
111.1446439714069
 21
205.9768537422746
 31
0.0
  0
LINE
  5
24A4
330
2468
100
AcDbEntity
  8
L-2
  6
CONTINUOUS
 62
     4
100
AcDbLine
 10
97.44464397140689
 20
197.0470660498342
 30
0.0
 11
97.44464397140689
 21
205.9768537422746
 31
0.0
  0
LINE
  5
24A5
330
2468
100
AcDbEntity
  8
L-2
  6
CONTINUOUS
 62
     4
100
AcDbLine
 10
108.6446439714069
 20
204.9768537422746
 30
0.0
 11
99.94464397140689
 21
204.9768537422746
 31
0.0
  0
INSERT
  5
24A6
330
2468
100
AcDbEntity
  8
L-2
  6
CONTINUOUS
 62
     4
100
AcDbBlockReference
  2
_OPEN
 10
111.1446439714069
 20
204.9768537422746
 30
0.0
 41
2.5
 42
2.5
 43
2.5
  0
INSERT
  5
24A7
330
2468
100
AcDbEntity
  8
L-2
  6
CONTINUOUS
 62
     4
100
AcDbBlockReference
  2
_OPEN
 10
97.44464397140689
 20
204.9768537422746
 30
0.0
 41
2.5
 42
2.5
 43
2.5
 50
180.0
  0
MTEXT
  5
24A8
330
2468
100
AcDbEntity
  8
L-2
  6
CONTINUOUS
 62
     2
100
AcDbMText
 10
104.2946439714069
 20
207.0768537422746
 30
0.0
 40
3.2
 41
0.0
 71
     5
 72
     1
  1
\A1;13.7
  7
MSゴシック
1001
ACAD
1000
MTEXTBEGIN
1070
    73
1070
     1
1070
    44
1040
1.0
1070
    74
1070
     0
1000
MTEXTEND
  0
POINT
  5
24A9
330
2468
100
AcDbEntity
  8
DEFPOINTS
  6
CONTINUOUS
 62
     0
100
AcDbPoint
 10
111.1446439714069
 20
196.9319005740646
 30
0.0
  0
POINT
  5
24AA
330
2468
100
AcDbEntity
  8
DEFPOINTS
  6
CONTINUOUS
 62
     0
100
AcDbPoint
 10
97.44464397140689
 20
196.5470660498342
 30
0.0
  0
POINT
  5
24AB
330
2468
100
AcDbEntity
  8
DEFPOINTS
  6
CONTINUOUS
 62
     0
100
AcDbPoint
 10
97.44464397140689
 20
204.9768537422746
 30
0.0
  0
ENDBLK
  5
2473
330
2468
100
AcDbEntity
  8
0
100
AcDbBlockEnd
  0
ENDSEC
  0
SECTION
  2
ENTITIES
  0
LINE
  5
1CAE
330
18
100
AcDbEntity
  8
L-1
  6
CONTINUOUS
 62
     5
100
AcDbLine
 10
0.0000001503934755
 20
0.0000000878506512
 30
0.0
 11
170.0000001503935
 21
0.0000000878506512
 31
0.0
  0
LINE
  5
1CAF
330
18
100
AcDbEntity
  8
L-1
  6
CONTINUOUS
 62
     5
100
AcDbLine
 10
0.0000001503934755
 20
271.0000000878506
 30
0.0
 11
171.0000001503935
 21
271.0000000878506
 31
0.0
  0
LINE
  5
1CBA
330
18
100
AcDbEntity
  8
L-1
  6
CONTINUOUS
 62
     5
100
AcDbLine
 10
0.0000001503934755
 20
0.0000000878506512
 30
0.0
 11
0.0000001503934755
 21
271.0000000878506
 31
0.0
  0
LINE
  5
1DE4
330
18
100
AcDbEntity
  8
L-1
  6
CONTINUOUS
 62
     5
100
AcDbLine
 10
171.0000001503935
 20
271.0000000878506
 30
0.0
 11
171.0000001503935
 21
0.0000000878506512
 31
0.0
  0
TEXT
  5
1DEC
330
18
100
AcDbEntity
  8
L-2
  6
CONTINUOUS
 62
     2
100
AcDbText
 10
101.7378651858019
 20
16.06067974659367
 30
0.0
 40
4.5
  1
ＭＴ２０　示名条片１０
  7
MSゴシック
100
AcDbText
  0
TEXT
  5
1DED
330
18
100
AcDbEntity
  8
L-1
  6
CONTINUOUS
 62
     2
100
AcDbText
 10
105.733638462985
 20
1.873740570892235
 30
0.0
 40
4.4
  1
東京通信機工業株式会社
  7
MSゴシック
100
AcDbText
  0
TEXT
  5
1DEE
330
18
100
AcDbEntity
  8
L-2
  6
CONTINUOUS
 62
     2
100
AcDbText
 10
135.615737666848
 20
31.86276842016654
 30
0.0
 40
4.0
  1
（単位：ｍｍ）
  7
MSゴシック
100
AcDbText
  0
LINE
  5
1DEF
330
18
100
AcDbEntity
  8
L-1
  6
CONTINUOUS
 62
     5
100
AcDbLine
 10
91.00000015039348
 20
30.00000008785065
 30
0.0
 11
171.0000001503935
 21
30.00000008785065
 31
0.0
  0
LINE
  5
1DF0
330
18
100
AcDbEntity
  8
L-1
  6
CONTINUOUS
 62
     5
100
AcDbLine
 10
91.00000015039348
 20
8.000000087850651
 30
0.0
 11
171.0000001503935
 21
8.000000087850651
 31
0.0
  0
LINE
  5
1DF6
330
18
100
AcDbEntity
  8
L-1
  6
CONTINUOUS
 62
     5
100
AcDbLine
 10
91.00000015039348
 20
30.00000008785065
 30
0.0
 11
91.00000015039348
 21
0.0000000878506512
 31
0.0
  0
INSERT
  5
1DF7
330
18
100
AcDbEntity
  8
L-1
100
AcDbBlockReference
  2
TK
 10
103.7082289504495
 20
3.776842462510515
 30
0.0
  0
LINE
  5
1E08
330
18
100
AcDbEntity
  8
L-1
  6
CONTINUOUS
 62
     5
100
AcDbLine
 10
170.0000001503935
 20
0.0000000878506512
 30
0.0
 11
171.0000001503935
 21
0.0000000878506512
 31
0.0
  0
LINE
  5
23C7
330
18
100
AcDbEntity
  8
L-1
  6
CONTINUOUS
 62
     7
100
AcDbLine
 10
70.75564352261119
 20
196.6470660498343
 30
0.0
 11
70.75564352261119
 21
73.24706604983422
 31
0.0
  0
LINE
  5
23C8
330
18
100
AcDbEntity
  8
L-1
  6
CONTINUOUS
 62
     7
100
AcDbLine
 10
56.75564352261119
 20
196.6470660498342
 30
0.0
 11
56.75564352261114
 21
73.24706604983433
 31
0.0
  0
LINE
  5
23C9
330
18
100
AcDbEntity
  8
L-1
  6
CONTINUOUS
 62
     7
100
AcDbLine
 10
111.1446439714069
 20
74.24706604983422
 30
0.0
 11
111.1446439714069
 21
195.6470660498342
 31
0.0
  0
LINE
  5
23CA
330
18
100
AcDbEntity
  8
L-1
  6
CONTINUOUS
 62
     7
100
AcDbLine
 10
108.444643971407
 20
72.74706604983421
 30
0.0
 11
108.444643971407
 21
197.1470660498342
 31
0.0
  0
DIMENSION
  5
23CB
330
18
100
AcDbEntity
  8
L-2
  6
CONTINUOUS
100
AcDbDimension
  2
*D37
 10
126.7373412522564
 20
72.74706604983421
 30
0.0
 11
124.6373412522564
 21
134.9470660498342
 31
0.0
 70
    32
  3
CAD-STD
100
AcDbAlignedDimension
 13
109.444643971407
 23
197.1470660498343
 33
0.0
 14
109.6446439714068
 24
72.74706604983421
 34
0.0
 50
90.0
100
AcDbRotatedDimension
1001
ACAD
1000
DSTYLE
1002
{
1070
   340
1005
DF3
1002
}
  0
LINE
  5
23CC
330
18
100
AcDbEntity
  8
L-1
  6
DASHED2
 62
     3
 48
0.2
100
AcDbLine
 10
109.7446439714069
 20
135.9470660498342
 30
0.0
 11
109.7446439714069
 21
164.9470660498342
 31
0.0
  0
LINE
  5
23CD
330
18
100
AcDbEntity
  8
L-1
  6
CONTINUOUS
 62
     7
100
AcDbLine
 10
68.75564352261119
 20
164.9470660498342
 30
0.0
 11
68.75564352261119
 21
135.9470660498342
 31
0.0
  0
LINE
  5
23CE
330
18
100
AcDbEntity
  8
L-1
  6
CONTINUOUS
 62
     7
100
AcDbLine
 10
58.75564352261119
 20
164.9470660498344
 30
0.0
 11
58.75564352261119
 21
135.9470660498344
 31
0.0
  0
LINE
  5
23CF
330
18
100
AcDbEntity
  8
L-1
  6
CONTINUOUS
 62
     7
100
AcDbLine
 10
70.25564352261119
 20
72.74706604983421
 30
0.0
 11
65.25564352261119
 21
72.74706604983427
 31
0.0
  0
LINE
  5
23D0
330
18
100
AcDbEntity
  8
L-1
  6
CONTINUOUS
 62
     4
100
AcDbLine
 10
42.93201780874511
 20
100.2146465851719
 30
0.0
 11
16.24382186644447
 21
100.2146465851719
 31
0.0
  0
TEXT
  5
23D1
330
18
100
AcDbEntity
  8
L-2
  6
CONTINUOUS
 62
     2
100
AcDbText
 10
18.74830135058414
 20
100.8723414534877
 30
0.0
 40
3.2
  1
材料名表示
  7
MSゴシック
100
AcDbText
  0
LINE
  5
23D2
330
18
100
AcDbEntity
  8
L-1
  6
CONTINUOUS
 62
     7
100
AcDbLine
 10
58.75564352261119
 20
133.9470660498344
 30
0.0
 11
58.75564352261119
 21
104.9470660498341
 31
0.0
  0
LINE
  5
23D3
330
18
100
AcDbEntity
  8
L-1
  6
CONTINUOUS
 62
     7
100
AcDbLine
 10
68.75564352261119
 20
133.9470660498342
 30
0.0
 11
68.75564352261119
 21
104.9470660498342
 31
0.0
  0
LEADER
  5
23D4
330
18
100
AcDbEntity
  8
L-2
  6
CONTINUOUS
 62
     4
100
AcDbLeader
  3
CAD-STD
 40
3.629148174659983
 41
32.24658008658009
 76
     2
 10
64.43897471202558
 20
88.28017915925455
 30
0.0
 10
42.93201780874511
 20
100.2146465851719
 30
0.0
1001
ACAD
1000
DSTYLE
1002
{
1070
     6
1000
OPEN
1002
}
1000
LEANOF
1010
0.0
1020
0.0
1030
0.0
  0
TEXT
  5
23D5
330
18
100
AcDbEntity
  8
L-2
  6
CONTINUOUS
 62
     2
100
AcDbText
 10
67.93728447584476
 20
83.49769584758858
 30
0.0
 40
3.0
  1
>PC<
 50
90.0
  7
MSゴシック
 72
     4
 11
66.43728447584476
 21
87.39617300494899
 31
0.0
100
AcDbText
  0
LINE
  5
23D6
330
18
100
AcDbEntity
  8
L-1
  6
CONTINUOUS
 62
     7
100
AcDbLine
 10
68.75564352261119
 20
102.9470660498342
 30
0.0
 11
68.75564352261119
 21
73.94706604983426
 31
0.0
  0
LINE
  5
23D7
330
18
100
AcDbEntity
  8
L-1
  6
CONTINUOUS
 62
     7
100
AcDbLine
 10
58.75564352261119
 20
102.9470660498341
 30
0.0
 11
58.75564352261119
 21
73.9470660498342
 31
0.0
  0
LINE
  5
23D8
330
18
100
AcDbEntity
  8
L-1
  6
DASHED2
 62
     3
 48
0.2
100
AcDbLine
 10
65.25564352261119
 20
72.74706604983427
 30
0.0
 11
62.2556435226112
 21
72.74706604983433
 31
0.0
  0
LINE
  5
23D9
330
18
100
AcDbEntity
  8
L-1
  6
CONTINUOUS
 62
     7
100
AcDbLine
 10
64.7556435226112
 20
71.5470660498342
 30
0.0
 11
62.75564352261119
 21
71.54706604983426
 31
0.0
  0
LINE
  5
23DA
330
18
100
AcDbEntity
  8
L-1
  6
CONTINUOUS
 62
     7
100
AcDbLine
 10
68.75564352261119
 20
73.94706604983426
 30
0.0
 11
58.75564352261119
 21
73.9470660498342
 31
0.0
  0
LINE
  5
23DB
330
18
100
AcDbEntity
  8
L-1
  6
CONTINUOUS
 62
     7
100
AcDbLine
 10
62.2556435226112
 20
72.74706604983433
 30
0.0
 11
62.2556435226112
 21
74.44706604983426
 31
0.0
  0
LINE
  5
23DC
330
18
100
AcDbEntity
  8
L-1
  6
CONTINUOUS
 62
     7
100
AcDbLine
 10
62.2556435226112
 20
72.74706604983433
 30
0.0
 11
57.25564352261113
 21
72.74706604983433
 31
0.0
  0
ARC
  5
23DD
330
18
100
AcDbEntity
  8
L-1
  6
CONTINUOUS
 62
     7
100
AcDbCircle
 10
57.25564352261113
 20
73.24706604983427
 30
0.0
 40
0.5
100
AcDbArc
 50
180.0
 51
270.0
  0
LINE
  5
23DE
330
18
100
AcDbEntity
  8
L-1
  6
CONTINUOUS
 62
     7
100
AcDbLine
 10
61.25564352261093
 20
72.74706604983433
 30
0.0
 11
61.25564352261091
 21
73.94706604983423
 31
0.0
  0
LINE
  5
23DF
330
18
100
AcDbEntity
  8
L-1
  6
CONTINUOUS
 62
     7
100
AcDbLine
 10
62.2556435226112
 20
72.74706604983433
 30
0.0
 11
62.2556435226112
 21
72.0470660498342
 31
0.0
  0
ARC
  5
23E0
330
18
100
AcDbEntity
  8
L-1
  6
CONTINUOUS
 62
     7
100
AcDbCircle
 10
62.75564352261113
 20
72.0470660498342
 30
0.0
 40
0.5
100
AcDbArc
 50
180.0
 51
270.0
  0
LINE
  5
23E1
330
18
100
AcDbEntity
  8
L-1
  6
CONTINUOUS
 62
     7
100
AcDbLine
 10
65.25564352261119
 20
72.74706604983421
 30
0.0
 11
65.25564352261119
 21
74.44706604983426
 31
0.0
  0
LINE
  5
23E2
330
18
100
AcDbEntity
  8
L-1
  6
CONTINUOUS
 62
     7
100
AcDbLine
 10
65.25564352261119
 20
72.74706604983427
 30
0.0
 11
65.25564352261119
 21
72.0470660498342
 31
0.0
  0
ARC
  5
23E3
330
18
100
AcDbEntity
  8
L-1
  6
CONTINUOUS
 62
     7
100
AcDbCircle
 10
64.75564352261113
 20
72.0470660498342
 30
0.0
 40
0.5
100
AcDbArc
 50
270.0
 51
0.0
  0
LINE
  5
23E4
330
18
100
AcDbEntity
  8
L-1
  6
CONTINUOUS
 62
     7
100
AcDbLine
 10
66.25564352261091
 20
72.7470660498343
 30
0.0
 11
66.25564352261091
 21
73.94706604983426
 31
0.0
  0
LINE
  5
23E5
330
18
100
AcDbEntity
  8
L-1
  6
CONTINUOUS
 62
     7
100
AcDbLine
 10
68.75564352261119
 20
104.9470660498342
 30
0.0
 11
58.75564352261119
 21
104.9470660498341
 31
0.0
  0
LINE
  5
23E6
330
18
100
AcDbEntity
  8
L-1
  6
CONTINUOUS
 62
     7
100
AcDbLine
 10
68.75564352261119
 20
102.9470660498342
 30
0.0
 11
58.75564352261119
 21
102.9470660498341
 31
0.0
  0
LINE
  5
23E7
330
18
100
AcDbEntity
  8
L-1
  6
CONTINUOUS
 62
     7
100
AcDbLine
 10
68.75564352261119
 20
135.9470660498342
 30
0.0
 11
58.75564352261119
 21
135.9470660498344
 31
0.0
  0
LINE
  5
23E8
330
18
100
AcDbEntity
  8
L-1
  6
CONTINUOUS
 62
     7
100
AcDbLine
 10
68.75564352261119
 20
133.9470660498342
 30
0.0
 11
58.75564352261119
 21
133.9470660498344
 31
0.0
  0
ARC
  5
23E9
330
18
100
AcDbEntity
  8
L-1
  6
CONTINUOUS
 62
     7
100
AcDbCircle
 10
70.25564352261113
 20
73.24706604983422
 30
0.0
 40
0.5
100
AcDbArc
 50
270.0
 51
0.0
  0
LINE
  5
23EA
330
18
100
AcDbEntity
  8
L-1
  6
DASHED2
 62
     3
 48
0.2
100
AcDbLine
 10
109.7446439714069
 20
104.9470660498342
 30
0.0
 11
109.7446439714069
 21
133.9470660498342
 31
0.0
  0
ARC
  5
23EB
330
18
100
AcDbEntity
  8
L-1
  6
CONTINUOUS
 62
     7
100
AcDbCircle
 10
109.6446439714068
 20
74.24706604983422
 30
0.0
 40
1.5
100
AcDbArc
 50
270.0
 51
0.0
  0
LINE
  5
23EC
330
18
100
AcDbEntity
  8
L-1
  6
DASHED2
 62
     3
 48
0.2
100
AcDbLine
 10
109.7446439714069
 20
74.44706604983427
 30
0.0
 11
109.7446439714069
 21
102.9470660498342
 31
0.0
  0
LINE
  5
23ED
330
18
100
AcDbEntity
  8
L-1
  6
CONTINUOUS
 62
     7
100
AcDbLine
 10
109.6446439714069
 20
72.74706604983421
 30
0.0
 11
100.4446439714069
 21
72.74706604983427
 31
0.0
  0
LINE
  5
23EE
330
18
100
AcDbEntity
  8
L-1
  6
CONTINUOUS
 62
     7
100
AcDbLine
 10
108.444643971407
 20
73.94706604983426
 30
0.0
 11
100.4446439714065
 21
73.94706604983426
 31
0.0
  0
LINE
  5
23EF
330
18
100
AcDbEntity
  8
L-1
  6
CONTINUOUS
 62
     7
100
AcDbLine
 10
100.4446439714069
 20
71.3470660498342
 30
0.0
 11
99.4446439714069
 21
71.3470660498342
 31
0.0
  0
LINE
  5
23F0
330
18
100
AcDbEntity
  8
L-1
  6
CONTINUOUS
 62
     7
100
AcDbLine
 10
100.4446439714068
 20
73.94706604983426
 30
0.0
 11
97.87926515030228
 21
73.84277323129416
 31
0.0
  0
LINE
  5
23F1
330
18
100
AcDbEntity
  8
L-1
  6
CONTINUOUS
 62
     7
100
AcDbLine
 10
99.4446439714069
 20
71.3470660498342
 30
0.0
 11
97.74788349483827
 21
72.88740822616481
 31
0.0
  0
ARC
  5
23F2
330
18
100
AcDbEntity
  8
L-1
  6
CONTINUOUS
 62
     7
100
AcDbCircle
 10
97.94464397140684
 20
73.34706604983423
 30
0.0
 40
0.5
100
AcDbArc
 50
86.38384846281182
 51
246.826238423448
  0
POINT
  5
23F3
330
18
100
AcDbEntity
  8
DEFPOINTS
  6
BYBLOCK
 62
     0
100
AcDbPoint
 10
99.4446439714069
 20
71.3470660498342
 30
0.0
  0
POINT
  5
23F4
330
18
100
AcDbEntity
  8
DEFPOINTS
  6
BYBLOCK
 62
     0
100
AcDbPoint
 10
100.4446439714069
 20
72.74706604983427
 30
0.0
  0
POINT
  5
23F5
330
18
100
AcDbEntity
  8
DEFPOINTS
  6
BYBLOCK
 62
     0
100
AcDbPoint
 10
100.4446439714068
 20
73.94706604983426
 30
0.0
  0
LINE
  5
23F6
330
18
100
AcDbEntity
  8
L-1
  6
CONTINUOUS
 62
     7
100
AcDbLine
 10
100.4446439714069
 20
72.74706604983427
 30
0.0
 11
100.4446439714069
 21
71.3470660498342
 31
0.0
  0
ARC
  5
23F7
330
18
100
AcDbEntity
  8
L-1
  6
DASHED2
 62
     3
 48
0.2
100
AcDbCircle
 10
109.2446439714069
 20
74.44706604983427
 30
0.0
 40
0.5
100
AcDbArc
 50
270.0
 51
0.0
  0
LINE
  5
23F8
330
18
100
AcDbEntity
  8
L-1
  6
DASHED2
 62
     3
 48
0.2
100
AcDbLine
 10
108.444643971407
 20
73.94706604983426
 30
0.0
 11
109.2446439714069
 21
73.94706604983428
 31
0.0
  0
LINE
  5
23F9
330
18
100
AcDbEntity
  8
L-1
  6
DASHED2
 62
     3
100
AcDbLine
 10
109.1446439714069
 20
72.74706604983421
 30
0.0
 11
109.1446439714069
 21
73.94706604983428
 31
0.0
  0
LINE
  5
23FA
330
18
100
AcDbEntity
  8
L-1
  6
DASHED2
 62
     3
 48
0.2
100
AcDbLine
 10
108.444643971407
 20
104.9470660498342
 30
0.0
 11
109.7446439714069
 21
104.9470660498342
 31
0.0
  0
LINE
  5
23FB
330
18
100
AcDbEntity
  8
L-1
  6
DASHED2
 62
     3
 48
0.2
100
AcDbLine
 10
108.444643971407
 20
102.9470660498342
 30
0.0
 11
109.7446439714069
 21
102.9470660498342
 31
0.0
  0
LINE
  5
23FC
330
18
100
AcDbEntity
  8
L-1
  6
DASHED2
 62
     3
 48
0.2
100
AcDbLine
 10
108.444643971407
 20
135.9470660498342
 30
0.0
 11
109.7446439714069
 21
135.9470660498342
 31
0.0
  0
LINE
  5
23FD
330
18
100
AcDbEntity
  8
L-1
  6
DASHED2
 62
     3
 48
0.2
100
AcDbLine
 10
108.444643971407
 20
133.9470660498342
 30
0.0
 11
109.7446439714069
 21
133.9470660498342
 31
0.0
  0
LINE
  5
23FE
330
18
100
AcDbEntity
  8
L-1
  6
CONTINUOUS
 62
     7
100
AcDbLine
 10
70.25564352261119
 20
197.1470660498343
 30
0.0
 11
65.25564352261119
 21
197.1470660498342
 31
0.0
  0
LINE
  5
23FF
330
18
100
AcDbEntity
  8
L-1
  6
CONTINUOUS
 62
     7
100
AcDbLine
 10
65.25564352261131
 20
218.9773502901739
 30
0.0
 11
70.75564352261134
 21
218.977350290174
 31
0.0
  0
DIMENSION
  5
2400
330
18
100
AcDbEntity
  8
L-2
  6
CONTINUOUS
100
AcDbDimension
  2
*D38
 10
70.75564352261134
 20
227.902447578874
 30
0.0
 11
63.75564352261131
 21
230.002447578874
 31
0.0
 70
    32
  3
CAD-STD
100
AcDbAlignedDimension
 13
56.75564352261128
 23
220.177350290174
 33
0.0
 14
70.75564352261134
 24
220.177350290174
 34
0.0
100
AcDbRotatedDimension
1001
ACAD
1000
DSTYLE
1002
{
1070
   340
1005
DF3
1002
}
  0
DIMENSION
  5
2401
330
18
100
AcDbEntity
  8
L-2
  6
CONTINUOUS
100
AcDbDimension
  2
*D39
 10
65.25564352261134
 20
201.5006152431209
 30
0.0
 11
63.75564352261132
 21
203.6006152431209
 31
0.0
 70
    32
  3
CAD-STD
100
AcDbAlignedDimension
 13
62.2556435226113
 23
208.4773502901739
 33
0.0
 14
65.25564352261134
 24
208.477350290174
 34
0.0
100
AcDbRotatedDimension
1001
ACAD
1000
DSTYLE
1002
{
1070
   340
1005
DF3
1002
}
  0
ARC
  5
2402
330
18
100
AcDbEntity
  8
L-1
  6
CONTINUOUS
 62
     7
100
AcDbCircle
 10
69.25564352261133
 20
220.177350290174
 30
0.0
 40
1.5
100
AcDbArc
 50
0.0
 51
90.0
  0
LINE
  5
2403
330
18
100
AcDbEntity
  8
L-1
  6
CONTINUOUS
 62
     7
100
AcDbLine
 10
68.75564352261119
 20
195.9470660498342
 30
0.0
 11
68.75564352261119
 21
166.9470660498342
 31
0.0
  0
LINE
  5
2404
330
18
100
AcDbEntity
  8
L-1
  6
CONTINUOUS
 62
     7
100
AcDbLine
 10
58.75564352261119
 20
195.9470660498343
 30
0.0
 11
58.75564352261119
 21
166.9470660498344
 31
0.0
  0
LINE
  5
2405
330
18
100
AcDbEntity
  8
L-1
  6
CONTINUOUS
 62
     7
100
AcDbLine
 10
68.75564352261119
 20
166.9470660498342
 30
0.0
 11
58.75564352261119
 21
166.9470660498344
 31
0.0
  0
LINE
  5
2406
330
18
100
AcDbEntity
  8
L-1
  6
CONTINUOUS
 62
     7
100
AcDbLine
 10
68.75564352261119
 20
164.9470660498342
 30
0.0
 11
58.75564352261119
 21
164.9470660498344
 31
0.0
  0
LINE
  5
2407
330
18
100
AcDbEntity
  8
L-1
  6
CONTINUOUS
 62
     7
100
AcDbLine
 10
62.25564352261134
 20
219.677350290174
 30
0.0
 11
62.2556435226113
 21
208.4773502901739
 31
0.0
  0
LINE
  5
2408
330
18
100
AcDbEntity
  8
L-1
  6
CONTINUOUS
 62
     7
100
AcDbLine
 10
65.25564352261131
 20
219.677350290174
 30
0.0
 11
65.25564352261134
 21
208.477350290174
 31
0.0
  0
LINE
  5
2409
330
18
100
AcDbEntity
  8
L-1
  6
CONTINUOUS
 62
     7
100
AcDbLine
 10
62.25564352261134
 20
210.9773502901739
 30
0.0
 11
65.25564352261134
 21
210.9773502901739
 31
0.0
  0
LINE
  5
240A
330
18
100
AcDbEntity
  8
L-1
  6
CONTINUOUS
 62
     7
100
AcDbLine
 10
62.25564352261134
 20
209.9773502901738
 30
0.0
 11
65.25564352261134
 21
209.977350290174
 31
0.0
  0
LINE
  5
240B
330
18
100
AcDbEntity
  8
L-1
  6
CONTINUOUS
 62
     7
100
AcDbLine
 10
62.75564352261134
 20
207.9773502901739
 30
0.0
 11
64.75564352261137
 21
207.977350290174
 31
0.0
  0
LINE
  5
240C
330
18
100
AcDbEntity
  8
L-1
  6
CONTINUOUS
 62
     7
100
AcDbLine
 10
64.7556435226112
 20
198.3470660498343
 30
0.0
 11
62.75564352261119
 21
198.3470660498343
 31
0.0
  0
LINE
  5
240D
330
18
100
AcDbEntity
  8
L-1
  6
DASHED2
 62
     3
 48
0.2
100
AcDbLine
 10
65.25564352261119
 20
197.1470660498342
 30
0.0
 11
62.2556435226112
 21
197.1470660498342
 31
0.0
  0
LINE
  5
240E
330
18
100
AcDbEntity
  8
L-1
  6
CONTINUOUS
 62
     7
100
AcDbLine
 10
68.75564352261119
 20
195.9470660498342
 30
0.0
 11
58.75564352261119
 21
195.9470660498343
 31
0.0
  0
LINE
  5
240F
330
18
100
AcDbEntity
  8
L-1
  6
CONTINUOUS
 62
     7
100
AcDbLine
 10
62.2556435226112
 20
197.1470660498342
 30
0.0
 11
57.25564352261113
 21
197.1470660498342
 31
0.0
  0
ARC
  5
2410
330
18
100
AcDbEntity
  8
L-1
  6
CONTINUOUS
 62
     7
100
AcDbCircle
 10
57.2556435226112
 20
196.6470660498342
 30
0.0
 40
0.5
100
AcDbArc
 50
90.0
 51
180.0
  0
LINE
  5
2411
330
18
100
AcDbEntity
  8
L-1
  6
CONTINUOUS
 62
     7
100
AcDbLine
 10
62.2556435226112
 20
197.8470660498343
 30
0.0
 11
62.2556435226112
 21
195.9470660498343
 31
0.0
  0
LINE
  5
2412
330
18
100
AcDbEntity
  8
L-1
  6
CONTINUOUS
 62
     7
100
AcDbLine
 10
61.25564352261093
 20
197.1470660498342
 30
0.0
 11
61.25564352261091
 21
195.9470660498343
 31
0.0
  0
LINE
  5
2413
330
18
100
AcDbEntity
  8
L-1
  6
CONTINUOUS
 62
     7
100
AcDbLine
 10
62.2556435226112
 20
195.9470660498343
 30
0.0
 11
62.2556435226112
 21
195.4470660498343
 31
0.0
  0
ARC
  5
2414
330
18
100
AcDbEntity
  8
L-1
  6
CONTINUOUS
 62
     7
100
AcDbCircle
 10
62.75564352261119
 20
197.8470660498343
 30
0.0
 40
0.5
100
AcDbArc
 50
90.0
 51
180.0
  0
ARC
  5
2415
330
18
100
AcDbEntity
  8
L-1
  6
CONTINUOUS
 62
     7
100
AcDbCircle
 10
62.75564352261131
 20
208.4773502901739
 30
0.0
 40
0.5
100
AcDbArc
 50
180.0
 51
270.0000000000016
  0
POINT
  5
2416
330
18
100
AcDbEntity
  8
DEFPOINTS
  6
BYBLOCK
 62
     0
100
AcDbPoint
 10
62.2556435226113
 20
208.4773502901739
 30
0.0
  0
POINT
  5
2417
330
18
100
AcDbEntity
  8
DEFPOINTS
  6
BYBLOCK
 62
     0
100
AcDbPoint
 10
62.2556435226113
 20
208.4773502901739
 30
0.0
  0
LINE
  5
2418
330
18
100
AcDbEntity
  8
L-1
  6
CONTINUOUS
 62
     7
100
AcDbLine
 10
65.25564352261119
 20
197.8470660498343
 30
0.0
 11
65.25564352261119
 21
195.9470660498343
 31
0.0
  0
LINE
  5
2419
330
18
100
AcDbEntity
  8
L-1
  6
CONTINUOUS
 62
     7
100
AcDbLine
 10
66.25564352261091
 20
197.1470660498342
 30
0.0
 11
66.25564352261091
 21
195.9470660498343
 31
0.0
  0
LINE
  5
241A
330
18
100
AcDbEntity
  8
L-1
  6
CONTINUOUS
 62
     7
100
AcDbLine
 10
65.25564352261119
 20
195.9470660498343
 30
0.0
 11
65.25564352261119
 21
195.4470660498343
 31
0.0
  0
ARC
  5
241B
330
18
100
AcDbEntity
  8
L-1
  6
CONTINUOUS
 62
     7
100
AcDbCircle
 10
64.7556435226112
 20
197.8470660498343
 30
0.0
 40
0.5
100
AcDbArc
 50
0.0
 51
90.0
  0
LINE
  5
241C
330
18
100
AcDbEntity
  8
L-1
  6
CONTINUOUS
 62
     7
100
AcDbLine
 10
65.25564352261119
 20
197.1470660498342
 30
0.0
 11
65.25564352261119
 21
197.4470660498343
 31
0.0
  0
ARC
  5
241D
330
18
100
AcDbEntity
  8
L-1
  6
CONTINUOUS
 62
     7
100
AcDbCircle
 10
64.75564352261134
 20
208.477350290174
 30
0.0
 40
0.5
100
AcDbArc
 50
270.0000000000016
 51
0.0
  0
POINT
  5
241E
330
18
100
AcDbEntity
  8
DEFPOINTS
  6
BYBLOCK
 62
     0
100
AcDbPoint
 10
65.25564352261131
 20
208.477350290174
 30
0.0
  0
POINT
  5
241F
330
18
100
AcDbEntity
  8
DEFPOINTS
  6
BYBLOCK
 62
     0
100
AcDbPoint
 10
65.25564352261131
 20
208.477350290174
 30
0.0
  0
LINE
  5
2420
330
18
100
AcDbEntity
  8
L-1
  6
CONTINUOUS
 62
     7
100
AcDbLine
 10
58.25564352261128
 20
221.677350290174
 30
0.0
 11
69.25564352261133
 21
221.677350290174
 31
0.0
  0
LINE
  5
2421
330
18
100
AcDbEntity
  8
L-1
  6
DASHED2
 62
     3
 48
0.2
100
AcDbLine
 10
58.75564352261131
 20
220.477350290174
 30
0.0
 11
68.75564352261125
 21
220.477350290174
 31
0.0
  0
LINE
  5
2422
330
18
100
AcDbEntity
  8
L-1
  6
CONTINUOUS
 62
     7
100
AcDbLine
 10
56.75564352261128
 20
218.9773502901739
 30
0.0
 11
62.2556435226113
 21
218.9773502901739
 31
0.0
  0
ARC
  5
2423
330
18
100
AcDbEntity
  8
L-1
  6
CONTINUOUS
 62
     7
100
AcDbCircle
 10
58.25564352261128
 20
220.177350290174
 30
0.0
 40
1.5
100
AcDbArc
 50
90.0
 51
180.0000000000024
  0
LINE
  5
2424
330
18
100
AcDbEntity
  8
L-1
  6
CONTINUOUS
 62
     7
100
AcDbLine
 10
56.75564352261128
 20
218.9773502901739
 30
0.0
 11
56.75564352261128
 21
220.1773502901739
 31
0.0
  0
LINE
  5
2425
330
18
100
AcDbEntity
  8
L-1
  6
DASHED2
 62
     3
 48
0.2
100
AcDbLine
 10
58.75564352261131
 20
218.9773502901739
 30
0.0
 11
58.75564352261131
 21
220.477350290174
 31
0.0
  0
LINE
  5
2426
330
18
100
AcDbEntity
  8
L-1
  6
CONTINUOUS
 62
     7
100
AcDbLine
 10
61.25564352261133
 20
219.677350290174
 30
0.0
 11
62.25564352261134
 21
219.677350290174
 31
0.0
  0
LINE
  5
2427
330
18
100
AcDbEntity
  8
L-1
  6
CONTINUOUS
 62
     7
100
AcDbLine
 10
61.25564352261133
 20
219.677350290174
 30
0.0
 11
61.25564352261133
 21
218.9773502901739
 31
0.0
  0
POINT
  5
2428
330
18
100
AcDbEntity
  8
DEFPOINTS
  6
BYBLOCK
 62
     0
100
AcDbPoint
 10
61.25564352261133
 20
218.9773502901739
 30
0.0
  0
LINE
  5
2429
330
18
100
AcDbEntity
  8
L-1
  6
DASHED2
 62
     3
 48
0.2
100
AcDbLine
 10
62.2556435226113
 20
219.677350290174
 30
0.0
 11
62.25564352261128
 21
220.477350290174
 31
0.0
  0
LINE
  5
242A
330
18
100
AcDbEntity
  8
L-1
  6
DASHED2
 62
     3
 48
0.2
100
AcDbLine
 10
65.25564352261125
 20
219.677350290174
 30
0.0
 11
65.25564352261122
 21
220.477350290174
 31
0.0
  0
LINE
  5
242B
330
18
100
AcDbEntity
  8
L-1
  6
CONTINUOUS
 62
     7
100
AcDbLine
 10
65.25564352261127
 20
219.677350290174
 30
0.0
 11
66.25564352261131
 21
219.677350290174
 31
0.0
  0
LINE
  5
242C
330
18
100
AcDbEntity
  8
L-1
  6
CONTINUOUS
 62
     7
100
AcDbLine
 10
66.25564352261131
 20
219.677350290174
 30
0.0
 11
66.25564352261131
 21
218.977350290174
 31
0.0
  0
POINT
  5
242D
330
18
100
AcDbEntity
  8
DEFPOINTS
  6
BYBLOCK
 62
     0
100
AcDbPoint
 10
66.25564352261131
 20
218.9773502901739
 30
0.0
  0
LINE
  5
242E
330
18
100
AcDbEntity
  8
L-1
  6
DASHED2
 62
     3
 48
0.2
100
AcDbLine
 10
68.75564352261136
 20
218.977350290174
 30
0.0
 11
68.75564352261125
 21
220.477350290174
 31
0.0
  0
ARC
  5
242F
330
18
100
AcDbEntity
  8
L-1
  6
CONTINUOUS
 62
     7
100
AcDbCircle
 10
70.25564352261119
 20
196.6470660498342
 30
0.0
 40
0.5
100
AcDbArc
 50
0.0
 51
90.0
  0
LINE
  5
2430
330
18
100
AcDbEntity
  8
L-1
  6
CONTINUOUS
 62
     7
100
AcDbLine
 10
70.75564352261134
 20
218.977350290174
 30
0.0
 11
70.75564352261134
 21
220.177350290174
 31
0.0
  0
LINE
  5
2431
330
18
100
AcDbEntity
  8
L-1
  6
DASHED2
 62
     3
 48
0.2
100
AcDbLine
 10
109.7446439714069
 20
166.9470660498343
 30
0.0
 11
109.7446439714069
 21
195.4470660498343
 31
0.0
  0
LINE
  5
2432
330
18
100
AcDbEntity
  8
L-1
  6
DASHED2
 62
     3
 48
0.2
100
AcDbLine
 10
108.444643971407
 20
166.9470660498342
 30
0.0
 11
109.7446439714069
 21
166.9470660498342
 31
0.0
  0
LINE
  5
2433
330
18
100
AcDbEntity
  8
L-1
  6
DASHED2
 62
     3
 48
0.2
100
AcDbLine
 10
108.444643971407
 20
164.9470660498342
 30
0.0
 11
109.7446439714069
 21
164.9470660498342
 31
0.0
  0
ARC
  5
2434
330
18
100
AcDbEntity
  8
L-1
  6
CONTINUOUS
 62
     7
100
AcDbCircle
 10
109.4724126486145
 20
195.4652038840027
 30
0.0
 40
1.682091389993235
100
AcDbArc
 50
6.206762783406773
 51
90.94590596658681
  0
DIMENSION
  5
2435
330
18
100
AcDbEntity
  8
L-2
  6
CONTINUOUS
100
AcDbDimension
  2
*D40
 10
97.44464397140689
 20
204.9768537422746
 30
0.0
 11
104.2946439714069
 21
207.0768537422746
 31
0.0
 70
    32
  3
CAD-STD
100
AcDbAlignedDimension
 13
111.1446439714069
 23
196.9319005740646
 33
0.0
 14
97.44464397140689
 24
196.5470660498342
 34
0.0
100
AcDbRotatedDimension
1001
ACAD
1000
DSTYLE
1002
{
1070
   340
1005
DF3
1002
}
  0
LINE
  5
2436
330
18
100
AcDbEntity
  8
L-1
  6
CONTINUOUS
 62
     7
100
AcDbLine
 10
108.444643971407
 20
195.9470660498343
 30
0.0
 11
100.4446439714065
 21
195.9470660498343
 31
0.0
  0
LINE
  5
2437
330
18
100
AcDbEntity
  8
L-1
  6
CONTINUOUS
 62
     7
100
AcDbLine
 10
109.444643971407
 20
197.1470660498342
 30
0.0
 11
100.4446439714069
 21
197.1470660498342
 31
0.0
  0
LINE
  5
2438
330
18
100
AcDbEntity
  8
L-1
  6
CONTINUOUS
 62
     7
100
AcDbLine
 10
100.4446439714068
 20
195.9470660498343
 30
0.0
 11
97.87926515030228
 21
196.0513588683743
 31
0.0
  0
LINE
  5
2439
330
18
100
AcDbEntity
  8
L-1
  6
CONTINUOUS
 62
     7
100
AcDbLine
 10
100.4446439714069
 20
198.5470660498343
 30
0.0
 11
99.4446439714069
 21
198.5470660498343
 31
0.0
  0
ARC
  5
243A
330
18
100
AcDbEntity
  8
L-1
  6
CONTINUOUS
 62
     7
100
AcDbCircle
 10
97.94464397140689
 20
196.5470660498342
 30
0.0
 40
0.5
100
AcDbArc
 50
113.1737615765519
 51
273.6161515371881
  0
LINE
  5
243B
330
18
100
AcDbEntity
  8
L-1
  6
CONTINUOUS
 62
     7
100
AcDbLine
 10
99.4446439714069
 20
198.5470660498343
 30
0.0
 11
97.74788349483827
 21
197.0067238735037
 31
0.0
  0
POINT
  5
243C
330
18
100
AcDbEntity
  8
DEFPOINTS
  6
BYBLOCK
 62
     0
100
AcDbPoint
 10
99.4446439714069
 20
198.5470660498343
 30
0.0
  0
POINT
  5
243D
330
18
100
AcDbEntity
  8
DEFPOINTS
  6
BYBLOCK
 62
     0
100
AcDbPoint
 10
100.4446439714068
 20
195.9470660498343
 30
0.0
  0
LINE
  5
243E
330
18
100
AcDbEntity
  8
L-1
  6
CONTINUOUS
 62
     7
100
AcDbLine
 10
100.4446439714069
 20
197.1470660498342
 30
0.0
 11
100.4446439714069
 21
198.5470660498343
 31
0.0
  0
POINT
  5
243F
330
18
100
AcDbEntity
  8
DEFPOINTS
  6
BYBLOCK
 62
     0
100
AcDbPoint
 10
100.4446439714069
 20
197.1470660498342
 30
0.0
  0
ARC
  5
2440
330
18
100
AcDbEntity
  8
L-1
  6
CONTINUOUS
 62
     3
100
AcDbCircle
 10
109.2446439714069
 20
195.4470660498343
 30
0.0
 40
0.5
100
AcDbArc
 50
0.0
 51
90.0
  0
LINE
  5
2441
330
18
100
AcDbEntity
  8
L-1
  6
CONTINUOUS
 62
     3
100
AcDbLine
 10
108.444643971407
 20
195.9470660498343
 30
0.0
 11
109.2446439714069
 21
195.9470660498343
 31
0.0
  0
ENDSEC
  0
SECTION
  2
OBJECTS
  0
DICTIONARY
  5
C
330
0
100
AcDbDictionary
  3
ACAD_GROUP
350
D
  3
ACAD_LAYOUT
350
4B
  3
ACAD_MLINESTYLE
350
E
  3
ACAD_PLOTSETTINGS
350
4C
1001
ACAD
1000
TREAT_AS_HARD
1070
     0
1000
TREAT_AS_HARD
1070
     0
1000
TREAT_AS_HARD
1070
     0
1000
TREAT_AS_HARD
1070
     0
  0
DICTIONARY
  5
ED0
330
18
100
AcDbDictionary
  3
ACAD_LAYOUTSELFREF
350
24CF
1001
ACAD
1000
TREAT_AS_HARD
1070
     1
1000
TREAT_AS_HARD
1070
     1
1000
TREAT_AS_HARD
1070
     1
  0
DICTIONARY
  5
ECE
330
15
100
AcDbDictionary
  3
ACAD_LAYOUTSELFREF
350
24CE
1001
ACAD
1000
TREAT_AS_HARD
1070
     1
1000
TREAT_AS_HARD
1070
     1
1000
TREAT_AS_HARD
1070
     1
  0
DICTIONARY
  5
D
102
{ACAD_REACTORS
330
C
102
}
330
C
100
AcDbDictionary
1001
ACAD
1000
TREAT_AS_HARD
1070
     0
1000
TREAT_AS_HARD
1070
     0
1000
TREAT_AS_HARD
1070
     0
1000
TREAT_AS_HARD
1070
     0
  0
DICTIONARY
  5
4B
102
{ACAD_REACTORS
330
C
102
}
330
C
100
AcDbDictionary
1001
ACAD
1000
TREAT_AS_HARD
1070
     0
1000
TREAT_AS_HARD
1070
     0
1000
TREAT_AS_HARD
1070
     0
1000
TREAT_AS_HARD
1070
     0
  0
DICTIONARY
  5
E
102
{ACAD_REACTORS
330
C
102
}
330
C
100
AcDbDictionary
  3
STANDARD
350
1B
1001
ACAD
1000
TREAT_AS_HARD
1070
     0
1000
TREAT_AS_HARD
1070
     0
1000
TREAT_AS_HARD
1070
     0
1000
TREAT_AS_HARD
1070
     0
  0
DICTIONARY
  5
4C
102
{ACAD_REACTORS
330
C
102
}
330
C
100
AcDbDictionary
  3
A2
350
5E
  3
A3
350
5F
  3
A4
350
60
1001
ACAD
1000
TREAT_AS_HARD
1070
     0
1000
TREAT_AS_HARD
1070
     0
1000
TREAT_AS_HARD
1070
     0
1000
TREAT_AS_HARD
1070
     0
  0
XRECORD
  5
24CF
102
{ACAD_REACTORS
330
ED0
102
}
330
ED0
100
AcDbXrecord
340
18
  0
XRECORD
  5
24CE
102
{ACAD_REACTORS
330
ECE
102
}
330
ECE
100
AcDbXrecord
340
15
  0
MLINESTYLE
  5
1B
102
{ACAD_REACTORS
330
E
102
}
330
E
100
AcDbMlineStyle
  2
STANDARD
 70
     0
  3

 62
     0
 51
90.0
 52
90.0
 71
     2
 49
0.5
 62
   256
  6
BYLAYER
 49
-0.5
 62
   256
  6
BYLAYER
  0
PLOTSETTINGS
  5
5E
102
{ACAD_REACTORS
330
4C
102
}
330
4C
100
AcDbPlotSettings
  1
A2
  2
Graphtec JC8100-A2.pc3
  4
User260
  6

 40
21.67819404602048
 41
6.649852275848387
 42
6.57928466796875
 43
6.649871826171875
 44
593.9366455078125
 45
419.9466552734373
 46
0.0
 47
-3.0
 48
0.0
 49
0.0
140
0.0
141
0.0
142
1.0
143
1.0
 70
  1712
 72
     1
 73
     0
 74
     0
  7
JC8100.ctb
 75
    16
147
1.0
148
0.0
149
0.0
  0
PLOTSETTINGS
  5
5F
102
{ACAD_REACTORS
330
4C
102
}
330
4C
100
AcDbPlotSettings
  1
A3
  2
Graphtec JC8100-A3.pc3
  4
User261
  6

 40
21.67819404602048
 41
6.649852275848387
 42
6.649871826171875
 43
6.649871826171875
 44
419.9466552734373
 45
296.9683227539062
 46
0.0
 47
0.0
 48
0.0
 49
0.0
140
0.0
141
0.0
142
1.0
143
1.0
 70
  1712
 72
     1
 73
     0
 74
     0
  7
JC8100.ctb
 75
    16
147
1.0
148
0.0
149
0.0
  0
PLOTSETTINGS
  5
60
102
{ACAD_REACTORS
330
4C
102
}
330
4C
100
AcDbPlotSettings
  1
A4
  2
Graphtec JC8100-A4.pc3
  4
User262
  6

 40
21.67819404602048
 41
6.649852275848387
 42
6.649856567382812
 43
6.649871826171875
 44
209.9733276367186
 45
296.9683227539062
 46
0.0
 47
0.0
 48
0.0
 49
0.0
140
0.0
141
0.0
142
1.0
143
1.0
 70
  1712
 72
     1
 73
     1
 74
     0
  7
JC8100.ctb
 75
    16
147
1.0
148
0.0
149
0.0
  0
ENDSEC
  0
EOF
