  0
SECTION
  2
HEADER
  9
$ACADVER
  1
AC1012
  9
$DWGCODEPAGE
  3
dos932
  9
$INSBASE
 10
0.0
 20
0.0
 30
0.0
  9
$EXTMIN
 10
-0.0072109108961058
 20
-0.0002706657102181
 30
-0.000000000000013
  9
$EXTMAX
 10
172.0122650506691
 20
271.0137086887341
 30
0.0000000000000023
  9
$LIMMIN
 10
0.0
 20
0.0
  9
$LIMMAX
 10
87.50000000000001
 20
138.0
  9
$ORTHOMODE
 70
     0
  9
$REGENMODE
 70
     1
  9
$FILLMODE
 70
     1
  9
$QTEXTMODE
 70
     0
  9
$MIRRTEXT
 70
     1
  9
$DRAGMODE
 70
     2
  9
$LTSCALE
 40
1.0
  9
$OSMODE
 70
  3071
  9
$ATTMODE
 70
     1
  9
$TEXTSIZE
 40
4.0
  9
$TRACEWID
 40
1.0
  9
$TEXTSTYLE
  7
MSゴシック
  9
$CLAYER
  8
L-2
  9
$CELTYPE
  6
CONTINUOUS
  9
$CECOLOR
 62
   256
  9
$CELTSCALE
 40
1.0
  9
$DELOBJ
 70
     1
  9
$DISPSILH
 70
     0
  9
$DIMSCALE
 40
1.0
  9
$DIMASZ
 40
2.5
  9
$DIMEXO
 40
0.5
  9
$DIMDLI
 40
8.0
  9
$DIMRND
 40
0.0
  9
$DIMDLE
 40
0.0
  9
$DIMEXE
 40
1.0
  9
$DIMTP
 40
0.0
  9
$DIMTM
 40
0.0
  9
$DIMTXT
 40
3.2
  9
$DIMCEN
 40
-0.5
  9
$DIMTSZ
 40
0.0
  9
$DIMTOL
 70
     0
  9
$DIMLIM
 70
     0
  9
$DIMTIH
 70
     0
  9
$DIMTOH
 70
     0
  9
$DIMSE1
 70
     0
  9
$DIMSE2
 70
     0
  9
$DIMTAD
 70
     1
  9
$DIMZIN
 70
     8
  9
$DIMBLK
  1

  9
$DIMASO
 70
     1
  9
$DIMSHO
 70
     1
  9
$DIMPOST
  1

  9
$DIMAPOST
  1

  9
$DIMALT
 70
     0
  9
$DIMALTD
 70
     2
  9
$DIMALTF
 40
0.0394
  9
$DIMLFAC
 40
1.0
  9
$DIMTOFL
 70
     1
  9
$DIMTVP
 40
0.0
  9
$DIMTIX
 70
     0
  9
$DIMSOXD
 70
     0
  9
$DIMSAH
 70
     1
  9
$DIMBLK1
  1
OPEN
  9
$DIMBLK2
  1
OPEN
  9
$DIMSTYLE
  2
CAD-STD
  9
$DIMCLRD
 70
     4
  9
$DIMCLRE
 70
     4
  9
$DIMCLRT
 70
     2
  9
$DIMTFAC
 40
0.625
  9
$DIMGAP
 40
0.5
  9
$DIMJUST
 70
     0
  9
$DIMSD1
 70
     0
  9
$DIMSD2
 70
     0
  9
$DIMTOLJ
 70
     1
  9
$DIMTZIN
 70
     8
  9
$DIMALTZ
 70
     0
  9
$DIMALTTZ
 70
     0
  9
$DIMFIT
 70
     3
  9
$DIMUPT
 70
     0
  9
$DIMUNIT
 70
     2
  9
$DIMDEC
 70
     4
  9
$DIMTDEC
 70
     4
  9
$DIMALTU
 70
     2
  9
$DIMALTTD
 70
     2
  9
$DIMTXSTY
  7
BGS
  9
$DIMAUNIT
 70
     0
  9
$LUNITS
 70
     2
  9
$LUPREC
 70
     4
  9
$SKETCHINC
 40
1.0
  9
$FILLETRAD
 40
0.0
  9
$AUNITS
 70
     0
  9
$AUPREC
 70
     0
  9
$MENU
  1
acad
  9
$ELEVATION
 40
0.0
  9
$PELEVATION
 40
0.0
  9
$THICKNESS
 40
0.0
  9
$LIMCHECK
 70
     0
  9
$BLIPMODE
 70
     0
  9
$CHAMFERA
 40
0.0
  9
$CHAMFERB
 40
0.0
  9
$CHAMFERC
 40
0.0
  9
$CHAMFERD
 40
0.0
  9
$SKPOLY
 70
     0
  9
$TDCREATE
 40
2453514.612524224
  9
$TDUPDATE
 40
2455659.550112847
  9
$TDINDWG
 40
0.1287042477
  9
$TDUSRTIMER
 40
0.1287036921
  9
$USRTIMER
 70
     1
  9
$ANGBASE
 50
0.0
  9
$ANGDIR
 70
     0
  9
$PDMODE
 70
     0
  9
$PDSIZE
 40
0.0
  9
$PLINEWID
 40
0.0
  9
$COORDS
 70
     0
  9
$SPLFRAME
 70
     0
  9
$SPLINETYPE
 70
     6
  9
$SPLINESEGS
 70
     8
  9
$ATTDIA
 70
     0
  9
$ATTREQ
 70
     1
  9
$HANDLING
 70
     1
  9
$HANDSEED
  5
295F
  9
$SURFTAB1
 70
     6
  9
$SURFTAB2
 70
     6
  9
$SURFTYPE
 70
     6
  9
$SURFU
 70
     6
  9
$SURFV
 70
     6
  9
$UCSNAME
  2

  9
$UCSORG
 10
0.0
 20
0.0
 30
0.0
  9
$UCSXDIR
 10
1.0
 20
0.0
 30
0.0
  9
$UCSYDIR
 10
0.0
 20
1.0
 30
0.0
  9
$PUCSNAME
  2

  9
$PUCSORG
 10
0.0
 20
0.0
 30
0.0
  9
$PUCSXDIR
 10
1.0
 20
0.0
 30
0.0
  9
$PUCSYDIR
 10
0.0
 20
1.0
 30
0.0
  9
$USERI1
 70
     0
  9
$USERI2
 70
     0
  9
$USERI3
 70
     0
  9
$USERI4
 70
     0
  9
$USERI5
 70
     0
  9
$USERR1
 40
0.0
  9
$USERR2
 40
0.0
  9
$USERR3
 40
0.0
  9
$USERR4
 40
0.0
  9
$USERR5
 40
0.0
  9
$WORLDVIEW
 70
     1
  9
$SHADEDGE
 70
     3
  9
$SHADEDIF
 70
    70
  9
$TILEMODE
 70
     1
  9
$MAXACTVP
 70
    16
  9
$PINSBASE
 10
0.0
 20
0.0
 30
0.0
  9
$PLIMCHECK
 70
     0
  9
$PEXTMIN
 10
1.000000000000000E+20
 20
1.000000000000000E+20
 30
1.000000000000000E+20
  9
$PEXTMAX
 10
-1.000000000000000E+20
 20
-1.000000000000000E+20
 30
-1.000000000000000E+20
  9
$PLIMMIN
 10
0.0
 20
0.0
  9
$PLIMMAX
 10
420.0
 20
297.0
  9
$UNITMODE
 70
     0
  9
$VISRETAIN
 70
     0
  9
$PLINEGEN
 70
     0
  9
$PSLTSCALE
 70
     1
  9
$TREEDEPTH
 70
  3020
  9
$PICKSTYLE
 70
     1
  9
$CMLSTYLE
  2
STANDARD
  9
$CMLJUST
 70
     0
  9
$CMLSCALE
 40
1.0
  9
$SAVEIMAGES
 70
     1
  0
ENDSEC
  0
SECTION
  2
CLASSES
  0
CLASS
  1
ACDBDICTIONARYWDFLT
  2
AcDbDictionaryWithDefault
  3
AutoCAD 2000
 90
    32768
280
     0
281
     0
  0
CLASS
  1
ACDBPLACEHOLDER
  2
AcDbPlaceHolder
  3
AutoCAD 2000
 90
    32768
280
     0
281
     0
  0
CLASS
  1
LAYOUT
  2
AcDbLayout
  3
AutoCAD 2000
 90
    32768
280
     0
281
     0
  0
CLASS
  1
PLOTSETTINGS
  2
AcDbPlotSettings
  3
AutoCAD 2000
 90
    32768
280
     0
281
     0
  0
CLASS
  1
DICTIONARYVAR
  2
AcDbDictionaryVar
  3
AutoCAD 2000
 90
    32768
280
     0
281
     0
  0
CLASS
  1
LONG_TRANSACTION
  2
AcDbLongTransaction
  3
AutoCAD 2000
 90
    32768
280
     0
281
     0
  0
CLASS
  1
LWPOLYLINE
  2
AcDbPolyline
  3
AutoCAD 2000
 90
    32768
280
     0
281
     1
  0
CLASS
  1
HATCH
  2
AcDbHatch
  3
AutoCAD 2000
 90
    32768
280
     0
281
     1
  0
CLASS
  1
XRECORD
  2
AcDbXrecord
  3
AutoCAD 2000
 90
    32768
280
     0
281
     0
  0
CLASS
  1
LONG_TRANSACTION
  2
AcDbLongTransaction
  3
AutoCAD 2000
 90
    32768
280
     0
281
     0
  0
CLASS
  1
LWPOLYLINE
  2
AcDbPolyline
  3
AutoCAD 2000
 90
    32768
280
     0
281
     1
  0
CLASS
  1
HATCH
  2
AcDbHatch
  3
AutoCAD 2000
 90
    32768
280
     0
281
     1
  0
CLASS
  1
XRECORD
  2
AcDbXrecord
  3
AutoCAD 2000
 90
    32768
280
     0
281
     0
  0
CLASS
  1
LONG_TRANSACTION
  2
AcDbLongTransaction
  3
AutoCAD 2000
 90
    32768
280
     0
281
     0
  0
CLASS
  1
LWPOLYLINE
  2
AcDbPolyline
  3
AutoCAD 2000
 90
    32768
280
     0
281
     1
  0
CLASS
  1
HATCH
  2
AcDbHatch
  3
AutoCAD 2000
 90
    32768
280
     0
281
     1
  0
CLASS
  1
XRECORD
  2
AcDbXrecord
  3
AutoCAD 2000
 90
    32768
280
     0
281
     0
  0
CLASS
  1
LONG_TRANSACTION
  2
AcDbLongTransaction
  3
AutoCAD 2000
 90
    32768
280
     0
281
     0
  0
CLASS
  1
LWPOLYLINE
  2
AcDbPolyline
  3
AutoCAD 2000
 90
    32768
280
     0
281
     1
  0
CLASS
  1
HATCH
  2
AcDbHatch
  3
AutoCAD 2000
 90
    32768
280
     0
281
     1
  0
CLASS
  1
XRECORD
  2
AcDbXrecord
  3
AutoCAD 2000
 90
    32768
280
     0
281
     0
  0
CLASS
  1
LONG_TRANSACTION
  2
AcDbLongTransaction
  3
AutoCAD 2000
 90
    32768
280
     0
281
     0
  0
CLASS
  1
LWPOLYLINE
  2
AcDbPolyline
  3
AutoCAD 2000
 90
    32768
280
     0
281
     1
  0
CLASS
  1
HATCH
  2
AcDbHatch
  3
AutoCAD 2000
 90
    32768
280
     0
281
     1
  0
CLASS
  1
XRECORD
  2
AcDbXrecord
  3
AutoCAD 2000
 90
    32768
280
     0
281
     0
  0
ENDSEC
  0
SECTION
  2
TABLES
  0
TABLE
  2
VPORT
  5
8
330
0
100
AcDbSymbolTable
 70
     7
  0
VPORT
  5
295C
330
8
100
AcDbSymbolTableRecord
100
AcDbViewportTableRecord
  2
*ACTIVE
 70
     0
 10
0.0
 20
0.0
 11
1.0
 21
1.0
 12
86.00252706988646
 22
135.5067190115119
 13
0.0
 23
0.0
 14
10.0
 24
10.0
 15
10.0
 25
10.0
 16
0.0
 26
0.0
 36
1.0
 17
0.0
 27
0.0
 37
0.0
 40
273.6409323045681
 41
1.822006472491909
 42
50.0
 43
0.0
 44
0.0
 50
0.0
 51
0.0
 71
     0
 72
   100
 73
     1
 74
     0
 75
     0
 76
     0
 77
     0
 78
     0
  0
ENDTAB
  0
TABLE
  2
LTYPE
  5
5
330
0
100
AcDbSymbolTable
 70
     3
  0
LTYPE
  5
12
330
5
100
AcDbSymbolTableRecord
100
AcDbLinetypeTableRecord
  2
BYBLOCK
 70
     0
  3

 72
    65
 73
     0
 40
0.0
  0
LTYPE
  5
13
330
5
100
AcDbSymbolTableRecord
100
AcDbLinetypeTableRecord
  2
BYLAYER
 70
     0
  3

 72
    65
 73
     0
 40
0.0
  0
LTYPE
  5
14
330
5
100
AcDbSymbolTableRecord
100
AcDbLinetypeTableRecord
  2
CONTINUOUS
 70
     0
  3
Solid line
 72
    65
 73
     0
 40
0.0
  0
LTYPE
  5
1F
330
5
100
AcDbSymbolTableRecord
100
AcDbLinetypeTableRecord
  2
CENTER2
 70
     0
  3
___ _ ___ _ ___ _ ___ _ ___ _ ___ _ ___ _ ___ _
 72
    65
 73
     4
 40
28.57499999999999
 49
19.05
 74
     0
 49
-3.174999999999998
 74
     0
 49
3.174999999999998
 74
     0
 49
-3.174999999999998
 74
     0
  0
LTYPE
  5
20
330
5
100
AcDbSymbolTableRecord
100
AcDbLinetypeTableRecord
  2
DASHED2
 70
     0
  3
_ _ _ _ _ _ _ _ _ _ _ _ _ _ _ _ _ _ _ _ _ _ _ _
 72
    65
 73
     2
 40
9.524999999999996
 49
6.349999999999997
 74
     0
 49
-3.174999999999998
 74
     0
  0
ENDTAB
  0
TABLE
  2
LAYER
  5
2
330
0
100
AcDbSymbolTable
 70
     6
  0
LAYER
  5
F
330
2
100
AcDbSymbolTableRecord
100
AcDbLayerTableRecord
  2
0
 70
     0
 62
     7
  6
CONTINUOUS
  0
LAYER
  5
24
330
2
100
AcDbSymbolTableRecord
100
AcDbLayerTableRecord
  2
L-1
 70
     0
 62
     7
  6
CONTINUOUS
  0
LAYER
  5
25
330
2
100
AcDbSymbolTableRecord
100
AcDbLayerTableRecord
  2
L-2
 70
     0
 62
     7
  6
CONTINUOUS
  0
LAYER
  5
26
330
2
100
AcDbSymbolTableRecord
100
AcDbLayerTableRecord
  2
L-3
 70
     0
 62
     7
  6
CONTINUOUS
  0
LAYER
  5
27
330
2
100
AcDbSymbolTableRecord
100
AcDbLayerTableRecord
  2
L-4
 70
     0
 62
     7
  6
CONTINUOUS
  0
LAYER
  5
28
330
2
100
AcDbSymbolTableRecord
100
AcDbLayerTableRecord
  2
DEFPOINTS
 70
     0
 62
     7
  6
CONTINUOUS
  0
ENDTAB
  0
TABLE
  2
STYLE
  5
3
330
0
100
AcDbSymbolTable
 70
     5
  0
STYLE
  5
10
330
3
100
AcDbSymbolTableRecord
100
AcDbTextStyleTableRecord
  2
STANDARD
 70
     0
 40
0.0
 41
1.0
 50
0.0
 71
     0
 42
3.5
  3
txt
  4

  0
STYLE
  5
1D
330
3
100
AcDbSymbolTableRecord
100
AcDbTextStyleTableRecord
  2
BGS
 70
     0
 40
0.0
 41
1.0
 50
0.0
 71
     0
 42
1.199999999999999
  3
SIMPLEX.SHX
  4
BGSGS.SHX
  0
STYLE
  5
1E
330
3
100
AcDbSymbolTableRecord
100
AcDbTextStyleTableRecord
  2
TATEGAKI
 70
     4
 40
0.0
 41
1.0
 50
0.0
 71
     0
 42
3.5
  3
SIMPLEX.SHX
  4
BGSGS.SHX
  0
STYLE
  5
75
330
3
100
AcDbSymbolTableRecord
100
AcDbTextStyleTableRecord
  2
SIMPLEX
 70
     0
 40
0.0
 41
1.0
 50
0.0
 71
     0
 42
0.2
  3
simplex
  4
bigfont
  0
STYLE
  5
DF3
330
3
100
AcDbSymbolTableRecord
100
AcDbTextStyleTableRecord
  2
MSゴシック
 70
     0
 40
0.0
 41
1.0
 50
0.0
 71
     0
 42
4.0
  3
MS Gothic.ttf
  4

1001
ACAD
1000
MS Gothic
1071
    32817
  0
ENDTAB
  0
TABLE
  2
VIEW
  5
6
330
0
100
AcDbSymbolTable
 70
     0
  0
ENDTAB
  0
TABLE
  2
UCS
  5
7
330
0
100
AcDbSymbolTable
 70
     0
  0
ENDTAB
  0
TABLE
  2
APPID
  5
9
330
0
100
AcDbSymbolTable
 70
     1
  0
APPID
  5
11
330
9
100
AcDbSymbolTableRecord
100
AcDbRegAppTableRecord
  2
ACAD
 70
     0
  0
ENDTAB
  0
TABLE
  2
DIMSTYLE
  5
A
330
0
100
AcDbSymbolTable
 70
     5
  0
DIMSTYLE
105
23
102
{ACAD_REACTORS
330
2529
330
2599
330
2861
330
2862
330
289F
330
2830
102
}
330
A
100
AcDbSymbolTableRecord
100
AcDbDimStyleTableRecord
  2
CAD-STD
 70
     0
  3

  4

  5

  6
OPEN
  7
OPEN
 40
1.0
 41
2.5
 42
0.5
 43
8.0
 44
1.0
 45
0.0
 46
0.0
 47
0.0
 48
0.0
140
3.2
141
-0.5
142
0.0
143
0.0394
144
1.0
145
0.0
146
0.625
147
0.5
 71
     0
 72
     0
 73
     0
 74
     0
 75
     0
 76
     0
 77
     1
 78
     8
170
     0
171
     2
172
     1
173
     1
174
     0
175
     0
176
     4
177
     4
178
     2
270
     2
271
     4
272
     4
273
     2
274
     2
340
1D
275
     0
280
     0
281
     0
282
     0
283
     1
284
     8
285
     0
286
     0
287
     3
288
     0
  0
DIMSTYLE
105
1D4
330
A
100
AcDbSymbolTableRecord
100
AcDbDimStyleTableRecord
  2
CAD-STD5
 70
     0
  3

  4

  5
ADARROW
  6
OPEN
  7
OPEN
 40
0.2
 41
2.5
 42
0.5
 43
8.0
 44
1.0
 45
0.0
 46
0.0
 47
0.0
 48
0.0
140
3.2
141
-0.5
142
0.0
143
0.0394
144
1.0
145
0.0
146
0.625
147
0.5
 71
     0
 72
     0
 73
     0
 74
     0
 75
     0
 76
     0
 77
     1
 78
     8
170
     0
171
     2
172
     1
173
     1
174
     0
175
     0
176
     4
177
     4
178
     2
270
     2
271
     4
272
     4
273
     2
274
     2
340
1D
275
     0
280
     0
281
     0
282
     0
283
     1
284
     8
285
     0
286
     0
287
     3
288
     0
  0
DIMSTYLE
105
DF4
330
A
100
AcDbSymbolTableRecord
100
AcDbDimStyleTableRecord
  2
CAD-STD1
 70
     0
  3

  4

  5

  6
OPEN
  7
OPEN
 40
0.5
 41
2.5
 42
0.5
 43
8.0
 44
1.0
 45
0.0
 46
0.0
 47
0.0
 48
0.0
140
3.2
141
-0.5
142
0.0
143
0.0394
144
1.0
145
0.0
146
0.625
147
0.5
 71
     0
 72
     0
 73
     0
 74
     0
 75
     0
 76
     0
 77
     1
 78
     8
170
     0
171
     2
172
     1
173
     1
174
     0
175
     0
176
     4
177
     4
178
     2
270
     2
271
     4
272
     4
273
     2
274
     2
340
1D
275
     0
280
     0
281
     0
282
     0
283
     1
284
     8
285
     0
286
     0
287
     3
288
     0
  0
DIMSTYLE
105
E16
102
{ACAD_REACTORS
330
150C
330
1561
330
1640
330
1666
102
}
330
A
100
AcDbSymbolTableRecord
100
AcDbDimStyleTableRecord
  2
CAD-STD1-1
 70
     0
  3

  4

  5

  6
OPEN
  7
OPEN
 40
0.5
 41
2.5
 42
0.5
 43
8.0
 44
1.0
 45
0.0
 46
0.0
 47
0.0
 48
0.0
140
3.2
141
-0.5
142
0.0
143
0.0394
144
1.0
145
0.0
146
0.625
147
0.5
 71
     0
 72
     0
 73
     0
 74
     0
 75
     0
 76
     0
 77
     1
 78
     8
170
     0
171
     2
172
     1
173
     1
174
     0
175
     0
176
     4
177
     4
178
     2
270
     2
271
     4
272
     4
273
     2
274
     2
340
DF3
275
     0
280
     0
281
     0
282
     0
283
     1
284
     8
285
     0
286
     0
287
     3
288
     0
  0
DIMSTYLE
105
FE3
330
A
100
AcDbSymbolTableRecord
100
AcDbDimStyleTableRecord
  2
CAD-STD2
 70
     0
  3

  4

  5
ADARROW
  6
OPEN
  7
OPEN
 40
1.0
 41
2.5
 42
0.5
 43
8.0
 44
1.0
 45
0.0
 46
0.0
 47
0.0
 48
0.0
140
3.2
141
-0.5
142
0.0
143
0.0394
144
0.5
145
0.0
146
0.625
147
0.5
 71
     0
 72
     0
 73
     0
 74
     0
 75
     0
 76
     0
 77
     1
 78
     8
170
     0
171
     2
172
     1
173
     1
174
     0
175
     0
176
     4
177
     4
178
     2
270
     2
271
     4
272
     4
273
     2
274
     2
340
1D
275
     0
280
     0
281
     0
282
     0
283
     1
284
     8
285
     0
286
     0
287
     3
288
     0
  0
ENDTAB
  0
TABLE
  2
BLOCK_RECORD
  5
1
330
0
100
AcDbSymbolTable
 70
    79
  0
BLOCK_RECORD
  5
18
102
{ACAD_XDICTIONARY
360
ED0
102
}
330
1
100
AcDbSymbolTableRecord
100
AcDbBlockTableRecord
  2
*MODEL_SPACE
  0
BLOCK_RECORD
  5
15
102
{ACAD_XDICTIONARY
360
ECE
102
}
330
1
100
AcDbSymbolTableRecord
100
AcDbBlockTableRecord
  2
*PAPER_SPACE
  0
BLOCK_RECORD
  5
1C
330
1
100
AcDbSymbolTableRecord
100
AcDbBlockTableRecord
  2
ADARROW
  0
BLOCK_RECORD
  5
35
330
1
100
AcDbSymbolTableRecord
100
AcDbBlockTableRecord
  2
_OPEN
  0
BLOCK_RECORD
  5
6D
330
1
100
AcDbSymbolTableRecord
100
AcDbBlockTableRecord
  2
TK
  0
BLOCK_RECORD
  5
76
330
1
100
AcDbSymbolTableRecord
100
AcDbBlockTableRecord
  2
A4-WAKU
  0
BLOCK_RECORD
  5
14D5
330
1
100
AcDbSymbolTableRecord
100
AcDbBlockTableRecord
  2
*D4
  0
BLOCK_RECORD
  5
14E1
330
1
100
AcDbSymbolTableRecord
100
AcDbBlockTableRecord
  2
*D5
  0
BLOCK_RECORD
  5
14ED
330
1
100
AcDbSymbolTableRecord
100
AcDbBlockTableRecord
  2
*D6
  0
BLOCK_RECORD
  5
14F9
330
1
100
AcDbSymbolTableRecord
100
AcDbBlockTableRecord
  2
*D7
  0
BLOCK_RECORD
  5
1505
330
1
100
AcDbSymbolTableRecord
100
AcDbBlockTableRecord
  2
A$C30117B11
  0
BLOCK_RECORD
  5
1F49
330
1
100
AcDbSymbolTableRecord
100
AcDbBlockTableRecord
  2
*D9
  0
BLOCK_RECORD
  5
1F71
330
1
100
AcDbSymbolTableRecord
100
AcDbBlockTableRecord
  2
*D10
  0
BLOCK_RECORD
  5
1FA2
330
1
100
AcDbSymbolTableRecord
100
AcDbBlockTableRecord
  2
*D11
  0
BLOCK_RECORD
  5
1FC1
330
1
100
AcDbSymbolTableRecord
100
AcDbBlockTableRecord
  2
*D12
  0
BLOCK_RECORD
  5
1FCE
330
1
100
AcDbSymbolTableRecord
100
AcDbBlockTableRecord
  2
*D13
  0
BLOCK_RECORD
  5
1FFF
330
1
100
AcDbSymbolTableRecord
100
AcDbBlockTableRecord
  2
*D14
  0
BLOCK_RECORD
  5
200C
330
1
100
AcDbSymbolTableRecord
100
AcDbBlockTableRecord
  2
*D15
  0
BLOCK_RECORD
  5
2019
330
1
100
AcDbSymbolTableRecord
100
AcDbBlockTableRecord
  2
*D16
  0
BLOCK_RECORD
  5
2026
330
1
100
AcDbSymbolTableRecord
100
AcDbBlockTableRecord
  2
*D17
  0
BLOCK_RECORD
  5
20C5
330
1
100
AcDbSymbolTableRecord
100
AcDbBlockTableRecord
  2
*D18
  0
BLOCK_RECORD
  5
20D1
330
1
100
AcDbSymbolTableRecord
100
AcDbBlockTableRecord
  2
*D19
  0
BLOCK_RECORD
  5
20DD
330
1
100
AcDbSymbolTableRecord
100
AcDbBlockTableRecord
  2
*D20
  0
BLOCK_RECORD
  5
20E9
330
1
100
AcDbSymbolTableRecord
100
AcDbBlockTableRecord
  2
*D21
  0
BLOCK_RECORD
  5
20F7
330
1
100
AcDbSymbolTableRecord
100
AcDbBlockTableRecord
  2
*D22
  0
BLOCK_RECORD
  5
2103
330
1
100
AcDbSymbolTableRecord
100
AcDbBlockTableRecord
  2
*D23
  0
BLOCK_RECORD
  5
210F
330
1
100
AcDbSymbolTableRecord
100
AcDbBlockTableRecord
  2
*D24
  0
BLOCK_RECORD
  5
211D
330
1
100
AcDbSymbolTableRecord
100
AcDbBlockTableRecord
  2
*D25
  0
BLOCK_RECORD
  5
212B
330
1
100
AcDbSymbolTableRecord
100
AcDbBlockTableRecord
  2
*D26
  0
BLOCK_RECORD
  5
2134
330
1
100
AcDbSymbolTableRecord
100
AcDbBlockTableRecord
  2
*D27
  0
BLOCK_RECORD
  5
213D
330
1
100
AcDbSymbolTableRecord
100
AcDbBlockTableRecord
  2
*D28
  0
BLOCK_RECORD
  5
2146
330
1
100
AcDbSymbolTableRecord
100
AcDbBlockTableRecord
  2
*D29
  0
BLOCK_RECORD
  5
2154
330
1
100
AcDbSymbolTableRecord
100
AcDbBlockTableRecord
  2
*D30
  0
BLOCK_RECORD
  5
2160
330
1
100
AcDbSymbolTableRecord
100
AcDbBlockTableRecord
  2
*D31
  0
BLOCK_RECORD
  5
216E
330
1
100
AcDbSymbolTableRecord
100
AcDbBlockTableRecord
  2
*D32
  0
BLOCK_RECORD
  5
2176
330
1
100
AcDbSymbolTableRecord
100
AcDbBlockTableRecord
  2
*D33
  0
BLOCK_RECORD
  5
2182
330
1
100
AcDbSymbolTableRecord
100
AcDbBlockTableRecord
  2
*D34
  0
BLOCK_RECORD
  5
218E
330
1
100
AcDbSymbolTableRecord
100
AcDbBlockTableRecord
  2
*D35
  0
BLOCK_RECORD
  5
237E
330
1
100
AcDbSymbolTableRecord
100
AcDbBlockTableRecord
  2
*D36
  0
BLOCK_RECORD
  5
2387
330
1
100
AcDbSymbolTableRecord
100
AcDbBlockTableRecord
  2
*D37
  0
BLOCK_RECORD
  5
2395
330
1
100
AcDbSymbolTableRecord
100
AcDbBlockTableRecord
  2
*D38
  0
BLOCK_RECORD
  5
23A1
330
1
100
AcDbSymbolTableRecord
100
AcDbBlockTableRecord
  2
*D39
  0
BLOCK_RECORD
  5
23AD
330
1
100
AcDbSymbolTableRecord
100
AcDbBlockTableRecord
  2
*D40
  0
BLOCK_RECORD
  5
23BB
330
1
100
AcDbSymbolTableRecord
100
AcDbBlockTableRecord
  2
*D41
  0
BLOCK_RECORD
  5
23C7
330
1
100
AcDbSymbolTableRecord
100
AcDbBlockTableRecord
  2
*D42
  0
BLOCK_RECORD
  5
23D0
330
1
100
AcDbSymbolTableRecord
100
AcDbBlockTableRecord
  2
*D43
  0
BLOCK_RECORD
  5
23D9
330
1
100
AcDbSymbolTableRecord
100
AcDbBlockTableRecord
  2
*D44
  0
BLOCK_RECORD
  5
23E5
330
1
100
AcDbSymbolTableRecord
100
AcDbBlockTableRecord
  2
*D45
  0
BLOCK_RECORD
  5
23F3
330
1
100
AcDbSymbolTableRecord
100
AcDbBlockTableRecord
  2
*D46
  0
BLOCK_RECORD
  5
2401
330
1
100
AcDbSymbolTableRecord
100
AcDbBlockTableRecord
  2
*D47
  0
BLOCK_RECORD
  5
2409
330
1
100
AcDbSymbolTableRecord
100
AcDbBlockTableRecord
  2
*D48
  0
BLOCK_RECORD
  5
2415
330
1
100
AcDbSymbolTableRecord
100
AcDbBlockTableRecord
  2
*D49
  0
BLOCK_RECORD
  5
2421
330
1
100
AcDbSymbolTableRecord
100
AcDbBlockTableRecord
  2
*D50
  0
BLOCK_RECORD
  5
242F
330
1
100
AcDbSymbolTableRecord
100
AcDbBlockTableRecord
  2
*D51
  0
BLOCK_RECORD
  5
243B
330
1
100
AcDbSymbolTableRecord
100
AcDbBlockTableRecord
  2
*D52
  0
BLOCK_RECORD
  5
2447
330
1
100
AcDbSymbolTableRecord
100
AcDbBlockTableRecord
  2
*D53
  0
BLOCK_RECORD
  5
250F
330
1
100
AcDbSymbolTableRecord
100
AcDbBlockTableRecord
  2
*D54
  0
BLOCK_RECORD
  5
251C
330
1
100
AcDbSymbolTableRecord
100
AcDbBlockTableRecord
  2
*D55
  0
BLOCK_RECORD
  5
2528
330
1
100
AcDbSymbolTableRecord
100
AcDbBlockTableRecord
  2
A$C4EBA5655
  0
BLOCK_RECORD
  5
258C
330
1
100
AcDbSymbolTableRecord
100
AcDbBlockTableRecord
  2
*D57
  0
BLOCK_RECORD
  5
2598
330
1
100
AcDbSymbolTableRecord
100
AcDbBlockTableRecord
  2
A$C47407C77
  0
BLOCK_RECORD
  5
2600
330
1
100
AcDbSymbolTableRecord
100
AcDbBlockTableRecord
  2
A$C27615FA6
  0
BLOCK_RECORD
  5
2664
330
1
100
AcDbSymbolTableRecord
100
AcDbBlockTableRecord
  2
*D60
  0
BLOCK_RECORD
  5
2671
330
1
100
AcDbSymbolTableRecord
100
AcDbBlockTableRecord
  2
*D61
  0
BLOCK_RECORD
  5
267E
330
1
100
AcDbSymbolTableRecord
100
AcDbBlockTableRecord
  2
*D62
  0
BLOCK_RECORD
  5
268B
330
1
100
AcDbSymbolTableRecord
100
AcDbBlockTableRecord
  2
*D63
  0
BLOCK_RECORD
  5
2698
330
1
100
AcDbSymbolTableRecord
100
AcDbBlockTableRecord
  2
*D64
  0
BLOCK_RECORD
  5
26AB
330
1
100
AcDbSymbolTableRecord
100
AcDbBlockTableRecord
  2
*D65
  0
BLOCK_RECORD
  5
26BC
330
1
100
AcDbSymbolTableRecord
100
AcDbBlockTableRecord
  2
*D66
  0
BLOCK_RECORD
  5
26C9
330
1
100
AcDbSymbolTableRecord
100
AcDbBlockTableRecord
  2
*D67
  0
BLOCK_RECORD
  5
26D6
330
1
100
AcDbSymbolTableRecord
100
AcDbBlockTableRecord
  2
*D68
  0
BLOCK_RECORD
  5
2740
330
1
100
AcDbSymbolTableRecord
100
AcDbBlockTableRecord
  2
*X69
  0
BLOCK_RECORD
  5
2779
330
1
100
AcDbSymbolTableRecord
100
AcDbBlockTableRecord
  2
*D70
  0
BLOCK_RECORD
  5
2785
330
1
100
AcDbSymbolTableRecord
100
AcDbBlockTableRecord
  2
*D71
  0
BLOCK_RECORD
  5
2791
330
1
100
AcDbSymbolTableRecord
100
AcDbBlockTableRecord
  2
*D72
  0
BLOCK_RECORD
  5
279D
330
1
100
AcDbSymbolTableRecord
100
AcDbBlockTableRecord
  2
*D73
  0
BLOCK_RECORD
  5
28B1
330
1
100
AcDbSymbolTableRecord
100
AcDbBlockTableRecord
  2
*D75
  0
BLOCK_RECORD
  5
28BF
330
1
100
AcDbSymbolTableRecord
100
AcDbBlockTableRecord
  2
*D76
  0
BLOCK_RECORD
  5
28CB
330
1
100
AcDbSymbolTableRecord
100
AcDbBlockTableRecord
  2
*D77
  0
BLOCK_RECORD
  5
28D7
330
1
100
AcDbSymbolTableRecord
100
AcDbBlockTableRecord
  2
*D78
  0
ENDTAB
  0
ENDSEC
  0
SECTION
  2
BLOCKS
  0
BLOCK
  5
2B
330
18
100
AcDbEntity
  8
0
100
AcDbBlockBegin
  2
*MODEL_SPACE
 70
     0
 10
0.0
 20
0.0
 30
0.0
  3
*MODEL_SPACE
  1

  0
ENDBLK
  5
2C
330
18
100
AcDbEntity
  8
0
100
AcDbBlockEnd
  0
BLOCK
  5
29
330
15
100
AcDbEntity
 67
     1
  8
0
100
AcDbBlockBegin
  2
*PAPER_SPACE
 70
     0
 10
0.0
 20
0.0
 30
0.0
  3
*PAPER_SPACE
  1

  0
ENDBLK
  5
2A
330
15
100
AcDbEntity
 67
     1
  8
0
100
AcDbBlockEnd
  0
BLOCK
  5
2D
330
1C
100
AcDbEntity
  8
0
100
AcDbBlockBegin
  2
ADARROW
 70
     0
 10
0.0
 20
0.0
 30
0.0
  3
ADARROW
  1

  0
LINE
  5
2E
330
1C
100
AcDbEntity
  8
0
  6
BYBLOCK
 62
     0
100
AcDbLine
 10
0.0
 20
0.0
 30
0.0
 11
-0.9659258262890659
 21
-0.2588190451025127
 31
0.0
  0
LINE
  5
2F
330
1C
100
AcDbEntity
  8
0
  6
BYBLOCK
 62
     0
100
AcDbLine
 10
-1.0
 20
0.0
 30
0.0
 11
0.0
 21
0.0
 31
0.0
  0
LINE
  5
30
330
1C
100
AcDbEntity
  8
0
  6
BYBLOCK
 62
     0
100
AcDbLine
 10
0.0
 20
0.0
 30
0.0
 11
-0.9659258262890659
 21
0.2588190451025127
 31
0.0
  0
ENDBLK
  5
31
330
1C
100
AcDbEntity
  8
0
100
AcDbBlockEnd
  0
BLOCK
  5
36
330
35
100
AcDbEntity
  8
0
100
AcDbBlockBegin
  2
_OPEN
 70
     0
 10
0.0
 20
0.0
 30
0.0
  3
_OPEN
  1

  0
LINE
  5
37
330
35
100
AcDbEntity
  8
0
  6
BYBLOCK
 62
     0
100
AcDbLine
 10
-1.0
 20
0.1666666666666666
 30
0.0
 11
0.0
 21
0.0
 31
0.0
  0
LINE
  5
38
330
35
100
AcDbEntity
  8
0
  6
BYBLOCK
 62
     0
100
AcDbLine
 10
0.0
 20
0.0
 30
0.0
 11
-1.0
 21
-0.1666666666666666
 31
0.0
  0
LINE
  5
39
330
35
100
AcDbEntity
  8
0
  6
BYBLOCK
 62
     0
100
AcDbLine
 10
0.0
 20
0.0
 30
0.0
 11
-1.0
 21
0.0
 31
0.0
  0
ENDBLK
  5
3A
330
35
100
AcDbEntity
  8
0
100
AcDbBlockEnd
  0
BLOCK
  5
73
330
6D
100
AcDbEntity
  8
0
100
AcDbBlockBegin
  2
TK
 70
     0
 10
0.0
 20
0.0
 30
0.0
  3
TK
  1

  0
TEXT
  5
6E
330
6D
100
AcDbEntity
  8
0
  6
CONTINUOUS
 62
     2
100
AcDbText
 10
-8.056255308109312
 20
-1.428396170613345
 30
0.0
 40
2.7
  1
ＴＫ
  7
BGS
100
AcDbText
  0
LINE
  5
6F
330
6D
100
AcDbEntity
  8
0
  6
CONTINUOUS
 62
     2
100
AcDbLine
 10
-10.09705202413073
 20
0.1332646889774125
 30
0.0
 11
-5.095052024130723
 21
3.133264688977412
 31
0.0
  0
LINE
  5
70
330
6D
100
AcDbEntity
  8
0
  6
CONTINUOUS
 62
     2
100
AcDbLine
 10
-10.09705202413073
 20
0.1332646889774125
 30
0.0
 11
-5.095052024130723
 21
-2.866735311022586
 31
0.0
  0
LINE
  5
71
330
6D
100
AcDbEntity
  8
0
  6
CONTINUOUS
 62
     2
100
AcDbLine
 10
-5.095052024130723
 20
3.133264688977412
 30
0.0
 11
-0.0970520241307327
 21
0.1332646889774125
 31
0.0
  0
LINE
  5
72
330
6D
100
AcDbEntity
  8
0
  6
CONTINUOUS
 62
     2
100
AcDbLine
 10
-5.095052024130723
 20
-2.866735311022586
 30
0.0
 11
-0.0970520241307327
 21
0.1332646889774125
 31
0.0
  0
ENDBLK
  5
74
330
6D
100
AcDbEntity
  8
0
100
AcDbBlockEnd
  0
BLOCK
  5
C4
330
76
100
AcDbEntity
  8
0
100
AcDbBlockBegin
  2
A4-WAKU
 70
     0
 10
0.0
 20
0.0
 30
0.0
  3
A4-WAKU
  1

  0
LINE
  5
77
330
76
100
AcDbEntity
  8
L-1
  6
CONTINUOUS
 62
     5
100
AcDbLine
 10
175.0
 20
276.0
 30
0.0
 11
175.0
 21
5.0
 31
0.0
  0
TEXT
  5
78
330
76
100
AcDbEntity
  8
L-1
  6
CONTINUOUS
 62
     2
100
AcDbText
 10
25.51982666386348
 20
40.48557956418045
 30
0.0
 40
4.0
  1
日
  7
BGS
100
AcDbText
  0
TEXT
  5
79
330
76
100
AcDbEntity
  8
L-1
  6
CONTINUOUS
 62
     2
100
AcDbText
 10
21.78413318765412
 20
40.34055118110043
 30
0.0
 40
4.0
  1
月
  7
BGS
100
AcDbText
  0
LINE
  5
7A
330
76
100
AcDbEntity
  8
L-1
  6
CONTINUOUS
 62
     4
100
AcDbLine
 10
1.0
 20
254.0
 30
0.0
 11
4.0
 21
254.0
 31
0.0
  0
LINE
  5
7B
330
76
100
AcDbEntity
  8
L-1
  6
CONTINUOUS
 62
     5
100
AcDbLine
 10
4.0
 20
276.0
 30
0.0
 11
175.0
 21
276.0
 31
0.0
  0
LINE
  5
7C
330
76
100
AcDbEntity
  8
L-1
  6
CONTINUOUS
 62
     4
100
AcDbLine
 10
13.0
 20
205.0
 30
0.0
 11
10.0
 21
205.0
 31
0.0
  0
LINE
  5
7D
330
76
100
AcDbEntity
  8
L-1
  6
CONTINUOUS
 62
     4
100
AcDbLine
 10
13.0
 20
155.0
 30
0.0
 11
10.0
 21
155.0
 31
0.0
  0
LINE
  5
7E
330
76
100
AcDbEntity
  8
L-1
  6
CONTINUOUS
 62
     4
100
AcDbLine
 10
13.0
 20
105.0
 30
0.0
 11
10.0
 21
105.0
 31
0.0
  0
LINE
  5
7F
330
76
100
AcDbEntity
  8
L-1
  6
CONTINUOUS
 62
     4
100
AcDbLine
 10
13.0
 20
55.0
 30
0.0
 11
10.0
 21
55.0
 31
0.0
  0
LINE
  5
80
330
76
100
AcDbEntity
  8
L-1
  6
CONTINUOUS
 62
     4
100
AcDbLine
 10
13.0
 20
10.0
 30
0.0
 11
14.50000000000001
 21
10.0
 31
0.0
  0
LINE
  5
81
330
76
100
AcDbEntity
  8
L-1
  6
CONTINUOUS
 62
     4
100
AcDbLine
 10
13.0
 20
15.0
 30
0.0
 11
14.50000000000001
 21
15.0
 31
0.0
  0
LINE
  5
82
330
76
100
AcDbEntity
  8
L-1
  6
CONTINUOUS
 62
     4
100
AcDbLine
 10
65.50000000000003
 20
10.0
 30
0.0
 11
99.00000000000005
 21
10.0
 31
0.0
  0
LINE
  5
83
330
76
100
AcDbEntity
  8
L-1
  6
CONTINUOUS
 62
     4
100
AcDbLine
 10
65.50000000000003
 20
15.0
 30
0.0
 11
99.00000000000005
 21
15.0
 31
0.0
  0
LINE
  5
84
330
76
100
AcDbEntity
  8
L-1
  6
CONTINUOUS
 62
     4
100
AcDbLine
 10
18.00000000000001
 20
45.0
 30
0.0
 11
18.00000000000001
 21
5.0
 31
0.0
  0
TEXT
  5
85
330
76
100
AcDbEntity
  8
L-1
  6
CONTINUOUS
 62
     2
100
AcDbText
 10
12.33594443568463
 20
28.90349080870413
 30
0.0
 40
2.5
  1
１
 50
90.0
  7
SIMPLEX
100
AcDbText
  0
TEXT
  5
86
330
76
100
AcDbEntity
  8
L-1
  6
CONTINUOUS
 62
     2
100
AcDbText
 10
12.4960066029666
 20
128.981664164384
 30
0.0
 40
2.5
  1
３
 50
90.0
  7
SIMPLEX
100
AcDbText
  0
TEXT
  5
87
330
76
100
AcDbEntity
  8
L-1
  6
CONTINUOUS
 62
     2
100
AcDbText
 10
12.56483456188263
 20
210.8786191506581
 30
0.0
 40
2.5
  1
５
 50
90.0
  7
SIMPLEX
100
AcDbText
  0
TEXT
  5
88
330
76
100
AcDbEntity
  8
L-1
  6
CONTINUOUS
 62
     2
100
AcDbText
 10
12.55253622995047
 20
78.83862042903198
 30
0.0
 40
2.5
  1
２
 50
90.0
  7
SIMPLEX
100
AcDbText
  0
TEXT
  5
89
330
76
100
AcDbEntity
  8
L-1
  6
CONTINUOUS
 62
     2
100
AcDbText
 10
3.554498689493498
 20
265.2816564608174
 30
0.0
 40
2.5
  1
6
 50
90.0
  7
SIMPLEX
100
AcDbText
  0
TEXT
  5
8A
330
76
100
AcDbEntity
  8
L-1
  6
CONTINUOUS
 62
     2
100
AcDbText
 10
12.57275293031169
 20
178.8894255851591
 30
0.0
 40
2.5
  1
４
 50
90.0
  7
SIMPLEX
100
AcDbText
  0
LINE
  5
8B
330
76
100
AcDbEntity
  8
L-1
  6
CONTINUOUS
 62
     4
100
AcDbLine
 10
155.0
 20
276.0
 30
0.0
 11
155.0
 21
274.5
 31
0.0
  0
LINE
  5
8C
330
76
100
AcDbEntity
  8
L-1
  6
CONTINUOUS
 62
     4
100
AcDbLine
 10
143.0
 20
276.0
 30
0.0
 11
143.0
 21
274.5
 31
0.0
  0
LINE
  5
8D
330
76
100
AcDbEntity
  8
L-1
  6
CONTINUOUS
 62
     4
100
AcDbLine
 10
108.0
 20
276.0
 30
0.0
 11
108.0
 21
274.5
 31
0.0
  0
LINE
  5
8E
330
76
100
AcDbEntity
  8
L-1
  6
CONTINUOUS
 62
     4
100
AcDbLine
 10
73.00000000000003
 20
276.0
 30
0.0
 11
73.00000000000003
 21
274.5
 31
0.0
  0
LINE
  5
8F
330
76
100
AcDbEntity
  8
L-1
  6
CONTINUOUS
 62
     4
100
AcDbLine
 10
25.00000000000003
 20
276.0
 30
0.0
 11
25.00000000000003
 21
274.5
 31
0.0
  0
LINE
  5
90
330
76
100
AcDbEntity
  8
L-1
  6
CONTINUOUS
 62
     4
100
AcDbLine
 10
65.50000000000003
 20
20.0
 30
0.0
 11
99.00000000000005
 21
20.0
 31
0.0
  0
LINE
  5
91
330
76
100
AcDbEntity
  8
L-1
  6
CONTINUOUS
 62
     4
100
AcDbLine
 10
65.50000000000003
 20
25.0
 30
0.0
 11
99.00000000000005
 21
25.0
 31
0.0
  0
LINE
  5
92
330
76
100
AcDbEntity
  8
L-1
  6
CONTINUOUS
 62
     4
100
AcDbLine
 10
65.50000000000003
 20
30.0
 30
0.0
 11
67.00000000000001
 21
30.0
 31
0.0
  0
LINE
  5
93
330
76
100
AcDbEntity
  8
L-1
  6
CONTINUOUS
 62
     4
100
AcDbLine
 10
65.50000000000003
 20
35.0
 30
0.0
 11
67.00000000000001
 21
35.0
 31
0.0
  0
LINE
  5
94
330
76
100
AcDbEntity
  8
L-1
  6
CONTINUOUS
 62
     4
100
AcDbLine
 10
13.0
 20
20.0
 30
0.0
 11
14.50000000000001
 21
20.0
 31
0.0
  0
LINE
  5
95
330
76
100
AcDbEntity
  8
L-1
  6
CONTINUOUS
 62
     4
100
AcDbLine
 10
13.0
 20
25.0
 30
0.0
 11
14.50000000000001
 21
25.0
 31
0.0
  0
LINE
  5
96
330
76
100
AcDbEntity
  8
L-1
  6
CONTINUOUS
 62
     4
100
AcDbLine
 10
13.0
 20
30.0
 30
0.0
 11
14.50000000000001
 21
30.0
 31
0.0
  0
LINE
  5
97
330
76
100
AcDbEntity
  8
L-1
  6
CONTINUOUS
 62
     4
100
AcDbLine
 10
13.0
 20
35.0
 30
0.0
 11
14.50000000000001
 21
35.0
 31
0.0
  0
LINE
  5
98
330
76
100
AcDbEntity
  8
L-1
  6
CONTINUOUS
 62
     4
100
AcDbLine
 10
173.5
 20
240.0
 30
0.0
 11
175.0
 21
240.0
 31
0.0
  0
LINE
  5
99
330
76
100
AcDbEntity
  8
L-1
  6
CONTINUOUS
 62
     4
100
AcDbLine
 10
173.5
 20
246.0
 30
0.0
 11
175.0
 21
246.0
 31
0.0
  0
LINE
  5
9A
330
76
100
AcDbEntity
  8
L-1
  6
CONTINUOUS
 62
     4
100
AcDbLine
 10
173.5
 20
252.0
 30
0.0
 11
175.0
 21
252.0
 31
0.0
  0
LINE
  5
9B
330
76
100
AcDbEntity
  8
L-1
  6
CONTINUOUS
 62
     4
100
AcDbLine
 10
173.5
 20
258.0
 30
0.0
 11
175.0
 21
258.0
 31
0.0
  0
LINE
  5
9C
330
76
100
AcDbEntity
  8
L-1
  6
CONTINUOUS
 62
     4
100
AcDbLine
 10
173.5
 20
264.0
 30
0.0
 11
175.0
 21
264.0
 31
0.0
  0
LINE
  5
9D
330
76
100
AcDbEntity
  8
L-1
  6
CONTINUOUS
 62
     4
100
AcDbLine
 10
173.5
 20
270.0
 30
0.0
 11
175.0
 21
270.0
 31
0.0
  0
LINE
  5
9E
330
76
100
AcDbEntity
  8
L-1
  6
CONTINUOUS
 62
     5
100
AcDbLine
 10
13.0
 20
5.0
 30
0.0
 11
174.0
 21
5.0
 31
0.0
  0
LINE
  5
9F
330
76
100
AcDbEntity
  8
L-1
  6
CONTINUOUS
 62
     4
100
AcDbLine
 10
13.0
 20
40.0
 30
0.0
 11
99.00000000000005
 21
40.0
 31
0.0
  0
LINE
  5
A0
330
76
100
AcDbEntity
  8
L-1
  6
CONTINUOUS
 62
     5
100
AcDbLine
 10
174.0
 20
5.0
 30
0.0
 11
175.0
 21
5.0
 31
0.0
  0
LINE
  5
A1
330
76
100
AcDbEntity
  8
L-1
  6
CONTINUOUS
 62
     5
100
AcDbLine
 10
13.0
 20
45.0
 30
0.0
 11
175.0
 21
45.0
 31
0.0
  0
LINE
  5
A2
330
76
100
AcDbEntity
  8
L-1
  6
CONTINUOUS
 62
     5
100
AcDbLine
 10
99.00000000000005
 20
45.0
 30
0.0
 11
99.00000000000005
 21
5.0
 31
0.0
  0
LINE
  5
A3
330
76
100
AcDbEntity
  8
L-1
  6
CONTINUOUS
 62
     5
100
AcDbLine
 10
99.00000000000005
 20
30.0
 30
0.0
 11
67.00000000000001
 21
30.0
 31
0.0
  0
LINE
  5
A4
330
76
100
AcDbEntity
  8
L-1
  6
CONTINUOUS
 62
     5
100
AcDbLine
 10
67.00000000000001
 20
45.0
 30
0.0
 11
67.00000000000001
 21
5.0
 31
0.0
  0
LINE
  5
A5
330
76
100
AcDbEntity
  8
L-1
  6
CONTINUOUS
 62
     4
100
AcDbLine
 10
79.00000000000003
 20
5.0
 30
0.0
 11
79.00000000000003
 21
30.0
 31
0.0
  0
LINE
  5
A6
330
76
100
AcDbEntity
  8
L-1
  6
CONTINUOUS
 62
     4
100
AcDbLine
 10
30.00000000000003
 20
45.0
 30
0.0
 11
30.00000000000003
 21
5.0
 31
0.0
  0
LINE
  5
A7
330
76
100
AcDbEntity
  8
L-1
  6
CONTINUOUS
 62
     4
100
AcDbLine
 10
83.00000000000002
 20
45.0
 30
0.0
 11
83.00000000000002
 21
30.0
 31
0.0
  0
LINE
  5
A8
330
76
100
AcDbEntity
  8
L-1
  6
CONTINUOUS
 62
     4
100
AcDbLine
 10
106.0
 20
45.0
 30
0.0
 11
106.0
 21
13.0
 31
0.0
  0
LINE
  5
A9
330
76
100
AcDbEntity
  8
L-1
  6
CONTINUOUS
 62
     5
100
AcDbLine
 10
168.0
 20
13.0
 30
0.0
 11
99.00000000000005
 21
13.0
 31
0.0
  0
LINE
  5
AA
330
76
100
AcDbEntity
  8
L-1
  6
CONTINUOUS
 62
     5
100
AcDbLine
 10
99.00000000000005
 20
23.0
 30
0.0
 11
175.0
 21
23.0
 31
0.0
  0
TEXT
  5
AB
330
76
100
AcDbEntity
  8
L-1
  6
CONTINUOUS
 62
     2
100
AcDbText
 10
13.73633407825005
 20
40.88600988829688
 30
0.0
 40
4.0
  1
版
  7
SIMPLEX
100
AcDbText
  0
TEXT
  5
AC
330
76
100
AcDbEntity
  8
L-1
  6
CONTINUOUS
 62
     2
100
AcDbText
 10
18.31827862391562
 20
40.48864676798925
 30
0.0
 40
4.0
  1
年
  7
SIMPLEX
100
AcDbText
  0
TEXT
  5
AD
330
76
100
AcDbEntity
  8
L-1
  6
CONTINUOUS
 62
     2
100
AcDbText
 10
68.40818119793235
 20
40.42657997500692
 30
0.0
 40
4.0
  1
単　位
  7
SIMPLEX
100
AcDbText
  0
TEXT
  5
AE
330
76
100
AcDbEntity
  8
L-1
  6
CONTINUOUS
 62
     2
100
AcDbText
 10
84.39167448190941
 20
40.51632995442071
 30
0.0
 40
4.0
  1
尺　度
  7
SIMPLEX
100
AcDbText
  0
TEXT
  5
AF
330
76
100
AcDbEntity
  8
L-1
  6
CONTINUOUS
 62
     2
100
AcDbText
 10
67.72808678626168
 20
25.4781175608814
 30
0.0
 40
4.0
  1
設　
  7
SIMPLEX
100
AcDbText
  0
TEXT
  5
B0
330
76
100
AcDbEntity
  8
L-1
  6
CONTINUOUS
 62
     2
100
AcDbText
 10
67.72808678626168
 20
20.5790148324433
 30
0.0
 40
4.0
  1
製　
  7
SIMPLEX
100
AcDbText
  0
TEXT
  5
B1
330
76
100
AcDbEntity
  8
L-1
  6
CONTINUOUS
 62
     2
100
AcDbText
 10
67.53731904982217
 20
15.67991210400521
 30
0.0
 40
4.0
  1
担　
  7
SIMPLEX
100
AcDbText
  0
TEXT
  5
B2
330
76
100
AcDbEntity
  8
L-1
  6
CONTINUOUS
 62
     2
100
AcDbText
 10
67.53731904982217
 20
10.59238234755025
 30
0.0
 40
4.0
  1
査　
  7
SIMPLEX
100
AcDbText
  0
TEXT
  5
B3
330
76
100
AcDbEntity
  8
L-1
  6
CONTINUOUS
 62
     2
100
AcDbText
 10
67.53731904982217
 20
5.334370994318135
 30
0.0
 40
4.0
  1
承　
  7
SIMPLEX
100
AcDbText
  0
TEXT
  5
B4
330
76
100
AcDbEntity
  8
L-1
  6
CONTINUOUS
 62
     2
100
AcDbText
 10
100.8491991555794
 20
38.58592748580645
 30
0.0
 40
4.0
  1
名
  7
SIMPLEX
100
AcDbText
  0
TEXT
  5
B5
330
76
100
AcDbEntity
  8
L-1
  6
CONTINUOUS
 62
     2
100
AcDbText
 10
100.6731058604048
 20
25.692135140082
 30
0.0
 40
4.0
  1
称
  7
SIMPLEX
100
AcDbText
  0
TEXT
  5
B6
330
76
100
AcDbEntity
  8
L-1
  6
CONTINUOUS
 62
     2
100
AcDbText
 10
100.6755949747158
 20
18.62614659479538
 30
0.0
 40
4.0
  1
図
  7
SIMPLEX
100
AcDbText
  0
TEXT
  5
B7
330
76
100
AcDbEntity
  8
L-1
  6
CONTINUOUS
 62
     2
100
AcDbText
 10
100.5440507327229
 20
13.57876986972488
 30
0.0
 40
4.0
  1
番
  7
SIMPLEX
100
AcDbText
  0
TEXT
  5
B8
330
76
100
AcDbEntity
  8
L-1
  6
CONTINUOUS
 62
     2
100
AcDbText
 10
111.3258231448179
 20
6.906702520217492
 30
0.0
 40
4.299999999999998
  1
東京通信機工業株式会社
  7
SIMPLEX
100
AcDbText
  0
TEXT
  5
B9
330
76
100
AcDbEntity
  8
L-1
  6
CONTINUOUS
 62
     2
100
AcDbText
 10
32.42607918624222
 20
40.49654267289059
 30
0.0
 40
4.0
  1
変　更　事　項
  7
SIMPLEX
100
AcDbText
  0
LINE
  5
BA
330
76
100
AcDbEntity
  8
L-1
  6
CONTINUOUS
 62
     5
100
AcDbLine
 10
13.0
 20
5.0
 30
0.0
 11
13.0
 21
276.0
 31
0.0
  0
TEXT
  5
BB
330
76
100
AcDbEntity
  8
L-1
  6
CONTINUOUS
 62
     2
100
AcDbText
 10
74.59912344388661
 20
25.38182109503256
 30
0.0
 40
4.0
  1
計
  7
BGS
100
AcDbText
  0
TEXT
  5
BC
330
76
100
AcDbEntity
  8
L-1
  6
CONTINUOUS
 62
     2
100
AcDbText
 10
74.35617159743995
 20
20.46605475187192
 30
0.0
 40
4.0
  1
図
  7
BGS
100
AcDbText
  0
TEXT
  5
BD
330
76
100
AcDbEntity
  8
L-1
  6
CONTINUOUS
 62
     2
100
AcDbText
 10
74.40034466043029
 20
15.37472532502692
 30
0.0
 40
4.0
  1
当
  7
BGS
100
AcDbText
  0
TEXT
  5
BE
330
76
100
AcDbEntity
  8
L-1
  6
CONTINUOUS
 62
     2
100
AcDbText
 10
74.35617159743995
 20
10.33741530854638
 30
0.0
 40
4.0
  1
閲
  7
BGS
100
AcDbText
  0
TEXT
  5
BF
330
76
100
AcDbEntity
  8
L-1
  6
CONTINUOUS
 62
     2
100
AcDbText
 10
74.35617159743995
 20
5.313610144656933
 30
0.0
 40
4.0
  1
認
  7
BGS
100
AcDbText
  0
LINE
  5
C0
330
76
100
AcDbEntity
  8
L-1
  6
CONTINUOUS
 62
     5
100
AcDbLine
 10
168.0
 20
5.0
 30
0.0
 11
168.0
 21
23.0
 31
0.0
  0
LINE
  5
C1
330
76
100
AcDbEntity
  8
L-1
  6
CONTINUOUS
 62
     5
100
AcDbLine
 10
4.0
 20
216.0
 30
0.0
 11
13.0
 21
216.0
 31
0.0
  0
LINE
  5
C2
330
76
100
AcDbEntity
  8
L-1
  6
CONTINUOUS
 62
     5
100
AcDbLine
 10
4.0
 20
216.0
 30
0.0
 11
4.0
 21
276.0
 31
0.0
  0
INSERT
  5
C3
330
76
100
AcDbEntity
  8
L-1
  6
CONTINUOUS
 62
     7
100
AcDbBlockReference
  2
TK
 10
110.1811598834469
 20
8.949003766123523
 30
0.0
  0
ENDBLK
  5
C5
330
76
100
AcDbEntity
  8
0
100
AcDbBlockEnd
  0
BLOCK
  5
14DF
330
14D5
100
AcDbEntity
  8
0
 62
     7
100
AcDbBlockBegin
  2
*D4
 70
     1
 10
0.0
 20
0.0
 30
0.0
  3
*D4
  1

  0
LINE
  5
14D6
330
14D5
100
AcDbEntity
  8
L-2
  6
CONTINUOUS
 62
     4
100
AcDbLine
 10
61.46734821828528
 20
67.32793078861718
 30
0.0
 11
76.26441274756301
 21
67.32793078861718
 31
0.0
  0
LINE
  5
14D7
330
14D5
100
AcDbEntity
  8
L-2
  6
CONTINUOUS
 62
     4
100
AcDbLine
 10
61.46734821828528
 20
76.92793078861715
 30
0.0
 11
76.26441274756301
 21
76.92793078861715
 31
0.0
  0
LINE
  5
14D8
330
14D5
100
AcDbEntity
  8
L-2
  6
CONTINUOUS
 62
     4
100
AcDbLine
 10
75.76441274756303
 20
68.57793078861718
 30
0.0
 11
75.76441274756303
 21
75.67793078861715
 31
0.0
  0
INSERT
  5
14D9
330
14D5
100
AcDbEntity
  8
L-2
  6
CONTINUOUS
 62
     4
100
AcDbBlockReference
  2
_OPEN
 10
75.76441274756303
 20
67.32793078861718
 30
0.0
 41
1.25
 42
1.25
 43
1.25
 50
270.0
  0
INSERT
  5
14DA
330
14D5
100
AcDbEntity
  8
L-2
  6
CONTINUOUS
 62
     4
100
AcDbBlockReference
  2
_OPEN
 10
75.76441274756303
 20
76.92793078861715
 30
0.0
 41
1.25
 42
1.25
 43
1.25
 50
90.0
  0
MTEXT
  5
14DB
330
14D5
100
AcDbEntity
  8
L-2
  6
CONTINUOUS
 62
     2
100
AcDbMText
 10
74.71441274756301
 20
72.12793078861719
 30
0.0
 40
1.6
 41
0.0
 71
     5
 72
     1
  1
\A1;9.6
  7
MSゴシック
 11
0.0000000000000001
 21
1.0
 31
0.0
1001
ACAD
1000
MTEXTBEGIN
1070
    73
1070
     1
1070
    44
1040
1.0
1070
    74
1070
     0
1000
MTEXTEND
1000
MTEXTBEGIN
1070
    73
1070
     1
1070
    44
1040
1.0
1070
    74
1070
     0
1000
MTEXTEND
1000
MTEXTBEGIN
1070
    73
1070
     1
1070
    44
1040
1.0
1070
    74
1070
     0
1000
MTEXTEND
1000
MTEXTBEGIN
1070
    73
1070
     1
1070
    44
1040
1.0
1070
    74
1070
     0
1000
MTEXTEND
  0
POINT
  5
14DC
330
14D5
100
AcDbEntity
  8
DEFPOINTS
  6
CONTINUOUS
 62
     0
100
AcDbPoint
 10
61.21734821828528
 20
67.32793078861718
 30
0.0
  0
POINT
  5
14DD
330
14D5
100
AcDbEntity
  8
DEFPOINTS
  6
CONTINUOUS
 62
     0
100
AcDbPoint
 10
61.21734821828528
 20
76.92793078861715
 30
0.0
  0
POINT
  5
14DE
330
14D5
100
AcDbEntity
  8
DEFPOINTS
  6
CONTINUOUS
 62
     0
100
AcDbPoint
 10
75.76441274756303
 20
76.92793078861715
 30
0.0
  0
ENDBLK
  5
14E0
330
14D5
100
AcDbEntity
  8
0
 62
     7
100
AcDbBlockEnd
  0
BLOCK
  5
14EB
330
14E1
100
AcDbEntity
  8
0
 62
     7
100
AcDbBlockBegin
  2
*D5
 70
     1
 10
0.0
 20
0.0
 30
0.0
  3
*D5
  1

  0
LINE
  5
14E2
330
14E1
100
AcDbEntity
  8
L-2
  6
CONTINUOUS
 62
     4
100
AcDbLine
 10
54.96734821828521
 20
87.55091940274892
 30
0.0
 11
76.0255795776993
 21
87.55091940274892
 31
0.0
  0
LINE
  5
14E3
330
14E1
100
AcDbEntity
  8
L-2
  6
CONTINUOUS
 62
     4
100
AcDbLine
 10
54.96734821828529
 20
94.05091940274898
 30
0.0
 11
76.0255795776993
 21
94.05091940274898
 31
0.0
  0
LINE
  5
14E4
330
14E1
100
AcDbEntity
  8
L-2
  6
CONTINUOUS
 62
     4
100
AcDbLine
 10
75.52557957769931
 20
88.80091940274892
 30
0.0
 11
75.52557957769931
 21
92.80091940274898
 31
0.0
  0
INSERT
  5
14E5
330
14E1
100
AcDbEntity
  8
L-2
  6
CONTINUOUS
 62
     4
100
AcDbBlockReference
  2
_OPEN
 10
75.52557957769931
 20
87.55091940274892
 30
0.0
 41
1.25
 42
1.25
 43
1.25
 50
270.0
  0
INSERT
  5
14E6
330
14E1
100
AcDbEntity
  8
L-2
  6
CONTINUOUS
 62
     4
100
AcDbBlockReference
  2
_OPEN
 10
75.52557957769931
 20
94.05091940274898
 30
0.0
 41
1.25
 42
1.25
 43
1.25
 50
90.0
  0
MTEXT
  5
14E7
330
14E1
100
AcDbEntity
  8
L-2
  6
CONTINUOUS
 62
     2
100
AcDbMText
 10
74.47557957769929
 20
90.80091940274895
 30
0.0
 40
1.6
 41
0.0
 71
     5
 72
     1
  1
\A1;6.5
  7
MSゴシック
 11
0.0000000000000001
 21
1.0
 31
0.0
1001
ACAD
1000
MTEXTBEGIN
1070
    73
1070
     1
1070
    44
1040
1.0
1070
    74
1070
     0
1000
MTEXTEND
1000
MTEXTBEGIN
1070
    73
1070
     1
1070
    44
1040
1.0
1070
    74
1070
     0
1000
MTEXTEND
1000
MTEXTBEGIN
1070
    73
1070
     1
1070
    44
1040
1.0
1070
    74
1070
     0
1000
MTEXTEND
1000
MTEXTBEGIN
1070
    73
1070
     1
1070
    44
1040
1.0
1070
    74
1070
     0
1000
MTEXTEND
  0
POINT
  5
14E8
330
14E1
100
AcDbEntity
  8
DEFPOINTS
  6
CONTINUOUS
 62
     0
100
AcDbPoint
 10
54.71734821828521
 20
87.55091940274892
 30
0.0
  0
POINT
  5
14E9
330
14E1
100
AcDbEntity
  8
DEFPOINTS
  6
CONTINUOUS
 62
     0
100
AcDbPoint
 10
54.7173482182853
 20
94.05091940274898
 30
0.0
  0
POINT
  5
14EA
330
14E1
100
AcDbEntity
  8
DEFPOINTS
  6
CONTINUOUS
 62
     0
100
AcDbPoint
 10
75.52557957769931
 20
94.05091940274898
 30
0.0
  0
ENDBLK
  5
14EC
330
14E1
100
AcDbEntity
  8
0
 62
     7
100
AcDbBlockEnd
  0
BLOCK
  5
14F7
330
14ED
100
AcDbEntity
  8
0
 62
     7
100
AcDbBlockBegin
  2
*D6
 70
     1
 10
0.0
 20
0.0
 30
0.0
  3
*D6
  1

  0
LINE
  5
14EE
330
14ED
100
AcDbEntity
  8
L-2
  6
CONTINUOUS
 62
     4
100
AcDbLine
 10
67.21734821828528
 20
91.55091940274898
 30
0.0
 11
67.21734821828528
 21
100.1046545532304
 31
0.0
  0
LINE
  5
14EF
330
14ED
100
AcDbEntity
  8
L-2
  6
CONTINUOUS
 62
     4
100
AcDbLine
 10
38.21734821828535
 20
92.30091940274894
 30
0.0
 11
38.21734821828535
 21
100.1046545532304
 31
0.0
  0
LINE
  5
14F0
330
14ED
100
AcDbEntity
  8
L-2
  6
CONTINUOUS
 62
     4
100
AcDbLine
 10
65.96734821828528
 20
99.60465455323054
 30
0.0
 11
39.46734821828535
 21
99.60465455323054
 31
0.0
  0
INSERT
  5
14F1
330
14ED
100
AcDbEntity
  8
L-2
  6
CONTINUOUS
 62
     4
100
AcDbBlockReference
  2
_OPEN
 10
67.21734821828528
 20
99.60465455323054
 30
0.0
 41
1.25
 42
1.25
 43
1.25
  0
INSERT
  5
14F2
330
14ED
100
AcDbEntity
  8
L-2
  6
CONTINUOUS
 62
     4
100
AcDbBlockReference
  2
_OPEN
 10
38.21734821828535
 20
99.60465455323054
 30
0.0
 41
1.25
 42
1.25
 43
1.25
 50
180.0
  0
MTEXT
  5
14F3
330
14ED
100
AcDbEntity
  8
L-2
  6
CONTINUOUS
 62
     2
100
AcDbMText
 10
52.7173482182853
 20
100.6546545532305
 30
0.0
 40
1.6
 41
0.0
 71
     5
 72
     1
  1
\A1;29
  7
MSゴシック
1001
ACAD
1000
MTEXTBEGIN
1070
    73
1070
     1
1070
    44
1040
1.0
1070
    74
1070
     0
1000
MTEXTEND
1000
MTEXTBEGIN
1070
    73
1070
     1
1070
    44
1040
1.0
1070
    74
1070
     0
1000
MTEXTEND
1000
MTEXTBEGIN
1070
    73
1070
     1
1070
    44
1040
1.0
1070
    74
1070
     0
1000
MTEXTEND
1000
MTEXTBEGIN
1070
    73
1070
     1
1070
    44
1040
1.0
1070
    74
1070
     0
1000
MTEXTEND
  0
POINT
  5
14F4
330
14ED
100
AcDbEntity
  8
DEFPOINTS
  6
CONTINUOUS
 62
     0
100
AcDbPoint
 10
67.21734821828528
 20
91.30091940274899
 30
0.0
  0
POINT
  5
14F5
330
14ED
100
AcDbEntity
  8
DEFPOINTS
  6
CONTINUOUS
 62
     0
100
AcDbPoint
 10
38.21734821828535
 20
92.05091940274895
 30
0.0
  0
POINT
  5
14F6
330
14ED
100
AcDbEntity
  8
DEFPOINTS
  6
CONTINUOUS
 62
     0
100
AcDbPoint
 10
38.21734821828535
 20
99.60465455323054
 30
0.0
  0
ENDBLK
  5
14F8
330
14ED
100
AcDbEntity
  8
0
 62
     7
100
AcDbBlockEnd
  0
BLOCK
  5
1503
330
14F9
100
AcDbEntity
  8
0
100
AcDbBlockBegin
  2
*D7
 70
     1
 10
0.0
 20
0.0
 30
0.0
  3
*D7
  1

  0
LINE
  5
14FA
330
14F9
100
AcDbEntity
  8
L-2
  6
CONTINUOUS
 62
     4
100
AcDbLine
 10
27.00603663706603
 20
91.700919402749
 30
0.0
 11
27.00603663706603
 21
100.1046545532304
 31
0.0
  0
LINE
  5
14FB
330
14F9
100
AcDbEntity
  8
L-2
  6
CONTINUOUS
 62
     4
100
AcDbLine
 10
38.21734821828535
 20
91.700919402749
 30
0.0
 11
38.21734821828535
 21
100.1046545532304
 31
0.0
  0
LINE
  5
14FC
330
14F9
100
AcDbEntity
  8
L-2
  6
CONTINUOUS
 62
     4
100
AcDbLine
 10
28.25603663706603
 20
99.60465455323054
 30
0.0
 11
36.96734821828535
 21
99.60465455323054
 31
0.0
  0
INSERT
  5
14FD
330
14F9
100
AcDbEntity
  8
L-2
  6
CONTINUOUS
 62
     4
100
AcDbBlockReference
  2
_OPEN
 10
27.00603663706603
 20
99.60465455323054
 30
0.0
 41
1.25
 42
1.25
 43
1.25
 50
180.0
  0
INSERT
  5
14FE
330
14F9
100
AcDbEntity
  8
L-2
  6
CONTINUOUS
 62
     4
100
AcDbBlockReference
  2
_OPEN
 10
38.21734821828535
 20
99.60465455323054
 30
0.0
 41
1.25
 42
1.25
 43
1.25
  0
MTEXT
  5
14FF
330
14F9
100
AcDbEntity
  8
L-2
  6
CONTINUOUS
 62
     2
100
AcDbMText
 10
32.6116924276757
 20
100.7480555684588
 30
0.0
 40
1.6
 41
0.0
 71
     5
 72
     1
  1
\A1;（700）
  7
MSゴシック
1001
ACAD
1000
MTEXTBEGIN
1070
    73
1070
     1
1070
    44
1040
1.0
1070
    74
1070
     0
1000
MTEXTEND
1000
MTEXTBEGIN
1070
    73
1070
     1
1070
    44
1040
1.0
1070
    74
1070
     0
1000
MTEXTEND
1000
MTEXTBEGIN
1070
    73
1070
     1
1070
    44
1040
1.0
1070
    74
1070
     0
1000
MTEXTEND
1000
MTEXTBEGIN
1070
    73
1070
     1
1070
    44
1040
1.0
1070
    74
1070
     0
1000
MTEXTEND
  0
POINT
  5
1500
330
14F9
100
AcDbEntity
  8
DEFPOINTS
  6
CONTINUOUS
 62
     0
100
AcDbPoint
 10
27.00603663706603
 20
91.450919402749
 30
0.0
  0
POINT
  5
1501
330
14F9
100
AcDbEntity
  8
DEFPOINTS
  6
CONTINUOUS
 62
     0
100
AcDbPoint
 10
38.21734821828535
 20
91.45091940274898
 30
0.0
  0
POINT
  5
1502
330
14F9
100
AcDbEntity
  8
DEFPOINTS
  6
CONTINUOUS
 62
     0
100
AcDbPoint
 10
38.21734821828535
 20
99.60465455323054
 30
0.0
  0
ENDBLK
  5
1504
330
14F9
100
AcDbEntity
  8
0
100
AcDbBlockEnd
  0
BLOCK
  5
1688
330
1505
100
AcDbEntity
  8
0
100
AcDbBlockBegin
  2
A$C30117B11
 70
     0
 10
0.0
 20
0.0
 30
0.0
  3
A$C30117B11
  1

  0
LINE
  5
1506
330
1505
100
AcDbEntity
  8
L-1
  6
CONTINUOUS
 62
     5
100
AcDbLine
 10
0.0000001503934755
 20
0.0000000878506512
 30
0.0
 11
85.00000015039349
 21
0.0000000878506512
 31
0.0
  0
LINE
  5
1507
330
1505
100
AcDbEntity
  8
L-1
  6
CONTINUOUS
 62
     5
100
AcDbLine
 10
0.0000001503934755
 20
135.5000000878503
 30
0.0
 11
85.5000001503935
 21
135.5000000878503
 31
0.0
  0
LINE
  5
1508
330
1505
100
AcDbEntity
  8
L-1
  6
CONTINUOUS
 62
     7
100
AcDbLine
 10
52.71734836867877
 20
91.55091949059963
 30
0.0
 11
41.21734836867878
 21
91.55091949059963
 31
0.0
  0
LINE
  5
1509
330
1505
100
AcDbEntity
  8
L-1
  6
CENTER2
 62
     1
 48
0.3
100
AcDbLine
 10
65.75310564997074
 20
88.3009194905996
 30
0.0
 11
34.35377431800237
 21
88.3009194905996
 31
0.0
  0
LINE
  5
150A
330
1505
100
AcDbEntity
  8
L-1
  6
CONTINUOUS
 62
     7
100
AcDbLine
 10
59.21734836867877
 20
116.8826224506162
 30
0.0
 11
41.21734836867878
 21
116.8826224506162
 31
0.0
  0
LINE
  5
150B
330
1505
100
AcDbEntity
  8
L-1
  6
CONTINUOUS
 62
     7
100
AcDbLine
 10
59.21734836867877
 20
107.2826224506163
 30
0.0
 11
41.21734836867878
 21
107.2826224506163
 31
0.0
  0
DIMENSION
  5
150C
330
1505
100
AcDbEntity
  8
L-2
  6
CONTINUOUS
100
AcDbDimension
  2
*D6
 10
36.21734836867883
 20
97.1046546410812
 30
0.0
 11
50.71734836867879
 21
98.15465464108116
 31
0.0
 12
-1.999999849606524
 22
-2.499999912149348
 32
0.0
  3
CAD-STD1-1
100
AcDbAlignedDimension
 13
65.21734836867875
 23
88.80091949059965
 33
0.0
 14
36.21734836867883
 24
89.5509194905996
 34
0.0
 50
180.0
100
AcDbRotatedDimension
  0
LINE
  5
150D
330
1505
100
AcDbEntity
  8
L-1
  6
CONTINUOUS
 62
     7
100
AcDbLine
 10
52.71734836867868
 20
85.05091949059957
 30
0.0
 11
41.21734836867878
 21
85.05091949059957
 31
0.0
  0
TEXT
  5
150E
330
1505
100
AcDbEntity
  8
L-2
  6
CONTINUOUS
 62
     5
100
AcDbText
 10
42.21092385981399
 20
72.87247682568434
 30
0.0
 40
2.0
  1
MT20
 50
270.0
 41
1.3
  7
MSゴシック
100
AcDbText
  0
LINE
  5
150F
330
1505
100
AcDbEntity
  8
L-1
  6
CONTINUOUS
 62
     7
100
AcDbLine
 10
59.21734836867877
 20
64.82793087646783
 30
0.0
 11
41.21734836867875
 21
64.82793087646783
 31
0.0
  0
LINE
  5
1510
330
1505
100
AcDbEntity
  8
L-1
  6
CONTINUOUS
 62
     7
100
AcDbLine
 10
59.21734836867877
 20
74.4279308764678
 30
0.0
 11
41.21734836867875
 21
74.4279308764678
 31
0.0
  0
LINE
  5
1511
330
1505
100
AcDbEntity
  8
L-2
  6
CONTINUOUS
 62
     4
100
AcDbLine
 10
58.59540290346965
 20
61.38997526324299
 30
0.0
 11
36.52697496577582
 21
61.38997526324299
 31
0.0
  0
LINE
  5
1512
330
1505
100
AcDbEntity
  8
L-1
  6
CONTINUOUS
 62
     5
100
AcDbLine
 10
0.0000001503934755
 20
0.0000000878506512
 30
0.0
 11
0.0000001503934755
 21
135.5000000878503
 31
0.0
  0
TEXT
  5
1513
330
1505
100
AcDbEntity
  8
L-2
  6
CONTINUOUS
 62
     2
100
AcDbText
 10
17.06788362753198
 20
66.41096095223794
 30
0.0
 40
1.199999999999999
  1
OUT2（黄）
  7
MSゴシック
 72
     4
 11
20.96636078489239
 21
66.96527567305013
 31
0.0
100
AcDbText
  0
POLYLINE
  5
1514
330
1505
100
AcDbEntity
  8
L-1
  6
CONTINUOUS
 62
     3
100
AcDb2dPolyline
 66
     1
 10
0.0
 20
0.0
 30
0.0
 70
     2
  0
VERTEX
  5
1515
330
1514
100
AcDbEntity
  8
L-1
  6
CONTINUOUS
 62
     3
100
AcDbVertex
100
AcDb2dVertex
 10
31.30963313093778
 20
66.42793087646785
 30
0.0
 42
-0.0438764955251235
  0
VERTEX
  5
1516
330
1514
100
AcDbEntity
  8
L-1
  6
CONTINUOUS
 62
     3
100
AcDbVertex
100
AcDb2dVertex
 10
31.23811955138724
 20
66.62329811726802
 30
0.0
 42
-0.0694411009133329
 70
     1
  0
VERTEX
  5
1517
330
1514
100
AcDbEntity
  8
L-1
  6
CONTINUOUS
 62
     3
100
AcDbVertex
100
AcDb2dVertex
 10
31.22174315498774
 20
66.7541104808414
 30
0.0
 42
-0.1183875812258901
  0
VERTEX
  5
1518
330
1514
100
AcDbEntity
  8
L-1
  6
CONTINUOUS
 62
     3
100
AcDbVertex
100
AcDb2dVertex
 10
31.30052809423323
 20
67.06292040490906
 30
0.0
 42
0.1140489613631568
 70
     1
  0
VERTEX
  5
1519
330
1514
100
AcDbEntity
  8
L-1
  6
CONTINUOUS
 62
     3
100
AcDbVertex
100
AcDb2dVertex
 10
31.38496754025974
 20
67.38244797736328
 30
0.0
 42
0.0615614585235404
  0
VERTEX
  5
151A
330
1514
100
AcDbEntity
  8
L-1
  6
CONTINUOUS
 62
     3
100
AcDbVertex
100
AcDb2dVertex
 10
31.37192625398071
 20
67.52422403197215
 30
0.0
 42
0.0410594091454475
 70
     1
  0
VERTEX
  5
151B
330
1514
100
AcDbEntity
  8
L-1
  6
CONTINUOUS
 62
     3
100
AcDbVertex
100
AcDb2dVertex
 10
31.30963313093778
 20
67.72793087646785
 30
0.0
  0
SEQEND
  5
151C
330
1514
100
AcDbEntity
  8
L-1
  6
CONTINUOUS
 62
     3
  0
POLYLINE
  5
151D
330
1505
100
AcDbEntity
  8
L-1
  6
CONTINUOUS
 62
     3
100
AcDb2dPolyline
 66
     1
 10
0.0
 20
0.0
 30
0.0
 70
     2
  0
VERTEX
  5
151E
330
151D
100
AcDbEntity
  8
L-1
  6
CONTINUOUS
 62
     3
100
AcDbVertex
100
AcDb2dVertex
 10
31.99407185154715
 20
66.42793087646785
 30
0.0
 42
-0.0438764955251235
  0
VERTEX
  5
151F
330
151D
100
AcDbEntity
  8
L-1
  6
CONTINUOUS
 62
     3
100
AcDbVertex
100
AcDb2dVertex
 10
31.92255827199661
 20
66.62329811726802
 30
0.0
 42
-0.0694411009133329
 70
     1
  0
VERTEX
  5
1520
330
151D
100
AcDbEntity
  8
L-1
  6
CONTINUOUS
 62
     3
100
AcDbVertex
100
AcDb2dVertex
 10
31.90618187559712
 20
66.7541104808414
 30
0.0
 42
-0.1183875812258901
  0
VERTEX
  5
1521
330
151D
100
AcDbEntity
  8
L-1
  6
CONTINUOUS
 62
     3
100
AcDbVertex
100
AcDb2dVertex
 10
31.98496681484257
 20
67.06292040490906
 30
0.0
 42
0.1140489613631568
 70
     1
  0
VERTEX
  5
1522
330
151D
100
AcDbEntity
  8
L-1
  6
CONTINUOUS
 62
     3
100
AcDbVertex
100
AcDb2dVertex
 10
32.06940626086906
 20
67.38244797736328
 30
0.0
 42
0.0615614585235404
  0
VERTEX
  5
1523
330
151D
100
AcDbEntity
  8
L-1
  6
CONTINUOUS
 62
     3
100
AcDbVertex
100
AcDb2dVertex
 10
32.05636497459009
 20
67.52422403197215
 30
0.0
 42
0.0410594091454475
 70
     1
  0
VERTEX
  5
1524
330
151D
100
AcDbEntity
  8
L-1
  6
CONTINUOUS
 62
     3
100
AcDbVertex
100
AcDb2dVertex
 10
31.99407185154715
 20
67.72793087646785
 30
0.0
  0
SEQEND
  5
1525
330
151D
100
AcDbEntity
  8
L-1
  6
CONTINUOUS
 62
     3
  0
LINE
  5
1526
330
1505
100
AcDbEntity
  8
L-1
  6
CONTINUOUS
 62
     7
100
AcDbLine
 10
25.00603678745948
 20
66.42793087646785
 30
0.0
 11
25.0060367874595
 21
67.72793087646785
 31
0.0
  0
LINE
  5
1527
330
1505
100
AcDbEntity
  8
L-1
  6
CONTINUOUS
 62
     7
100
AcDbLine
 10
40.21734836867874
 20
74.4279308764678
 30
0.0
 11
40.21734836867874
 21
64.82793087646783
 31
0.0
  0
LINE
  5
1528
330
1505
100
AcDbEntity
  8
L-1
  6
CONTINUOUS
 62
     7
100
AcDbLine
 10
39.21734836867875
 20
74.4279308764678
 30
0.0
 11
39.21734836867875
 21
64.82793087646783
 31
0.0
  0
LINE
  5
1529
330
1505
100
AcDbEntity
  8
L-1
  6
CONTINUOUS
 62
     7
100
AcDbLine
 10
41.21734836867875
 20
74.4279308764678
 30
0.0
 11
41.21734836867875
 21
64.82793087646783
 31
0.0
  0
LINE
  5
152A
330
1505
100
AcDbEntity
  8
L-1
  6
CONTINUOUS
 62
     7
100
AcDbLine
 10
38.21734836867875
 20
74.4279308764678
 30
0.0
 11
38.21734836867875
 21
64.82793087646783
 31
0.0
  0
LINE
  5
152B
330
1505
100
AcDbEntity
  8
L-1
  6
CONTINUOUS
 62
     7
100
AcDbLine
 10
37.21734836867875
 20
74.4279308764678
 30
0.0
 11
37.21734836867875
 21
64.82793087646783
 31
0.0
  0
LINE
  5
152C
330
1505
100
AcDbEntity
  8
L-1
  6
CONTINUOUS
 62
     7
100
AcDbLine
 10
36.21734836867879
 20
72.92793087646785
 30
0.0
 11
36.21734836867879
 21
66.32793087646785
 31
0.0
  0
LINE
  5
152D
330
1505
100
AcDbEntity
  8
L-1
  6
CONTINUOUS
 62
     7
100
AcDbLine
 10
31.30963313093778
 20
66.42793087646785
 30
0.0
 11
25.0060367874595
 21
66.42793087646785
 31
0.0
  0
LINE
  5
152E
330
1505
100
AcDbEntity
  8
L-1
  6
CONTINUOUS
 62
     7
100
AcDbLine
 10
36.21734836867883
 20
66.42793087646785
 30
0.0
 11
31.99407185154715
 21
66.42793087646785
 31
0.0
  0
LINE
  5
152F
330
1505
100
AcDbEntity
  8
L-1
  6
CONTINUOUS
 62
     7
100
AcDbLine
 10
38.21734836867875
 20
65.82793087646784
 30
0.0
 11
39.21734836867875
 21
65.82793087646784
 31
0.0
  0
LINE
  5
1530
330
1505
100
AcDbEntity
  8
L-1
  6
CONTINUOUS
 62
     7
100
AcDbLine
 10
36.71734836867882
 20
65.82793087646784
 30
0.0
 11
37.21734836867875
 21
65.82793087646784
 31
0.0
  0
LINE
  5
1531
330
1505
100
AcDbEntity
  8
L-2
  6
CONTINUOUS
 62
     4
100
AcDbLine
 10
36.52697496577582
 20
61.38997526324299
 30
0.0
 11
35.95613196517907
 21
62.42638598876775
 31
0.0
  0
ARC
  5
1532
330
1505
100
AcDbEntity
  8
L-1
  6
CONTINUOUS
 62
     7
100
AcDbCircle
 10
36.71734836867882
 20
66.32793087646786
 30
0.0
 40
0.5
100
AcDbArc
 50
180.0
 51
270.0
  0
LINE
  5
1533
330
1505
100
AcDbEntity
  8
L-1
  6
CONTINUOUS
 62
     7
100
AcDbLine
 10
38.21734836867875
 20
64.82793087646783
 30
0.0
 11
37.21734836867875
 21
64.82793087646783
 31
0.0
  0
LINE
  5
1534
330
1505
100
AcDbEntity
  8
L-1
  6
CONTINUOUS
 62
     7
100
AcDbLine
 10
40.21734836867874
 20
65.82793087646784
 30
0.0
 11
41.21734836867875
 21
65.82793087646784
 31
0.0
  0
LINE
  5
1535
330
1505
100
AcDbEntity
  8
L-1
  6
CONTINUOUS
 62
     7
100
AcDbLine
 10
40.21734836867874
 20
64.82793087646783
 30
0.0
 11
39.21734836867875
 21
64.82793087646783
 31
0.0
  0
LINE
  5
1536
330
1505
100
AcDbEntity
  8
L-1
  6
CONTINUOUS
 62
     7
100
AcDbLine
 10
17.97543961237894
 20
116.8826224506162
 30
0.0
 11
12.47543961237894
 21
116.8826224506162
 31
0.0
  0
LINE
  5
1537
330
1505
100
AcDbEntity
  8
L-1
  6
CONTINUOUS
 62
     7
100
AcDbLine
 10
16.47543961237894
 20
115.8826224506162
 30
0.0
 11
13.97543961237894
 21
115.8826224506162
 31
0.0
  0
LINE
  5
1538
330
1505
100
AcDbEntity
  8
L-1
  6
CONTINUOUS
 62
     7
100
AcDbLine
 10
17.97543961237897
 20
107.2826224506163
 30
0.0
 11
12.47543961237894
 21
107.2826224506163
 31
0.0
  0
LINE
  5
1539
330
1505
100
AcDbEntity
  8
L-1
  6
CONTINUOUS
 62
     7
100
AcDbLine
 10
16.47543961237897
 20
108.2826224506163
 30
0.0
 11
13.97543961237894
 21
108.2826224506163
 31
0.0
  0
LINE
  5
153A
330
1505
100
AcDbEntity
  8
L-1
  6
CONTINUOUS
 62
     7
100
AcDbLine
 10
13.47543961237894
 20
108.7826224506162
 30
0.0
 11
13.47543961237894
 21
115.3826224506163
 31
0.0
  0
LINE
  5
153B
330
1505
100
AcDbEntity
  8
L-1
  6
CONTINUOUS
 62
     7
100
AcDbLine
 10
12.97543961237894
 20
107.7826224506162
 30
0.0
 11
12.97543961237894
 21
116.3826224506163
 31
0.0
  0
LINE
  5
153C
330
1505
100
AcDbEntity
  8
L-1
  6
CONTINUOUS
 62
     7
100
AcDbLine
 10
11.97543961237893
 20
107.7826224506162
 30
0.0
 11
11.97543961237893
 21
116.3826224506163
 31
0.0
  0
ARC
  5
153D
330
1505
100
AcDbEntity
  8
L-1
  6
CONTINUOUS
 62
     7
100
AcDbCircle
 10
12.47543961237894
 20
107.7826224506162
 30
0.0
 40
0.5
100
AcDbArc
 50
180.0
 51
270.0
  0
ARC
  5
153E
330
1505
100
AcDbEntity
  8
L-1
  6
CONTINUOUS
 62
     7
100
AcDbCircle
 10
13.97543961237894
 20
108.7826224506162
 30
0.0
 40
0.5
100
AcDbArc
 50
180.0
 51
270.0
  0
ARC
  5
153F
330
1505
100
AcDbEntity
  8
L-1
  6
CONTINUOUS
 62
     7
100
AcDbCircle
 10
13.47543961237894
 20
107.7826224506162
 30
0.0
 40
0.5
100
AcDbArc
 50
180.0
 51
270.0
  0
ARC
  5
1540
330
1505
100
AcDbEntity
  8
L-1
  6
CONTINUOUS
 62
     7
100
AcDbCircle
 10
12.47543961237894
 20
116.3826224506163
 30
0.0
 40
0.5
100
AcDbArc
 50
90.0
 51
180.0
  0
ARC
  5
1541
330
1505
100
AcDbEntity
  8
L-1
  6
CONTINUOUS
 62
     7
100
AcDbCircle
 10
13.97543961237894
 20
115.3826224506163
 30
0.0
 40
0.5
100
AcDbArc
 50
90.0
 51
180.0
  0
ARC
  5
1542
330
1505
100
AcDbEntity
  8
L-1
  6
CONTINUOUS
 62
     7
100
AcDbCircle
 10
13.47543961237894
 20
116.3826224506163
 30
0.0
 40
0.5
100
AcDbArc
 50
90.0
 51
180.0
  0
LINE
  5
1543
330
1505
100
AcDbEntity
  8
L-1
  6
CONTINUOUS
 62
     7
100
AcDbLine
 10
25.00603678745951
 20
108.8826224506162
 30
0.0
 11
25.00603678745951
 21
110.1826224506162
 31
0.0
  0
POLYLINE
  5
1544
330
1505
100
AcDbEntity
  8
L-1
  6
CONTINUOUS
 62
     3
100
AcDb2dPolyline
 66
     1
 10
0.0
 20
0.0
 30
0.0
 70
     2
  0
VERTEX
  5
1545
330
1544
100
AcDbEntity
  8
L-1
  6
CONTINUOUS
 62
     3
100
AcDbVertex
100
AcDb2dVertex
 10
31.99407185154715
 20
110.1826224506163
 30
0.0
 42
0.0438764955251235
  0
VERTEX
  5
1546
330
1544
100
AcDbEntity
  8
L-1
  6
CONTINUOUS
 62
     3
100
AcDbVertex
100
AcDb2dVertex
 10
31.92255827199661
 20
109.987255209816
 30
0.0
 42
0.0694411009133329
 70
     1
  0
VERTEX
  5
1547
330
1544
100
AcDbEntity
  8
L-1
  6
CONTINUOUS
 62
     3
100
AcDbVertex
100
AcDb2dVertex
 10
31.90618187559712
 20
109.8564428462426
 30
0.0
 42
0.1183875812258901
  0
VERTEX
  5
1548
330
1544
100
AcDbEntity
  8
L-1
  6
CONTINUOUS
 62
     3
100
AcDbVertex
100
AcDb2dVertex
 10
31.98496681484257
 20
109.5476329221751
 30
0.0
 42
-0.1140489613631568
 70
     1
  0
VERTEX
  5
1549
330
1544
100
AcDbEntity
  8
L-1
  6
CONTINUOUS
 62
     3
100
AcDbVertex
100
AcDb2dVertex
 10
32.06940626086906
 20
109.2281053497208
 30
0.0
 42
-0.0615614585235404
  0
VERTEX
  5
154A
330
1544
100
AcDbEntity
  8
L-1
  6
CONTINUOUS
 62
     3
100
AcDbVertex
100
AcDb2dVertex
 10
32.05636497459009
 20
109.0863292951119
 30
0.0
 42
-0.0410594091454475
 70
     1
  0
VERTEX
  5
154B
330
1544
100
AcDbEntity
  8
L-1
  6
CONTINUOUS
 62
     3
100
AcDbVertex
100
AcDb2dVertex
 10
31.99407185154715
 20
108.8826224506163
 30
0.0
  0
SEQEND
  5
154C
330
1544
100
AcDbEntity
  8
L-1
  6
CONTINUOUS
 62
     3
  0
POLYLINE
  5
154D
330
1505
100
AcDbEntity
  8
L-1
  6
CONTINUOUS
 62
     3
100
AcDb2dPolyline
 66
     1
 10
0.0
 20
0.0
 30
0.0
 70
     2
  0
VERTEX
  5
154E
330
154D
100
AcDbEntity
  8
L-1
  6
CONTINUOUS
 62
     3
100
AcDbVertex
100
AcDb2dVertex
 10
31.30963313093778
 20
110.1826224506163
 30
0.0
 42
0.0438764955251235
  0
VERTEX
  5
154F
330
154D
100
AcDbEntity
  8
L-1
  6
CONTINUOUS
 62
     3
100
AcDbVertex
100
AcDb2dVertex
 10
31.23811955138724
 20
109.987255209816
 30
0.0
 42
0.0694411009133329
 70
     1
  0
VERTEX
  5
1550
330
154D
100
AcDbEntity
  8
L-1
  6
CONTINUOUS
 62
     3
100
AcDbVertex
100
AcDb2dVertex
 10
31.22174315498774
 20
109.8564428462426
 30
0.0
 42
0.1183875812258901
  0
VERTEX
  5
1551
330
154D
100
AcDbEntity
  8
L-1
  6
CONTINUOUS
 62
     3
100
AcDbVertex
100
AcDb2dVertex
 10
31.30052809423323
 20
109.5476329221751
 30
0.0
 42
-0.1140489613631568
 70
     1
  0
VERTEX
  5
1552
330
154D
100
AcDbEntity
  8
L-1
  6
CONTINUOUS
 62
     3
100
AcDbVertex
100
AcDb2dVertex
 10
31.38496754025974
 20
109.2281053497208
 30
0.0
 42
-0.0615614585235404
  0
VERTEX
  5
1553
330
154D
100
AcDbEntity
  8
L-1
  6
CONTINUOUS
 62
     3
100
AcDbVertex
100
AcDb2dVertex
 10
31.37192625398071
 20
109.0863292951119
 30
0.0
 42
-0.0410594091454475
 70
     1
  0
VERTEX
  5
1554
330
154D
100
AcDbEntity
  8
L-1
  6
CONTINUOUS
 62
     3
100
AcDbVertex
100
AcDb2dVertex
 10
31.30963313093778
 20
108.8826224506163
 30
0.0
  0
SEQEND
  5
1555
330
154D
100
AcDbEntity
  8
L-1
  6
CONTINUOUS
 62
     3
  0
TEXT
  5
1556
330
1505
100
AcDbEntity
  8
L-2
  6
CONTINUOUS
 62
     2
100
AcDbText
 10
22.66642027186756
 20
108.8052549007203
 30
0.0
 40
1.199999999999999
  1
赤
  7
MSゴシック
 72
     4
 11
23.44611570333964
 21
109.3656609920909
 31
0.0
100
AcDbText
  0
LINE
  5
1557
330
1505
100
AcDbEntity
  8
L-1
  6
CONTINUOUS
 62
     7
100
AcDbLine
 10
16.97543961237897
 20
108.7826224506162
 30
0.0
 11
16.97543961237894
 21
115.3826224506163
 31
0.0
  0
LINE
  5
1558
330
1505
100
AcDbEntity
  8
L-1
  6
CONTINUOUS
 62
     7
100
AcDbLine
 10
17.47543961237897
 20
107.7826224506162
 30
0.0
 11
17.47543961237894
 21
116.3826224506163
 31
0.0
  0
LINE
  5
1559
330
1505
100
AcDbEntity
  8
L-1
  6
CONTINUOUS
 62
     7
100
AcDbLine
 10
18.47543961237897
 20
107.7826224506162
 30
0.0
 11
18.47543961237894
 21
116.3826224506163
 31
0.0
  0
CIRCLE
  5
155A
330
1505
100
AcDbEntity
  8
L-1
  6
CONTINUOUS
 62
     7
100
AcDbCircle
 10
15.22543961237895
 20
109.8326224506162
 30
0.0
 40
0.65
  0
LINE
  5
155B
330
1505
100
AcDbEntity
  8
L-1
  6
CONTINUOUS
 62
     7
100
AcDbLine
 10
37.21734836867877
 20
107.2826224506163
 30
0.0
 11
37.21734836867875
 21
116.8826224506162
 31
0.0
  0
LINE
  5
155C
330
1505
100
AcDbEntity
  8
L-1
  6
CONTINUOUS
 62
     7
100
AcDbLine
 10
38.21734836867877
 20
107.2826224506163
 30
0.0
 11
38.21734836867877
 21
116.8826224506162
 31
0.0
  0
LINE
  5
155D
330
1505
100
AcDbEntity
  8
L-1
  6
CONTINUOUS
 62
     7
100
AcDbLine
 10
36.21734836867883
 20
108.7826224506162
 30
0.0
 11
36.21734836867883
 21
115.3826224506162
 31
0.0
  0
LINE
  5
155E
330
1505
100
AcDbEntity
  8
L-1
  6
CONTINUOUS
 62
     7
100
AcDbLine
 10
41.21734836867878
 20
107.2826224506163
 30
0.0
 11
41.21734836867878
 21
116.8826224506162
 31
0.0
  0
LINE
  5
155F
330
1505
100
AcDbEntity
  8
L-1
  6
CONTINUOUS
 62
     7
100
AcDbLine
 10
39.21734836867877
 20
107.2826224506163
 30
0.0
 11
39.21734836867875
 21
116.8826224506162
 31
0.0
  0
LINE
  5
1560
330
1505
100
AcDbEntity
  8
L-1
  6
CONTINUOUS
 62
     7
100
AcDbLine
 10
40.21734836867874
 20
107.2826224506163
 30
0.0
 11
40.21734836867874
 21
116.8826224506162
 31
0.0
  0
DIMENSION
  5
1561
330
1505
100
AcDbEntity
  8
L-2
  6
CONTINUOUS
100
AcDbDimension
  2
*D7
 10
36.21734836867883
 20
97.1046546410812
 30
0.0
 11
30.61169257806917
 21
98.24805565630954
 31
0.0
 12
-1.999999849606524
 22
-2.499999912149348
 32
0.0
  1
（700）
  3
CAD-STD1-1
100
AcDbAlignedDimension
 13
25.00603678745951
 23
88.95091949059965
 33
0.0
 14
36.21734836867883
 24
88.95091949059963
 34
0.0
100
AcDbRotatedDimension
  0
LINE
  5
1562
330
1505
100
AcDbEntity
  8
L-1
  6
CONTINUOUS
 62
     7
100
AcDbLine
 10
31.30963313093766
 20
108.8826224506162
 30
0.0
 11
25.0060367874595
 21
108.8826224506162
 31
0.0
  0
LINE
  5
1563
330
1505
100
AcDbEntity
  8
L-1
  6
CONTINUOUS
 62
     7
100
AcDbLine
 10
31.30963313093778
 20
87.65091949059963
 30
0.0
 11
25.0060367874595
 21
87.65091949059963
 31
0.0
  0
LINE
  5
1564
330
1505
100
AcDbEntity
  8
L-1
  6
CONTINUOUS
 62
     7
100
AcDbLine
 10
31.30963313093778
 20
88.95091949059963
 30
0.0
 11
25.0060367874595
 21
88.95091949059965
 31
0.0
  0
LINE
  5
1565
330
1505
100
AcDbEntity
  8
L-1
  6
CONTINUOUS
 62
     7
100
AcDbLine
 10
31.30963313093773
 20
67.72793087646785
 30
0.0
 11
25.0060367874595
 21
67.72793087646785
 31
0.0
  0
LINE
  5
1566
330
1505
100
AcDbEntity
  8
L-1
  6
CONTINUOUS
 62
     7
100
AcDbLine
 10
31.30963313093773
 20
68.12793087646785
 30
0.0
 11
25.0060367874595
 21
68.12793087646785
 31
0.0
  0
LINE
  5
1567
330
1505
100
AcDbEntity
  8
L-1
  6
CONTINUOUS
 62
     7
100
AcDbLine
 10
31.30963313093772
 20
69.42793087646785
 30
0.0
 11
25.00603678745948
 21
69.42793087646785
 31
0.0
  0
LINE
  5
1568
330
1505
100
AcDbEntity
  8
L-1
  6
CONTINUOUS
 62
     7
100
AcDbLine
 10
31.3096331309377
 20
69.82793087646784
 30
0.0
 11
25.00603678745948
 21
69.82793087646784
 31
0.0
  0
LINE
  5
1569
330
1505
100
AcDbEntity
  8
L-1
  6
CONTINUOUS
 62
     7
100
AcDbLine
 10
31.30963313093767
 20
71.12793087646784
 30
0.0
 11
25.00603678745948
 21
71.12793087646784
 31
0.0
  0
LINE
  5
156A
330
1505
100
AcDbEntity
  8
L-1
  6
CONTINUOUS
 62
     7
100
AcDbLine
 10
31.30963313093769
 20
71.52793087646784
 30
0.0
 11
25.00603678745948
 21
71.52793087646784
 31
0.0
  0
LINE
  5
156B
330
1505
100
AcDbEntity
  8
L-1
  6
CONTINUOUS
 62
     7
100
AcDbLine
 10
31.30963313093765
 20
72.82793087646784
 30
0.0
 11
25.00603678745948
 21
72.82793087646784
 31
0.0
  0
LINE
  5
156C
330
1505
100
AcDbEntity
  8
L-1
  6
CONTINUOUS
 62
     7
100
AcDbLine
 10
25.00603678745948
 20
87.65091949059963
 30
0.0
 11
25.00603678745951
 21
88.95091949059965
 31
0.0
  0
TEXT
  5
156D
330
1505
100
AcDbEntity
  8
L-2
  6
CONTINUOUS
 62
     2
100
AcDbText
 10
17.8763705270458
 20
68.22630559871244
 30
0.0
 40
1.199999999999999
  1
IN2（白）
  7
MSゴシック
 72
     4
 11
21.38499996867016
 21
68.78671169008299
 31
0.0
100
AcDbText
  0
TEXT
  5
156E
330
1505
100
AcDbEntity
  8
L-2
  6
CONTINUOUS
 62
     2
100
AcDbText
 10
17.87605248131511
 20
71.6039806062437
 30
0.0
 40
1.199999999999999
  1
IN1（赤）
  7
MSゴシック
 72
     4
 11
21.38468192293947
 21
72.16438669761425
 31
0.0
100
AcDbText
  0
TEXT
  5
156F
330
1505
100
AcDbEntity
  8
L-2
  6
CONTINUOUS
 62
     2
100
AcDbText
 10
17.10423332487187
 20
69.88161229259411
 30
0.0
 40
1.199999999999999
  1
OUT1（青）
  7
MSゴシック
 72
     4
 11
21.00271048223228
 21
70.44810975452304
 31
0.0
100
AcDbText
  0
LINE
  5
1570
330
1505
100
AcDbEntity
  8
L-1
  6
CONTINUOUS
 62
     7
100
AcDbLine
 10
25.00603678745948
 20
71.52793087646784
 30
0.0
 11
25.00603678745948
 21
72.82793087646784
 31
0.0
  0
LINE
  5
1571
330
1505
100
AcDbEntity
  8
L-1
  6
CONTINUOUS
 62
     7
100
AcDbLine
 10
25.0060367874595
 20
68.12793087646785
 30
0.0
 11
25.0060367874595
 21
69.42793087646785
 31
0.0
  0
LINE
  5
1572
330
1505
100
AcDbEntity
  8
L-1
  6
CONTINUOUS
 62
     7
100
AcDbLine
 10
25.00603678745948
 20
69.82793087646784
 30
0.0
 11
25.00603678745948
 21
71.12793087646784
 31
0.0
  0
ARC
  5
1573
330
1505
100
AcDbEntity
  8
L-1
  6
CONTINUOUS
 62
     7
100
AcDbCircle
 10
16.97543961237897
 20
107.7826224506162
 30
0.0
 40
0.5
100
AcDbArc
 50
270.0
 51
0.0
  0
ARC
  5
1574
330
1505
100
AcDbEntity
  8
L-1
  6
CONTINUOUS
 62
     7
100
AcDbCircle
 10
16.47543961237897
 20
108.7826224506162
 30
0.0
 40
0.5
100
AcDbArc
 50
270.0
 51
0.0
  0
ARC
  5
1575
330
1505
100
AcDbEntity
  8
L-1
  6
CONTINUOUS
 62
     7
100
AcDbCircle
 10
17.97543961237897
 20
107.7826224506162
 30
0.0
 40
0.5
100
AcDbArc
 50
270.0
 51
0.0
  0
POLYLINE
  5
1576
330
1505
100
AcDbEntity
  8
L-1
  6
CONTINUOUS
 62
     3
100
AcDb2dPolyline
 66
     1
 10
0.0
 20
0.0
 30
0.0
 70
     2
  0
VERTEX
  5
1577
330
1576
100
AcDbEntity
  8
L-1
  6
CONTINUOUS
 62
     3
100
AcDbVertex
100
AcDb2dVertex
 10
31.30963313093789
 20
87.65091949059963
 30
0.0
 42
-0.0438764955251235
  0
VERTEX
  5
1578
330
1576
100
AcDbEntity
  8
L-1
  6
CONTINUOUS
 62
     3
100
AcDbVertex
100
AcDb2dVertex
 10
31.23811955138735
 20
87.8462867313998
 30
0.0
 42
-0.0694411009133329
 70
     1
  0
VERTEX
  5
1579
330
1576
100
AcDbEntity
  8
L-1
  6
CONTINUOUS
 62
     3
100
AcDbVertex
100
AcDb2dVertex
 10
31.22174315498787
 20
87.97709909497319
 30
0.0
 42
-0.1183875812258901
  0
VERTEX
  5
157A
330
1576
100
AcDbEntity
  8
L-1
  6
CONTINUOUS
 62
     3
100
AcDbVertex
100
AcDb2dVertex
 10
31.30052809423332
 20
88.28590901904085
 30
0.0
 42
0.1140489613631568
 70
     1
  0
VERTEX
  5
157B
330
1576
100
AcDbEntity
  8
L-1
  6
CONTINUOUS
 62
     3
100
AcDbVertex
100
AcDb2dVertex
 10
31.38496754025982
 20
88.60543659149504
 30
0.0
 42
0.0615614585235404
  0
VERTEX
  5
157C
330
1576
100
AcDbEntity
  8
L-1
  6
CONTINUOUS
 62
     3
100
AcDbVertex
100
AcDb2dVertex
 10
31.37192625398082
 20
88.74721264610396
 30
0.0
 42
0.0410594091454475
 70
     1
  0
VERTEX
  5
157D
330
1576
100
AcDbEntity
  8
L-1
  6
CONTINUOUS
 62
     3
100
AcDbVertex
100
AcDb2dVertex
 10
31.30963313093789
 20
88.95091949059965
 30
0.0
  0
SEQEND
  5
157E
330
1576
100
AcDbEntity
  8
L-1
  6
CONTINUOUS
 62
     3
  0
POLYLINE
  5
157F
330
1505
100
AcDbEntity
  8
L-1
  6
CONTINUOUS
 62
     3
100
AcDb2dPolyline
 66
     1
 10
0.0
 20
0.0
 30
0.0
 70
     2
  0
VERTEX
  5
1580
330
157F
100
AcDbEntity
  8
L-1
  6
CONTINUOUS
 62
     3
100
AcDbVertex
100
AcDb2dVertex
 10
31.99407185154725
 20
87.65091949059963
 30
0.0
 42
-0.0438764955251235
  0
VERTEX
  5
1581
330
157F
100
AcDbEntity
  8
L-1
  6
CONTINUOUS
 62
     3
100
AcDbVertex
100
AcDb2dVertex
 10
31.92255827199673
 20
87.8462867313998
 30
0.0
 42
-0.0694411009133329
 70
     1
  0
VERTEX
  5
1582
330
157F
100
AcDbEntity
  8
L-1
  6
CONTINUOUS
 62
     3
100
AcDbVertex
100
AcDb2dVertex
 10
31.90618187559723
 20
87.97709909497319
 30
0.0
 42
-0.1183875812258901
  0
VERTEX
  5
1583
330
157F
100
AcDbEntity
  8
L-1
  6
CONTINUOUS
 62
     3
100
AcDbVertex
100
AcDb2dVertex
 10
31.98496681484269
 20
88.28590901904085
 30
0.0
 42
0.1140489613631568
 70
     1
  0
VERTEX
  5
1584
330
157F
100
AcDbEntity
  8
L-1
  6
CONTINUOUS
 62
     3
100
AcDbVertex
100
AcDb2dVertex
 10
32.0694062608692
 20
88.60543659149504
 30
0.0
 42
0.0615614585235404
  0
VERTEX
  5
1585
330
157F
100
AcDbEntity
  8
L-1
  6
CONTINUOUS
 62
     3
100
AcDbVertex
100
AcDb2dVertex
 10
32.05636497459019
 20
88.74721264610396
 30
0.0
 42
0.0410594091454475
 70
     1
  0
VERTEX
  5
1586
330
157F
100
AcDbEntity
  8
L-1
  6
CONTINUOUS
 62
     3
100
AcDbVertex
100
AcDb2dVertex
 10
31.99407185154725
 20
88.95091949059965
 30
0.0
  0
SEQEND
  5
1587
330
157F
100
AcDbEntity
  8
L-1
  6
CONTINUOUS
 62
     3
  0
LINE
  5
1588
330
1505
100
AcDbEntity
  8
L-1
  6
CONTINUOUS
 62
     7
100
AcDbLine
 10
36.21734836867883
 20
87.05091949059955
 30
0.0
 11
36.21734836867883
 21
89.5509194905996
 31
0.0
  0
LINE
  5
1589
330
1505
100
AcDbEntity
  8
L-1
  6
CONTINUOUS
 62
     7
100
AcDbLine
 10
41.21734836867878
 20
85.05091949059957
 30
0.0
 11
41.21734836867878
 21
91.55091949059963
 31
0.0
  0
LINE
  5
158A
330
1505
100
AcDbEntity
  8
L-1
  6
CONTINUOUS
 62
     7
100
AcDbLine
 10
39.21734836867875
 20
86.05091949059959
 30
0.0
 11
39.21734836867875
 21
90.5509194905996
 31
0.0
  0
LINE
  5
158B
330
1505
100
AcDbEntity
  8
L-1
  6
CONTINUOUS
 62
     7
100
AcDbLine
 10
40.21734836867874
 20
86.05091949059959
 30
0.0
 11
40.21734836867874
 21
90.5509194905996
 31
0.0
  0
LINE
  5
158C
330
1505
100
AcDbEntity
  8
L-1
  6
CONTINUOUS
 62
     7
100
AcDbLine
 10
37.21734836867875
 20
86.05091949059959
 30
0.0
 11
37.21734836867875
 21
90.5509194905996
 31
0.0
  0
LINE
  5
158D
330
1505
100
AcDbEntity
  8
L-1
  6
CONTINUOUS
 62
     7
100
AcDbLine
 10
38.21734836867877
 20
86.05091949059959
 30
0.0
 11
38.21734836867877
 21
90.5509194905996
 31
0.0
  0
LINE
  5
158E
330
1505
100
AcDbEntity
  8
L-1
  6
CONTINUOUS
 62
     7
100
AcDbLine
 10
36.21734836867879
 20
67.72793087646785
 30
0.0
 11
31.99407185154715
 21
67.72793087646785
 31
0.0
  0
LINE
  5
158F
330
1505
100
AcDbEntity
  8
L-1
  6
CONTINUOUS
 62
     7
100
AcDbLine
 10
36.21734836867879
 20
68.12793087646785
 30
0.0
 11
31.99407185154715
 21
68.12793087646785
 31
0.0
  0
LINE
  5
1590
330
1505
100
AcDbEntity
  8
L-1
  6
CONTINUOUS
 62
     7
100
AcDbLine
 10
36.21734836867875
 20
69.42793087646785
 30
0.0
 11
31.99407185154715
 21
69.42793087646785
 31
0.0
  0
LINE
  5
1591
330
1505
100
AcDbEntity
  8
L-1
  6
CONTINUOUS
 62
     7
100
AcDbLine
 10
36.21734836867875
 20
69.82793087646784
 30
0.0
 11
31.99407185154715
 21
69.82793087646784
 31
0.0
  0
LINE
  5
1592
330
1505
100
AcDbEntity
  8
L-1
  6
CONTINUOUS
 62
     7
100
AcDbLine
 10
36.21734836867872
 20
71.12793087646784
 30
0.0
 11
31.99407185154715
 21
71.12793087646784
 31
0.0
  0
LINE
  5
1593
330
1505
100
AcDbEntity
  8
L-1
  6
CONTINUOUS
 62
     7
100
AcDbLine
 10
36.21734836867872
 20
71.52793087646784
 30
0.0
 11
31.99407185154715
 21
71.52793087646784
 31
0.0
  0
LINE
  5
1594
330
1505
100
AcDbEntity
  8
L-1
  6
CONTINUOUS
 62
     7
100
AcDbLine
 10
36.21734836867869
 20
72.82793087646784
 30
0.0
 11
31.99407185154715
 21
72.82793087646784
 31
0.0
  0
LINE
  5
1595
330
1505
100
AcDbEntity
  8
L-1
  6
CONTINUOUS
 62
     7
100
AcDbLine
 10
36.21734836867883
 20
87.65091949059963
 30
0.0
 11
31.99407185154726
 21
87.65091949059963
 31
0.0
  0
POLYLINE
  5
1596
330
1505
100
AcDbEntity
  8
L-1
  6
CONTINUOUS
 62
     3
100
AcDb2dPolyline
 66
     1
 10
0.0
 20
0.0
 30
0.0
 70
     2
  0
VERTEX
  5
1597
330
1596
100
AcDbEntity
  8
L-1
  6
CONTINUOUS
 62
     3
100
AcDbVertex
100
AcDb2dVertex
 10
31.30963313093778
 20
71.52793087646784
 30
0.0
 42
-0.0438764955251235
  0
VERTEX
  5
1598
330
1596
100
AcDbEntity
  8
L-1
  6
CONTINUOUS
 62
     3
100
AcDbVertex
100
AcDb2dVertex
 10
31.23811955138724
 20
71.72329811726803
 30
0.0
 42
-0.0694411009133329
 70
     1
  0
VERTEX
  5
1599
330
1596
100
AcDbEntity
  8
L-1
  6
CONTINUOUS
 62
     3
100
AcDbVertex
100
AcDb2dVertex
 10
31.22174315498774
 20
71.85411048084141
 30
0.0
 42
-0.1183875812258901
  0
VERTEX
  5
159A
330
1596
100
AcDbEntity
  8
L-1
  6
CONTINUOUS
 62
     3
100
AcDbVertex
100
AcDb2dVertex
 10
31.30052809423323
 20
72.16292040490905
 30
0.0
 42
0.1140489613631568
 70
     1
  0
VERTEX
  5
159B
330
1596
100
AcDbEntity
  8
L-1
  6
CONTINUOUS
 62
     3
100
AcDbVertex
100
AcDb2dVertex
 10
31.38496754025974
 20
72.48244797736328
 30
0.0
 42
0.0615614585235404
  0
VERTEX
  5
159C
330
1596
100
AcDbEntity
  8
L-1
  6
CONTINUOUS
 62
     3
100
AcDbVertex
100
AcDb2dVertex
 10
31.37192625398071
 20
72.62422403197212
 30
0.0
 42
0.0410594091454475
 70
     1
  0
VERTEX
  5
159D
330
1596
100
AcDbEntity
  8
L-1
  6
CONTINUOUS
 62
     3
100
AcDbVertex
100
AcDb2dVertex
 10
31.30963313093778
 20
72.82793087646784
 30
0.0
  0
SEQEND
  5
159E
330
1596
100
AcDbEntity
  8
L-1
  6
CONTINUOUS
 62
     3
  0
POLYLINE
  5
159F
330
1505
100
AcDbEntity
  8
L-1
  6
CONTINUOUS
 62
     3
100
AcDb2dPolyline
 66
     1
 10
0.0
 20
0.0
 30
0.0
 70
     2
  0
VERTEX
  5
15A0
330
159F
100
AcDbEntity
  8
L-1
  6
CONTINUOUS
 62
     3
100
AcDbVertex
100
AcDb2dVertex
 10
31.30963313093778
 20
68.12793087646785
 30
0.0
 42
-0.0438764955251235
  0
VERTEX
  5
15A1
330
159F
100
AcDbEntity
  8
L-1
  6
CONTINUOUS
 62
     3
100
AcDbVertex
100
AcDb2dVertex
 10
31.23811955138724
 20
68.32329811726804
 30
0.0
 42
-0.0694411009133329
 70
     1
  0
VERTEX
  5
15A2
330
159F
100
AcDbEntity
  8
L-1
  6
CONTINUOUS
 62
     3
100
AcDbVertex
100
AcDb2dVertex
 10
31.22174315498774
 20
68.45411048084142
 30
0.0
 42
-0.1183875812258901
  0
VERTEX
  5
15A3
330
159F
100
AcDbEntity
  8
L-1
  6
CONTINUOUS
 62
     3
100
AcDbVertex
100
AcDb2dVertex
 10
31.30052809423323
 20
68.76292040490906
 30
0.0
 42
0.1140489613631568
 70
     1
  0
VERTEX
  5
15A4
330
159F
100
AcDbEntity
  8
L-1
  6
CONTINUOUS
 62
     3
100
AcDbVertex
100
AcDb2dVertex
 10
31.38496754025974
 20
69.0824479773633
 30
0.0
 42
0.0615614585235404
  0
VERTEX
  5
15A5
330
159F
100
AcDbEntity
  8
L-1
  6
CONTINUOUS
 62
     3
100
AcDbVertex
100
AcDb2dVertex
 10
31.37192625398071
 20
69.22422403197217
 30
0.0
 42
0.0410594091454475
 70
     1
  0
VERTEX
  5
15A6
330
159F
100
AcDbEntity
  8
L-1
  6
CONTINUOUS
 62
     3
100
AcDbVertex
100
AcDb2dVertex
 10
31.30963313093778
 20
69.42793087646785
 30
0.0
  0
SEQEND
  5
15A7
330
159F
100
AcDbEntity
  8
L-1
  6
CONTINUOUS
 62
     3
  0
POLYLINE
  5
15A8
330
1505
100
AcDbEntity
  8
L-1
  6
CONTINUOUS
 62
     3
100
AcDb2dPolyline
 66
     1
 10
0.0
 20
0.0
 30
0.0
 70
     2
  0
VERTEX
  5
15A9
330
15A8
100
AcDbEntity
  8
L-1
  6
CONTINUOUS
 62
     3
100
AcDbVertex
100
AcDb2dVertex
 10
31.30963313093778
 20
69.82793087646784
 30
0.0
 42
-0.0438764955251235
  0
VERTEX
  5
15AA
330
15A8
100
AcDbEntity
  8
L-1
  6
CONTINUOUS
 62
     3
100
AcDbVertex
100
AcDb2dVertex
 10
31.23811955138724
 20
70.02329811726801
 30
0.0
 42
-0.0694411009133329
 70
     1
  0
VERTEX
  5
15AB
330
15A8
100
AcDbEntity
  8
L-1
  6
CONTINUOUS
 62
     3
100
AcDbVertex
100
AcDb2dVertex
 10
31.22174315498774
 20
70.15411048084138
 30
0.0
 42
-0.1183875812258901
  0
VERTEX
  5
15AC
330
15A8
100
AcDbEntity
  8
L-1
  6
CONTINUOUS
 62
     3
100
AcDbVertex
100
AcDb2dVertex
 10
31.30052809423323
 20
70.46292040490907
 30
0.0
 42
0.1140489613631568
 70
     1
  0
VERTEX
  5
15AD
330
15A8
100
AcDbEntity
  8
L-1
  6
CONTINUOUS
 62
     3
100
AcDbVertex
100
AcDb2dVertex
 10
31.38496754025974
 20
70.78244797736328
 30
0.0
 42
0.0615614585235404
  0
VERTEX
  5
15AE
330
15A8
100
AcDbEntity
  8
L-1
  6
CONTINUOUS
 62
     3
100
AcDbVertex
100
AcDb2dVertex
 10
31.37192625398071
 20
70.92422403197216
 30
0.0
 42
0.0410594091454475
 70
     1
  0
VERTEX
  5
15AF
330
15A8
100
AcDbEntity
  8
L-1
  6
CONTINUOUS
 62
     3
100
AcDbVertex
100
AcDb2dVertex
 10
31.30963313093778
 20
71.12793087646784
 30
0.0
  0
SEQEND
  5
15B0
330
15A8
100
AcDbEntity
  8
L-1
  6
CONTINUOUS
 62
     3
  0
POLYLINE
  5
15B1
330
1505
100
AcDbEntity
  8
L-1
  6
CONTINUOUS
 62
     3
100
AcDb2dPolyline
 66
     1
 10
0.0
 20
0.0
 30
0.0
 70
     2
  0
VERTEX
  5
15B2
330
15B1
100
AcDbEntity
  8
L-1
  6
CONTINUOUS
 62
     3
100
AcDbVertex
100
AcDb2dVertex
 10
31.99407185154715
 20
71.52793087646784
 30
0.0
 42
-0.0438764955251235
  0
VERTEX
  5
15B3
330
15B1
100
AcDbEntity
  8
L-1
  6
CONTINUOUS
 62
     3
100
AcDbVertex
100
AcDb2dVertex
 10
31.92255827199661
 20
71.72329811726803
 30
0.0
 42
-0.0694411009133329
 70
     1
  0
VERTEX
  5
15B4
330
15B1
100
AcDbEntity
  8
L-1
  6
CONTINUOUS
 62
     3
100
AcDbVertex
100
AcDb2dVertex
 10
31.90618187559712
 20
71.85411048084141
 30
0.0
 42
-0.1183875812258901
  0
VERTEX
  5
15B5
330
15B1
100
AcDbEntity
  8
L-1
  6
CONTINUOUS
 62
     3
100
AcDbVertex
100
AcDb2dVertex
 10
31.98496681484257
 20
72.16292040490905
 30
0.0
 42
0.1140489613631568
 70
     1
  0
VERTEX
  5
15B6
330
15B1
100
AcDbEntity
  8
L-1
  6
CONTINUOUS
 62
     3
100
AcDbVertex
100
AcDb2dVertex
 10
32.06940626086906
 20
72.48244797736328
 30
0.0
 42
0.0615614585235404
  0
VERTEX
  5
15B7
330
15B1
100
AcDbEntity
  8
L-1
  6
CONTINUOUS
 62
     3
100
AcDbVertex
100
AcDb2dVertex
 10
32.05636497459009
 20
72.62422403197212
 30
0.0
 42
0.0410594091454475
 70
     1
  0
VERTEX
  5
15B8
330
15B1
100
AcDbEntity
  8
L-1
  6
CONTINUOUS
 62
     3
100
AcDbVertex
100
AcDb2dVertex
 10
31.99407185154715
 20
72.82793087646784
 30
0.0
  0
SEQEND
  5
15B9
330
15B1
100
AcDbEntity
  8
L-1
  6
CONTINUOUS
 62
     3
  0
POLYLINE
  5
15BA
330
1505
100
AcDbEntity
  8
L-1
  6
CONTINUOUS
 62
     3
100
AcDb2dPolyline
 66
     1
 10
0.0
 20
0.0
 30
0.0
 70
     2
  0
VERTEX
  5
15BB
330
15BA
100
AcDbEntity
  8
L-1
  6
CONTINUOUS
 62
     3
100
AcDbVertex
100
AcDb2dVertex
 10
31.99407185154715
 20
68.12793087646785
 30
0.0
 42
-0.0438764955251235
  0
VERTEX
  5
15BC
330
15BA
100
AcDbEntity
  8
L-1
  6
CONTINUOUS
 62
     3
100
AcDbVertex
100
AcDb2dVertex
 10
31.92255827199661
 20
68.32329811726804
 30
0.0
 42
-0.0694411009133329
 70
     1
  0
VERTEX
  5
15BD
330
15BA
100
AcDbEntity
  8
L-1
  6
CONTINUOUS
 62
     3
100
AcDbVertex
100
AcDb2dVertex
 10
31.90618187559712
 20
68.45411048084142
 30
0.0
 42
-0.1183875812258901
  0
VERTEX
  5
15BE
330
15BA
100
AcDbEntity
  8
L-1
  6
CONTINUOUS
 62
     3
100
AcDbVertex
100
AcDb2dVertex
 10
31.98496681484257
 20
68.76292040490906
 30
0.0
 42
0.1140489613631568
 70
     1
  0
VERTEX
  5
15BF
330
15BA
100
AcDbEntity
  8
L-1
  6
CONTINUOUS
 62
     3
100
AcDbVertex
100
AcDb2dVertex
 10
32.06940626086906
 20
69.0824479773633
 30
0.0
 42
0.0615614585235404
  0
VERTEX
  5
15C0
330
15BA
100
AcDbEntity
  8
L-1
  6
CONTINUOUS
 62
     3
100
AcDbVertex
100
AcDb2dVertex
 10
32.05636497459009
 20
69.22422403197217
 30
0.0
 42
0.0410594091454475
 70
     1
  0
VERTEX
  5
15C1
330
15BA
100
AcDbEntity
  8
L-1
  6
CONTINUOUS
 62
     3
100
AcDbVertex
100
AcDb2dVertex
 10
31.99407185154715
 20
69.42793087646785
 30
0.0
  0
SEQEND
  5
15C2
330
15BA
100
AcDbEntity
  8
L-1
  6
CONTINUOUS
 62
     3
  0
POLYLINE
  5
15C3
330
1505
100
AcDbEntity
  8
L-1
  6
CONTINUOUS
 62
     3
100
AcDb2dPolyline
 66
     1
 10
0.0
 20
0.0
 30
0.0
 70
     2
  0
VERTEX
  5
15C4
330
15C3
100
AcDbEntity
  8
L-1
  6
CONTINUOUS
 62
     3
100
AcDbVertex
100
AcDb2dVertex
 10
31.99407185154715
 20
69.82793087646784
 30
0.0
 42
-0.0438764955251235
  0
VERTEX
  5
15C5
330
15C3
100
AcDbEntity
  8
L-1
  6
CONTINUOUS
 62
     3
100
AcDbVertex
100
AcDb2dVertex
 10
31.92255827199661
 20
70.02329811726801
 30
0.0
 42
-0.0694411009133329
 70
     1
  0
VERTEX
  5
15C6
330
15C3
100
AcDbEntity
  8
L-1
  6
CONTINUOUS
 62
     3
100
AcDbVertex
100
AcDb2dVertex
 10
31.90618187559712
 20
70.15411048084138
 30
0.0
 42
-0.1183875812258901
  0
VERTEX
  5
15C7
330
15C3
100
AcDbEntity
  8
L-1
  6
CONTINUOUS
 62
     3
100
AcDbVertex
100
AcDb2dVertex
 10
31.98496681484257
 20
70.46292040490907
 30
0.0
 42
0.1140489613631568
 70
     1
  0
VERTEX
  5
15C8
330
15C3
100
AcDbEntity
  8
L-1
  6
CONTINUOUS
 62
     3
100
AcDbVertex
100
AcDb2dVertex
 10
32.06940626086906
 20
70.78244797736328
 30
0.0
 42
0.0615614585235404
  0
VERTEX
  5
15C9
330
15C3
100
AcDbEntity
  8
L-1
  6
CONTINUOUS
 62
     3
100
AcDbVertex
100
AcDb2dVertex
 10
32.05636497459009
 20
70.92422403197216
 30
0.0
 42
0.0410594091454475
 70
     1
  0
VERTEX
  5
15CA
330
15C3
100
AcDbEntity
  8
L-1
  6
CONTINUOUS
 62
     3
100
AcDbVertex
100
AcDb2dVertex
 10
31.99407185154715
 20
71.12793087646784
 30
0.0
  0
SEQEND
  5
15CB
330
15C3
100
AcDbEntity
  8
L-1
  6
CONTINUOUS
 62
     3
  0
LINE
  5
15CC
330
1505
100
AcDbEntity
  8
L-1
  6
CONTINUOUS
 62
     7
100
AcDbLine
 10
38.21734836867875
 20
73.42793087646786
 30
0.0
 11
39.21734836867875
 21
73.42793087646786
 31
0.0
  0
LINE
  5
15CD
330
1505
100
AcDbEntity
  8
L-1
  6
CONTINUOUS
 62
     7
100
AcDbLine
 10
36.71734836867882
 20
73.42793087646786
 30
0.0
 11
37.21734836867875
 21
73.42793087646786
 31
0.0
  0
ARC
  5
15CE
330
1505
100
AcDbEntity
  8
L-1
  6
CONTINUOUS
 62
     7
100
AcDbCircle
 10
36.71734836867882
 20
72.92793087646785
 30
0.0
 40
0.5
100
AcDbArc
 50
90.0
 51
180.0
  0
LINE
  5
15CF
330
1505
100
AcDbEntity
  8
L-1
  6
CONTINUOUS
 62
     7
100
AcDbLine
 10
38.21734836867875
 20
74.4279308764678
 30
0.0
 11
37.21734836867875
 21
74.4279308764678
 31
0.0
  0
LINE
  5
15D0
330
1505
100
AcDbEntity
  8
L-1
  6
CONTINUOUS
 62
     7
100
AcDbLine
 10
40.21734836867874
 20
73.42793087646786
 30
0.0
 11
41.21734836867875
 21
73.42793087646786
 31
0.0
  0
LINE
  5
15D1
330
1505
100
AcDbEntity
  8
L-1
  6
CONTINUOUS
 62
     7
100
AcDbLine
 10
40.21734836867874
 20
74.4279308764678
 30
0.0
 11
39.21734836867875
 21
74.4279308764678
 31
0.0
  0
LINE
  5
15D2
330
1505
100
AcDbEntity
  8
L-1
  6
CONTINUOUS
 62
     7
100
AcDbLine
 10
39.21734836867875
 20
86.55091949059956
 30
0.0
 11
38.21734836867877
 21
86.55091949059956
 31
0.0
  0
LINE
  5
15D3
330
1505
100
AcDbEntity
  8
L-1
  6
CONTINUOUS
 62
     7
100
AcDbLine
 10
37.21734836867875
 20
86.55091949059956
 30
0.0
 11
36.71734836867882
 21
86.55091949059956
 31
0.0
  0
ARC
  5
15D4
330
1505
100
AcDbEntity
  8
L-1
  6
CONTINUOUS
 62
     7
100
AcDbCircle
 10
36.71734836867882
 20
87.05091949059955
 30
0.0
 40
0.5
100
AcDbArc
 50
180.0
 51
270.0
  0
LINE
  5
15D5
330
1505
100
AcDbEntity
  8
L-1
  6
CONTINUOUS
 62
     7
100
AcDbLine
 10
38.21734836867877
 20
86.05091949059959
 30
0.0
 11
37.21734836867875
 21
86.05091949059959
 31
0.0
  0
LINE
  5
15D6
330
1505
100
AcDbEntity
  8
L-1
  6
CONTINUOUS
 62
     7
100
AcDbLine
 10
41.21734836867878
 20
86.55091949059956
 30
0.0
 11
40.21734836867874
 21
86.55091949059956
 31
0.0
  0
LINE
  5
15D7
330
1505
100
AcDbEntity
  8
L-1
  6
CONTINUOUS
 62
     7
100
AcDbLine
 10
40.21734836867874
 20
86.05091949059959
 30
0.0
 11
39.21734836867875
 21
86.05091949059959
 31
0.0
  0
LINE
  5
15D8
330
1505
100
AcDbEntity
  8
L-1
  6
CONTINUOUS
 62
     7
100
AcDbLine
 10
36.21734836867883
 20
88.95091949059963
 30
0.0
 11
31.99407185154726
 21
88.95091949059963
 31
0.0
  0
LINE
  5
15D9
330
1505
100
AcDbEntity
  8
L-1
  6
CONTINUOUS
 62
     7
100
AcDbLine
 10
36.21734836867871
 20
108.8826224506162
 30
0.0
 11
31.99407185154715
 21
108.8826224506162
 31
0.0
  0
LINE
  5
15DA
330
1505
100
AcDbEntity
  8
L-1
  6
CONTINUOUS
 62
     7
100
AcDbLine
 10
39.21734836867875
 20
90.05091949059965
 30
0.0
 11
38.21734836867877
 21
90.05091949059965
 31
0.0
  0
LINE
  5
15DB
330
1505
100
AcDbEntity
  8
L-1
  6
CONTINUOUS
 62
     7
100
AcDbLine
 10
37.21734836867875
 20
90.05091949059965
 30
0.0
 11
36.71734836867882
 21
90.05091949059965
 31
0.0
  0
ARC
  5
15DC
330
1505
100
AcDbEntity
  8
L-1
  6
CONTINUOUS
 62
     7
100
AcDbCircle
 10
36.71734836867882
 20
89.55091949059966
 30
0.0
 40
0.5
100
AcDbArc
 50
90.0
 51
180.0000000000002
  0
LINE
  5
15DD
330
1505
100
AcDbEntity
  8
L-1
  6
CONTINUOUS
 62
     7
100
AcDbLine
 10
38.21734836867877
 20
90.5509194905996
 30
0.0
 11
37.21734836867875
 21
90.5509194905996
 31
0.0
  0
LINE
  5
15DE
330
1505
100
AcDbEntity
  8
L-1
  6
CONTINUOUS
 62
     7
100
AcDbLine
 10
41.21734836867878
 20
90.05091949059965
 30
0.0
 11
40.21734836867874
 21
90.05091949059965
 31
0.0
  0
LINE
  5
15DF
330
1505
100
AcDbEntity
  8
L-1
  6
CONTINUOUS
 62
     7
100
AcDbLine
 10
40.21734836867874
 20
90.5509194905996
 30
0.0
 11
39.21734836867875
 21
90.5509194905996
 31
0.0
  0
LINE
  5
15E0
330
1505
100
AcDbEntity
  8
L-1
  6
CONTINUOUS
 62
     7
100
AcDbLine
 10
38.21734836867877
 20
108.2826224506163
 30
0.0
 11
39.21734836867877
 21
108.2826224506163
 31
0.0
  0
LINE
  5
15E1
330
1505
100
AcDbEntity
  8
L-1
  6
CONTINUOUS
 62
     7
100
AcDbLine
 10
36.71734836867882
 20
108.2826224506163
 30
0.0
 11
37.21734836867875
 21
108.2826224506163
 31
0.0
  0
ARC
  5
15E2
330
1505
100
AcDbEntity
  8
L-1
  6
CONTINUOUS
 62
     7
100
AcDbCircle
 10
36.71734836867882
 20
108.7826224506162
 30
0.0
 40
0.5
100
AcDbArc
 50
180.0
 51
270.0
  0
LINE
  5
15E3
330
1505
100
AcDbEntity
  8
L-1
  6
CONTINUOUS
 62
     7
100
AcDbLine
 10
38.21734836867877
 20
107.2826224506163
 30
0.0
 11
37.21734836867877
 21
107.2826224506163
 31
0.0
  0
LINE
  5
15E4
330
1505
100
AcDbEntity
  8
L-1
  6
CONTINUOUS
 62
     7
100
AcDbLine
 10
40.21734836867877
 20
108.2826224506163
 30
0.0
 11
41.21734836867878
 21
108.2826224506163
 31
0.0
  0
LINE
  5
15E5
330
1505
100
AcDbEntity
  8
L-1
  6
CONTINUOUS
 62
     7
100
AcDbLine
 10
40.21734836867874
 20
107.2826224506163
 30
0.0
 11
39.21734836867877
 21
107.2826224506163
 31
0.0
  0
LINE
  5
15E6
330
1505
100
AcDbEntity
  8
L-1
  6
CONTINUOUS
 62
     7
100
AcDbLine
 10
31.30963313093779
 20
115.2826224506163
 30
0.0
 11
25.00603678745951
 21
115.2826224506163
 31
0.0
  0
LINE
  5
15E7
330
1505
100
AcDbEntity
  8
L-1
  6
CONTINUOUS
 62
     7
100
AcDbLine
 10
31.3096331309377
 20
110.1826224506162
 30
0.0
 11
25.0060367874595
 21
110.1826224506162
 31
0.0
  0
LINE
  5
15E8
330
1505
100
AcDbEntity
  8
L-1
  6
CONTINUOUS
 62
     7
100
AcDbLine
 10
31.30963313093769
 20
110.5826224506162
 30
0.0
 11
25.00603678745948
 21
110.5826224506162
 31
0.0
  0
LINE
  5
15E9
330
1505
100
AcDbEntity
  8
L-1
  6
CONTINUOUS
 62
     7
100
AcDbLine
 10
31.30963313093772
 20
111.8826224506162
 30
0.0
 11
25.0060367874595
 21
111.8826224506162
 31
0.0
  0
LINE
  5
15EA
330
1505
100
AcDbEntity
  8
L-1
  6
CONTINUOUS
 62
     7
100
AcDbLine
 10
31.30963313093773
 20
112.2826224506163
 30
0.0
 11
25.0060367874595
 21
112.2826224506163
 31
0.0
  0
LINE
  5
15EB
330
1505
100
AcDbEntity
  8
L-1
  6
CONTINUOUS
 62
     7
100
AcDbLine
 10
31.30963313093777
 20
113.5826224506162
 30
0.0
 11
25.00603678745951
 21
113.5826224506162
 31
0.0
  0
LINE
  5
15EC
330
1505
100
AcDbEntity
  8
L-1
  6
CONTINUOUS
 62
     7
100
AcDbLine
 10
31.30963313093777
 20
113.9826224506162
 30
0.0
 11
25.00603678745951
 21
113.9826224506162
 31
0.0
  0
CIRCLE
  5
15ED
330
1505
100
AcDbEntity
  8
L-1
  6
CONTINUOUS
 62
     7
100
AcDbCircle
 10
15.22543961237895
 20
112.8326224506162
 30
0.0
 40
0.65
  0
CIRCLE
  5
15EE
330
1505
100
AcDbEntity
  8
L-1
  6
CONTINUOUS
 62
     7
100
AcDbCircle
 10
15.22543961237895
 20
111.3326224506163
 30
0.0
 40
0.65
  0
CIRCLE
  5
15EF
330
1505
100
AcDbEntity
  8
L-1
  6
CONTINUOUS
 62
     7
100
AcDbCircle
 10
15.22543961237895
 20
114.3326224506163
 30
0.0
 40
0.65
  0
ARC
  5
15F0
330
1505
100
AcDbEntity
  8
L-1
  6
CONTINUOUS
 62
     7
100
AcDbCircle
 10
16.97543961237895
 20
116.3826224506163
 30
0.0
 40
0.5
100
AcDbArc
 50
0.0
 51
90.0
  0
ARC
  5
15F1
330
1505
100
AcDbEntity
  8
L-1
  6
CONTINUOUS
 62
     7
100
AcDbCircle
 10
16.47543961237894
 20
115.3826224506163
 30
0.0
 40
0.5
100
AcDbArc
 50
0.0
 51
90.0
  0
ARC
  5
15F2
330
1505
100
AcDbEntity
  8
L-1
  6
CONTINUOUS
 62
     7
100
AcDbCircle
 10
17.97543961237894
 20
116.3826224506163
 30
0.0
 40
0.5
100
AcDbArc
 50
0.0
 51
90.0
  0
TEXT
  5
15F3
330
1505
100
AcDbEntity
  8
L-2
  6
CONTINUOUS
 62
     2
100
AcDbText
 10
22.60622599478636
 20
113.9672336234687
 30
0.0
 40
1.199999999999999
  1
黄
  7
MSゴシック
 72
     4
 11
23.38592142625844
 21
114.5215483442809
 31
0.0
100
AcDbText
  0
TEXT
  5
15F4
330
1505
100
AcDbEntity
  8
L-2
  6
CONTINUOUS
 62
     2
100
AcDbText
 10
22.68635583012065
 20
110.5978764298791
 30
0.0
 40
1.199999999999999
  1
青
  7
MSゴシック
 72
     4
 11
23.46605126159273
 21
111.1643738918081
 31
0.0
100
AcDbText
  0
TEXT
  5
15F5
330
1505
100
AcDbEntity
  8
L-2
  6
CONTINUOUS
 62
     2
100
AcDbText
 10
22.66629224617346
 20
112.341254206016
 30
0.0
 40
1.199999999999999
  1
白
  7
MSゴシック
 72
     4
 11
23.44598767764555
 21
112.9229800943409
 31
0.0
100
AcDbText
  0
LINE
  5
15F6
330
1505
100
AcDbEntity
  8
L-1
  6
CONTINUOUS
 62
     7
100
AcDbLine
 10
25.00603678745948
 20
113.9826224506162
 30
0.0
 11
25.00603678745948
 21
115.2826224506162
 31
0.0
  0
LINE
  5
15F7
330
1505
100
AcDbEntity
  8
L-1
  6
CONTINUOUS
 62
     7
100
AcDbLine
 10
25.0060367874595
 20
112.2826224506163
 30
0.0
 11
25.00603678745948
 21
113.5826224506162
 31
0.0
  0
LINE
  5
15F8
330
1505
100
AcDbEntity
  8
L-1
  6
CONTINUOUS
 62
     7
100
AcDbLine
 10
25.00603678745951
 20
110.5826224506162
 30
0.0
 11
25.0060367874595
 21
111.8826224506162
 31
0.0
  0
LINE
  5
15F9
330
1505
100
AcDbEntity
  8
L-1
  6
CONTINUOUS
 62
     7
100
AcDbLine
 10
36.21734836867883
 20
115.2826224506163
 30
0.0
 11
31.99407185154715
 21
115.2826224506163
 31
0.0
  0
LINE
  5
15FA
330
1505
100
AcDbEntity
  8
L-1
  6
CONTINUOUS
 62
     7
100
AcDbLine
 10
36.21734836867879
 20
113.9826224506162
 30
0.0
 11
31.99407185154715
 21
113.9826224506162
 31
0.0
  0
LINE
  5
15FB
330
1505
100
AcDbEntity
  8
L-1
  6
CONTINUOUS
 62
     7
100
AcDbLine
 10
36.21734836867879
 20
113.5826224506162
 30
0.0
 11
31.99407185154715
 21
113.5826224506162
 31
0.0
  0
LINE
  5
15FC
330
1505
100
AcDbEntity
  8
L-1
  6
CONTINUOUS
 62
     7
100
AcDbLine
 10
36.21734836867878
 20
112.2826224506163
 30
0.0
 11
31.99407185154715
 21
112.2826224506163
 31
0.0
  0
LINE
  5
15FD
330
1505
100
AcDbEntity
  8
L-1
  6
CONTINUOUS
 62
     7
100
AcDbLine
 10
36.21734836867875
 20
111.8826224506162
 30
0.0
 11
31.99407185154715
 21
111.8826224506163
 31
0.0
  0
LINE
  5
15FE
330
1505
100
AcDbEntity
  8
L-1
  6
CONTINUOUS
 62
     7
100
AcDbLine
 10
36.21734836867872
 20
110.5826224506162
 30
0.0
 11
31.99407185154715
 21
110.5826224506162
 31
0.0
  0
LINE
  5
15FF
330
1505
100
AcDbEntity
  8
L-1
  6
CONTINUOUS
 62
     7
100
AcDbLine
 10
36.21734836867875
 20
110.1826224506162
 30
0.0
 11
31.99407185154715
 21
110.1826224506162
 31
0.0
  0
POLYLINE
  5
1600
330
1505
100
AcDbEntity
  8
L-1
  6
CONTINUOUS
 62
     3
100
AcDb2dPolyline
 66
     1
 10
0.0
 20
0.0
 30
0.0
 70
     2
  0
VERTEX
  5
1601
330
1600
100
AcDbEntity
  8
L-1
  6
CONTINUOUS
 62
     3
100
AcDbVertex
100
AcDb2dVertex
 10
31.30963313093779
 20
115.2826224506163
 30
0.0
 42
0.0438764955251235
  0
VERTEX
  5
1602
330
1600
100
AcDbEntity
  8
L-1
  6
CONTINUOUS
 62
     3
100
AcDbVertex
100
AcDb2dVertex
 10
31.23811955138726
 20
115.0872552098159
 30
0.0
 42
0.0694411009133329
 70
     1
  0
VERTEX
  5
1603
330
1600
100
AcDbEntity
  8
L-1
  6
CONTINUOUS
 62
     3
100
AcDbVertex
100
AcDb2dVertex
 10
31.22174315498777
 20
114.9564428462426
 30
0.0
 42
0.1183875812258901
  0
VERTEX
  5
1604
330
1600
100
AcDbEntity
  8
L-1
  6
CONTINUOUS
 62
     3
100
AcDbVertex
100
AcDb2dVertex
 10
31.30052809423323
 20
114.6476329221751
 30
0.0
 42
-0.1140489613631568
 70
     1
  0
VERTEX
  5
1605
330
1600
100
AcDbEntity
  8
L-1
  6
CONTINUOUS
 62
     3
100
AcDbVertex
100
AcDb2dVertex
 10
31.38496754025974
 20
114.3281053497209
 30
0.0
 42
-0.0615614585235404
  0
VERTEX
  5
1606
330
1600
100
AcDbEntity
  8
L-1
  6
CONTINUOUS
 62
     3
100
AcDbVertex
100
AcDb2dVertex
 10
31.37192625398073
 20
114.186329295112
 30
0.0
 42
-0.0410594091454475
 70
     1
  0
VERTEX
  5
1607
330
1600
100
AcDbEntity
  8
L-1
  6
CONTINUOUS
 62
     3
100
AcDbVertex
100
AcDb2dVertex
 10
31.30963313093779
 20
113.9826224506162
 30
0.0
  0
SEQEND
  5
1608
330
1600
100
AcDbEntity
  8
L-1
  6
CONTINUOUS
 62
     3
  0
POLYLINE
  5
1609
330
1505
100
AcDbEntity
  8
L-1
  6
CONTINUOUS
 62
     3
100
AcDb2dPolyline
 66
     1
 10
0.0
 20
0.0
 30
0.0
 70
     2
  0
VERTEX
  5
160A
330
1609
100
AcDbEntity
  8
L-1
  6
CONTINUOUS
 62
     3
100
AcDbVertex
100
AcDb2dVertex
 10
31.30963313093778
 20
113.5826224506162
 30
0.0
 42
0.0438764955251235
  0
VERTEX
  5
160B
330
1609
100
AcDbEntity
  8
L-1
  6
CONTINUOUS
 62
     3
100
AcDbVertex
100
AcDb2dVertex
 10
31.23811955138724
 20
113.387255209816
 30
0.0
 42
0.0694411009133329
 70
     1
  0
VERTEX
  5
160C
330
1609
100
AcDbEntity
  8
L-1
  6
CONTINUOUS
 62
     3
100
AcDbVertex
100
AcDb2dVertex
 10
31.22174315498774
 20
113.2564428462426
 30
0.0
 42
0.1183875812258901
  0
VERTEX
  5
160D
330
1609
100
AcDbEntity
  8
L-1
  6
CONTINUOUS
 62
     3
100
AcDbVertex
100
AcDb2dVertex
 10
31.30052809423323
 20
112.9476329221751
 30
0.0
 42
-0.1140489613631568
 70
     1
  0
VERTEX
  5
160E
330
1609
100
AcDbEntity
  8
L-1
  6
CONTINUOUS
 62
     3
100
AcDbVertex
100
AcDb2dVertex
 10
31.38496754025974
 20
112.6281053497208
 30
0.0
 42
-0.0615614585235404
  0
VERTEX
  5
160F
330
1609
100
AcDbEntity
  8
L-1
  6
CONTINUOUS
 62
     3
100
AcDbVertex
100
AcDb2dVertex
 10
31.37192625398071
 20
112.4863292951119
 30
0.0
 42
-0.0410594091454475
 70
     1
  0
VERTEX
  5
1610
330
1609
100
AcDbEntity
  8
L-1
  6
CONTINUOUS
 62
     3
100
AcDbVertex
100
AcDb2dVertex
 10
31.30963313093778
 20
112.2826224506163
 30
0.0
  0
SEQEND
  5
1611
330
1609
100
AcDbEntity
  8
L-1
  6
CONTINUOUS
 62
     3
  0
POLYLINE
  5
1612
330
1505
100
AcDbEntity
  8
L-1
  6
CONTINUOUS
 62
     3
100
AcDb2dPolyline
 66
     1
 10
0.0
 20
0.0
 30
0.0
 70
     2
  0
VERTEX
  5
1613
330
1612
100
AcDbEntity
  8
L-1
  6
CONTINUOUS
 62
     3
100
AcDbVertex
100
AcDb2dVertex
 10
31.30963313093778
 20
111.8826224506163
 30
0.0
 42
0.0438764955251235
  0
VERTEX
  5
1614
330
1612
100
AcDbEntity
  8
L-1
  6
CONTINUOUS
 62
     3
100
AcDbVertex
100
AcDb2dVertex
 10
31.23811955138724
 20
111.6872552098159
 30
0.0
 42
0.0694411009133329
 70
     1
  0
VERTEX
  5
1615
330
1612
100
AcDbEntity
  8
L-1
  6
CONTINUOUS
 62
     3
100
AcDbVertex
100
AcDb2dVertex
 10
31.22174315498774
 20
111.5564428462425
 30
0.0
 42
0.1183875812258901
  0
VERTEX
  5
1616
330
1612
100
AcDbEntity
  8
L-1
  6
CONTINUOUS
 62
     3
100
AcDbVertex
100
AcDb2dVertex
 10
31.30052809423323
 20
111.247632922175
 30
0.0
 42
-0.1140489613631568
 70
     1
  0
VERTEX
  5
1617
330
1612
100
AcDbEntity
  8
L-1
  6
CONTINUOUS
 62
     3
100
AcDbVertex
100
AcDb2dVertex
 10
31.38496754025974
 20
110.9281053497209
 30
0.0
 42
-0.0615614585235404
  0
VERTEX
  5
1618
330
1612
100
AcDbEntity
  8
L-1
  6
CONTINUOUS
 62
     3
100
AcDbVertex
100
AcDb2dVertex
 10
31.37192625398071
 20
110.786329295112
 30
0.0
 42
-0.0410594091454475
 70
     1
  0
VERTEX
  5
1619
330
1612
100
AcDbEntity
  8
L-1
  6
CONTINUOUS
 62
     3
100
AcDbVertex
100
AcDb2dVertex
 10
31.30963313093778
 20
110.5826224506162
 30
0.0
  0
SEQEND
  5
161A
330
1612
100
AcDbEntity
  8
L-1
  6
CONTINUOUS
 62
     3
  0
POLYLINE
  5
161B
330
1505
100
AcDbEntity
  8
L-1
  6
CONTINUOUS
 62
     3
100
AcDb2dPolyline
 66
     1
 10
0.0
 20
0.0
 30
0.0
 70
     2
  0
VERTEX
  5
161C
330
161B
100
AcDbEntity
  8
L-1
  6
CONTINUOUS
 62
     3
100
AcDbVertex
100
AcDb2dVertex
 10
31.99407185154715
 20
115.2826224506163
 30
0.0
 42
0.0438764955251235
  0
VERTEX
  5
161D
330
161B
100
AcDbEntity
  8
L-1
  6
CONTINUOUS
 62
     3
100
AcDbVertex
100
AcDb2dVertex
 10
31.92255827199662
 20
115.0872552098159
 30
0.0
 42
0.0694411009133329
 70
     1
  0
VERTEX
  5
161E
330
161B
100
AcDbEntity
  8
L-1
  6
CONTINUOUS
 62
     3
100
AcDbVertex
100
AcDb2dVertex
 10
31.90618187559712
 20
114.9564428462426
 30
0.0
 42
0.1183875812258901
  0
VERTEX
  5
161F
330
161B
100
AcDbEntity
  8
L-1
  6
CONTINUOUS
 62
     3
100
AcDbVertex
100
AcDb2dVertex
 10
31.98496681484261
 20
114.6476329221751
 30
0.0
 42
-0.1140489613631568
 70
     1
  0
VERTEX
  5
1620
330
161B
100
AcDbEntity
  8
L-1
  6
CONTINUOUS
 62
     3
100
AcDbVertex
100
AcDb2dVertex
 10
32.06940626086911
 20
114.3281053497209
 30
0.0
 42
-0.0615614585235404
  0
VERTEX
  5
1621
330
161B
100
AcDbEntity
  8
L-1
  6
CONTINUOUS
 62
     3
100
AcDbVertex
100
AcDb2dVertex
 10
32.0563649745901
 20
114.186329295112
 30
0.0
 42
-0.0410594091454475
 70
     1
  0
VERTEX
  5
1622
330
161B
100
AcDbEntity
  8
L-1
  6
CONTINUOUS
 62
     3
100
AcDbVertex
100
AcDb2dVertex
 10
31.99407185154715
 20
113.9826224506162
 30
0.0
  0
SEQEND
  5
1623
330
161B
100
AcDbEntity
  8
L-1
  6
CONTINUOUS
 62
     3
  0
POLYLINE
  5
1624
330
1505
100
AcDbEntity
  8
L-1
  6
CONTINUOUS
 62
     3
100
AcDb2dPolyline
 66
     1
 10
0.0
 20
0.0
 30
0.0
 70
     2
  0
VERTEX
  5
1625
330
1624
100
AcDbEntity
  8
L-1
  6
CONTINUOUS
 62
     3
100
AcDbVertex
100
AcDb2dVertex
 10
31.99407185154715
 20
113.5826224506162
 30
0.0
 42
0.0438764955251235
  0
VERTEX
  5
1626
330
1624
100
AcDbEntity
  8
L-1
  6
CONTINUOUS
 62
     3
100
AcDbVertex
100
AcDb2dVertex
 10
31.92255827199661
 20
113.387255209816
 30
0.0
 42
0.0694411009133329
 70
     1
  0
VERTEX
  5
1627
330
1624
100
AcDbEntity
  8
L-1
  6
CONTINUOUS
 62
     3
100
AcDbVertex
100
AcDb2dVertex
 10
31.90618187559712
 20
113.2564428462426
 30
0.0
 42
0.1183875812258901
  0
VERTEX
  5
1628
330
1624
100
AcDbEntity
  8
L-1
  6
CONTINUOUS
 62
     3
100
AcDbVertex
100
AcDb2dVertex
 10
31.98496681484257
 20
112.9476329221751
 30
0.0
 42
-0.1140489613631568
 70
     1
  0
VERTEX
  5
1629
330
1624
100
AcDbEntity
  8
L-1
  6
CONTINUOUS
 62
     3
100
AcDbVertex
100
AcDb2dVertex
 10
32.06940626086906
 20
112.6281053497208
 30
0.0
 42
-0.0615614585235404
  0
VERTEX
  5
162A
330
1624
100
AcDbEntity
  8
L-1
  6
CONTINUOUS
 62
     3
100
AcDbVertex
100
AcDb2dVertex
 10
32.05636497459009
 20
112.4863292951119
 30
0.0
 42
-0.0410594091454475
 70
     1
  0
VERTEX
  5
162B
330
1624
100
AcDbEntity
  8
L-1
  6
CONTINUOUS
 62
     3
100
AcDbVertex
100
AcDb2dVertex
 10
31.99407185154715
 20
112.2826224506163
 30
0.0
  0
SEQEND
  5
162C
330
1624
100
AcDbEntity
  8
L-1
  6
CONTINUOUS
 62
     3
  0
POLYLINE
  5
162D
330
1505
100
AcDbEntity
  8
L-1
  6
CONTINUOUS
 62
     3
100
AcDb2dPolyline
 66
     1
 10
0.0
 20
0.0
 30
0.0
 70
     2
  0
VERTEX
  5
162E
330
162D
100
AcDbEntity
  8
L-1
  6
CONTINUOUS
 62
     3
100
AcDbVertex
100
AcDb2dVertex
 10
31.99407185154715
 20
111.8826224506163
 30
0.0
 42
0.0438764955251235
  0
VERTEX
  5
162F
330
162D
100
AcDbEntity
  8
L-1
  6
CONTINUOUS
 62
     3
100
AcDbVertex
100
AcDb2dVertex
 10
31.92255827199661
 20
111.6872552098159
 30
0.0
 42
0.0694411009133329
 70
     1
  0
VERTEX
  5
1630
330
162D
100
AcDbEntity
  8
L-1
  6
CONTINUOUS
 62
     3
100
AcDbVertex
100
AcDb2dVertex
 10
31.90618187559712
 20
111.5564428462425
 30
0.0
 42
0.1183875812258901
  0
VERTEX
  5
1631
330
162D
100
AcDbEntity
  8
L-1
  6
CONTINUOUS
 62
     3
100
AcDbVertex
100
AcDb2dVertex
 10
31.98496681484257
 20
111.247632922175
 30
0.0
 42
-0.1140489613631568
 70
     1
  0
VERTEX
  5
1632
330
162D
100
AcDbEntity
  8
L-1
  6
CONTINUOUS
 62
     3
100
AcDbVertex
100
AcDb2dVertex
 10
32.06940626086906
 20
110.9281053497209
 30
0.0
 42
-0.0615614585235404
  0
VERTEX
  5
1633
330
162D
100
AcDbEntity
  8
L-1
  6
CONTINUOUS
 62
     3
100
AcDbVertex
100
AcDb2dVertex
 10
32.05636497459009
 20
110.786329295112
 30
0.0
 42
-0.0410594091454475
 70
     1
  0
VERTEX
  5
1634
330
162D
100
AcDbEntity
  8
L-1
  6
CONTINUOUS
 62
     3
100
AcDbVertex
100
AcDb2dVertex
 10
31.99407185154715
 20
110.5826224506162
 30
0.0
  0
SEQEND
  5
1635
330
162D
100
AcDbEntity
  8
L-1
  6
CONTINUOUS
 62
     3
  0
LINE
  5
1636
330
1505
100
AcDbEntity
  8
L-1
  6
CONTINUOUS
 62
     7
100
AcDbLine
 10
38.21734836867877
 20
115.8826224506162
 30
0.0
 11
39.21734836867877
 21
115.8826224506162
 31
0.0
  0
LINE
  5
1637
330
1505
100
AcDbEntity
  8
L-1
  6
CONTINUOUS
 62
     7
100
AcDbLine
 10
36.71734836867882
 20
115.8826224506162
 30
0.0
 11
37.21734836867875
 21
115.8826224506162
 31
0.0
  0
ARC
  5
1638
330
1505
100
AcDbEntity
  8
L-1
  6
CONTINUOUS
 62
     7
100
AcDbCircle
 10
36.71734836867882
 20
115.3826224506162
 30
0.0
 40
0.5
100
AcDbArc
 50
90.0
 51
180.0
  0
LINE
  5
1639
330
1505
100
AcDbEntity
  8
L-1
  6
CONTINUOUS
 62
     7
100
AcDbLine
 10
38.21734836867877
 20
116.8826224506162
 30
0.0
 11
37.21734836867875
 21
116.8826224506162
 31
0.0
  0
LINE
  5
163A
330
1505
100
AcDbEntity
  8
L-1
  6
CONTINUOUS
 62
     7
100
AcDbLine
 10
40.21734836867877
 20
115.8826224506162
 30
0.0
 11
41.21734836867878
 21
115.8826224506162
 31
0.0
  0
LINE
  5
163B
330
1505
100
AcDbEntity
  8
L-1
  6
CONTINUOUS
 62
     7
100
AcDbLine
 10
40.21734836867874
 20
116.8826224506162
 30
0.0
 11
39.21734836867875
 21
116.8826224506162
 31
0.0
  0
LINE
  5
163C
330
1505
100
AcDbEntity
  8
L-1
  6
CONTINUOUS
 62
     5
100
AcDbLine
 10
85.5000001503935
 20
135.5000000878503
 30
0.0
 11
85.5000001503935
 21
0.0000000878506512
 31
0.0
  0
LINE
  5
163D
330
1505
100
AcDbEntity
  8
L-1
  6
CONTINUOUS
 62
     7
100
AcDbLine
 10
53.21734836867868
 20
74.4279308764678
 30
0.0
 11
53.21734836867868
 21
64.82793087646783
 31
0.0
  0
TEXT
  5
163E
330
1505
100
AcDbEntity
  8
L-2
  6
CONTINUOUS
 62
     5
100
AcDbText
 10
47.12153241905897
 20
65.76177972559752
 30
0.0
 40
2.0
  1
IN 2
  7
MSゴシック
100
AcDbText
  0
CIRCLE
  5
163F
330
1505
100
AcDbEntity
  8
L-1
  6
CONTINUOUS
 62
     7
100
AcDbCircle
 10
54.71734836867875
 20
66.72793087646787
 30
0.0
 40
0.47695
  0
DIMENSION
  5
1640
330
1505
100
AcDbEntity
  8
L-2
  6
CONTINUOUS
100
AcDbDimension
  2
*D4
 10
73.76441289795649
 20
74.4279308764678
 30
0.0
 11
72.71441289795649
 21
69.62793087646784
 31
0.0
 12
-1.999999849606524
 22
-2.499999912149348
 32
0.0
  3
CAD-STD1-1
100
AcDbAlignedDimension
 13
59.21734836867877
 23
64.82793087646783
 33
0.0
 14
59.21734836867877
 24
74.4279308764678
 34
0.0
 50
90.0
100
AcDbRotatedDimension
  0
LINE
  5
1641
330
1505
100
AcDbEntity
  8
L-1
  6
CONTINUOUS
 62
     7
100
AcDbLine
 10
65.21734836867875
 20
65.82793087646783
 30
0.0
 11
65.21734836867875
 21
67.62793087646793
 31
0.0
  0
LINE
  5
1642
330
1505
100
AcDbEntity
  8
L-1
  6
CONTINUOUS
 62
     7
100
AcDbLine
 10
59.21734836867877
 20
65.82793087646781
 30
0.0
 11
59.21734836867877
 21
73.42793087646779
 31
0.0
  0
TEXT
  5
1643
330
1505
100
AcDbEntity
  8
L-2
  6
CONTINUOUS
 62
     2
100
AcDbText
 10
49.94451123888315
 20
6.381998265899423
 30
0.0
 40
2.25
  1
（コード長標準700mm）
  7
MSゴシック
100
AcDbText
  0
TEXT
  5
1644
330
1505
100
AcDbEntity
  8
L-2
  6
CONTINUOUS
 62
     2
100
AcDbText
 10
50.86893266809774
 20
10.24093862625949
 30
0.0
 40
2.25
  1
ＭＴ２０　試験プラグ
  7
MSゴシック
100
AcDbText
  0
TEXT
  5
1645
330
1505
100
AcDbEntity
  8
L-1
  6
CONTINUOUS
 62
     2
100
AcDbText
 10
52.8668193066893
 20
0.9368703293714442
 30
0.0
 40
2.2
  1
東京通信機工業株式会社
  7
MSゴシック
100
AcDbText
  0
TEXT
  5
1646
330
1505
100
AcDbEntity
  8
L-2
  6
CONTINUOUS
 62
     2
100
AcDbText
 10
67.80786890862079
 20
15.9313842540086
 30
0.0
 40
2.0
  1
（単位：ｍｍ）
  7
MSゴシック
100
AcDbText
  0
LINE
  5
1647
330
1505
100
AcDbEntity
  8
L-1
  6
CONTINUOUS
 62
     5
100
AcDbLine
 10
45.50000015039347
 20
15.00000008785065
 30
0.0
 11
85.5000001503935
 21
15.00000008785065
 31
0.0
  0
LINE
  5
1648
330
1505
100
AcDbEntity
  8
L-1
  6
CONTINUOUS
 62
     5
100
AcDbLine
 10
45.50000015039347
 20
4.000000087850651
 30
0.0
 11
85.5000001503935
 21
4.000000087850651
 31
0.0
  0
LINE
  5
1649
330
1505
100
AcDbEntity
  8
L-2
  6
CONTINUOUS
 62
     4
100
AcDbLine
 10
59.81446258572691
 20
45.00616190990075
 30
0.0
 11
74.27627980512591
 21
45.00616190990075
 31
0.0
  0
LINE
  5
164A
330
1505
100
AcDbEntity
  8
L-2
  6
CONTINUOUS
 62
     4
100
AcDbLine
 10
59.81446258572691
 20
39.00616190990074
 30
0.0
 11
74.27627980512591
 21
39.00616190990074
 31
0.0
  0
LINE
  5
164B
330
1505
100
AcDbEntity
  8
L-2
  6
CONTINUOUS
 62
     4
100
AcDbLine
 10
59.81446258572691
 20
42.00616190990075
 30
0.0
 11
74.27627980512591
 21
42.00616190990075
 31
0.0
  0
LINE
  5
164C
330
1505
100
AcDbEntity
  8
L-2
  6
CONTINUOUS
 62
     4
100
AcDbLine
 10
59.81446258572691
 20
36.00616190990074
 30
0.0
 11
74.27627980512591
 21
36.00616190990074
 31
0.0
  0
LINE
  5
164D
330
1505
100
AcDbEntity
  8
L-2
  6
CONTINUOUS
 62
     4
100
AcDbLine
 10
59.81446258572691
 20
33.00616190990075
 30
0.0
 11
74.27627980512591
 21
33.00616190990075
 31
0.0
  0
LINE
  5
164E
330
1505
100
AcDbEntity
  8
L-1
  6
CONTINUOUS
 62
     5
100
AcDbLine
 10
45.50000015039347
 20
15.00000008785065
 30
0.0
 11
45.50000015039347
 21
0.0000000878506512
 31
0.0
  0
INSERT
  5
164F
330
1505
100
AcDbEntity
  8
L-1
100
AcDbBlockReference
  2
TK
 10
51.85411455042162
 20
1.88842127518058
 30
0.0
 41
0.5
 42
0.5
 43
0.5
  0
TEXT
  5
1650
330
1505
100
AcDbEntity
  8
L-2
  6
CONTINUOUS
 62
     2
100
AcDbText
 10
45.30461631002149
 20
55.9113845538847
 30
0.0
 40
1.5
  1
（樹脂色：青色）
  7
MSゴシック
100
AcDbText
  0
TEXT
  5
1651
330
1505
100
AcDbEntity
  8
L-2
  6
CONTINUOUS
 62
     2
100
AcDbText
 10
45.08591950523511
 20
58.57012141228651
 30
0.0
 40
1.199999999999999
  1
つまみ部
  7
MSゴシック
 72
     4
 11
48.20470123112343
 21
59.13052750365707
 31
0.0
100
AcDbText
  0
LINE
  5
1652
330
1505
100
AcDbEntity
  8
L-2
  6
CONTINUOUS
 62
     4
100
AcDbLine
 10
68.67232599951444
 20
45.00616190990075
 30
0.0
 11
68.67232599951444
 21
33.00616190990075
 31
0.0
  0
LINE
  5
1653
330
1505
100
AcDbEntity
  8
L-2
  6
CONTINUOUS
 62
     4
100
AcDbLine
 10
59.81446258572691
 20
45.00616190990075
 30
0.0
 11
59.81446258572691
 21
33.00616190990075
 31
0.0
  0
TEXT
  5
1654
330
1505
100
AcDbEntity
  8
L-2
  6
CONTINUOUS
 62
     2
100
AcDbText
 10
61.26245292927149
 20
42.81136782569102
 30
0.0
 40
1.5
  1
IN1
  7
MSゴシック
100
AcDbText
  0
TEXT
  5
1655
330
1505
100
AcDbEntity
  8
L-2
  6
CONTINUOUS
 62
     2
100
AcDbText
 10
61.26245292927149
 20
33.70876306120746
 30
0.0
 40
1.5
  1
OUT2
  7
MSゴシック
100
AcDbText
  0
TEXT
  5
1656
330
1505
100
AcDbEntity
  8
L-2
  6
CONTINUOUS
 62
     2
100
AcDbText
 10
61.26245292927149
 20
36.67743294224989
 30
0.0
 40
1.5
  1
IN2
  7
MSゴシック
100
AcDbText
  0
TEXT
  5
1657
330
1505
100
AcDbEntity
  8
L-2
  6
CONTINUOUS
 62
     2
100
AcDbText
 10
61.26245292927149
 20
39.86003927025787
 30
0.0
 40
1.5
  1
OUT1
  7
MSゴシック
100
AcDbText
  0
TEXT
  5
1658
330
1505
100
AcDbEntity
  8
L-2
  6
CONTINUOUS
 62
     2
100
AcDbText
 10
59.81552948359695
 20
45.92505027691617
 30
0.0
 40
1.5
  1
接続表
  7
MSゴシック
100
AcDbText
  0
LINE
  5
1659
330
1505
100
AcDbEntity
  8
L-1
  6
CONTINUOUS
 62
     7
100
AcDbLine
 10
59.21734836867877
 20
65.82793087646784
 30
0.0
 11
65.21734836867875
 21
65.82793087646783
 31
0.0
  0
LINE
  5
165A
330
1505
100
AcDbEntity
  8
L-2
  6
CONTINUOUS
 62
     4
100
AcDbLine
 10
59.83929383388782
 20
61.38997526324299
 30
0.0
 11
64.646505368082
 21
61.38997526324299
 31
0.0
  0
TEXT
  5
165B
330
1505
100
AcDbEntity
  8
L-2
  6
CONTINUOUS
 62
     2
100
AcDbText
 10
58.33225945064884
 20
58.41296257781841
 30
0.0
 40
1.199999999999999
  1
ブレード部
  7
MSゴシック
 72
     4
 11
62.23073660800924
 21
59.00382552198085
 31
0.0
100
AcDbText
  0
LINE
  5
165C
330
1505
100
AcDbEntity
  8
L-2
  6
CONTINUOUS
 62
     4
100
AcDbLine
 10
59.21734836867877
 20
62.42638598876775
 30
0.0
 11
58.59540290346965
 21
61.38997526324299
 31
0.0
  0
LINE
  5
165D
330
1505
100
AcDbEntity
  8
L-2
  6
CONTINUOUS
 62
     4
100
AcDbLine
 10
59.21734836867877
 20
62.42638598876775
 30
0.0
 11
59.83929383388782
 21
61.38997526324299
 31
0.0
  0
LINE
  5
165E
330
1505
100
AcDbEntity
  8
L-1
  6
CONTINUOUS
 62
     7
100
AcDbLine
 10
59.21734836867877
 20
65.82793087646783
 30
0.0
 11
59.21734836867877
 21
64.82793087646783
 31
0.0
  0
LINE
  5
165F
330
1505
100
AcDbEntity
  8
L-2
  6
CONTINUOUS
 62
     4
100
AcDbLine
 10
64.646505368082
 20
61.38997526324299
 30
0.0
 11
65.21734836867875
 21
62.42638598876775
 31
0.0
  0
LINE
  5
1660
330
1505
100
AcDbEntity
  8
L-1
  6
CONTINUOUS
 62
     5
100
AcDbLine
 10
85.00000015039349
 20
0.0000000878506512
 30
0.0
 11
85.5000001503935
 21
0.0000000878506512
 31
0.0
  0
LINE
  5
1661
330
1505
100
AcDbEntity
  8
L-2
  6
CONTINUOUS
 62
     4
100
AcDbLine
 10
74.27627980512591
 20
45.00616190990075
 30
0.0
 11
74.27627980512591
 21
33.00616190990075
 31
0.0
  0
TEXT
  5
1662
330
1505
100
AcDbEntity
  8
L-2
  6
CONTINUOUS
 62
     2
100
AcDbText
 10
70.69713033745734
 20
33.74932517671234
 30
0.0
 40
1.5
  1
黄
  7
MSゴシック
100
AcDbText
  0
TEXT
  5
1663
330
1505
100
AcDbEntity
  8
L-2
  6
CONTINUOUS
 62
     2
100
AcDbText
 10
70.69713033745734
 20
39.82333603640947
 30
0.0
 40
1.5
  1
青
  7
MSゴシック
100
AcDbText
  0
TEXT
  5
1664
330
1505
100
AcDbEntity
  8
L-2
  6
CONTINUOUS
 62
     2
100
AcDbText
 10
70.69713033745734
 20
36.82565677776739
 30
0.0
 40
1.5
  1
白
  7
MSゴシック
100
AcDbText
  0
TEXT
  5
1665
330
1505
100
AcDbEntity
  8
L-2
  6
CONTINUOUS
 62
     2
100
AcDbText
 10
70.69713033745734
 20
42.78172299356906
 30
0.0
 40
1.5
  1
赤
  7
MSゴシック
100
AcDbText
  0
DIMENSION
  5
1666
330
1505
100
AcDbEntity
  8
L-2
  6
CONTINUOUS
100
AcDbDimension
  2
*D5
 10
73.52557972809278
 20
91.55091949059963
 30
0.0
 11
72.47557972809277
 21
88.3009194905996
 31
0.0
 12
-1.999999849606524
 22
-2.499999912149348
 32
0.0
  3
CAD-STD1-1
100
AcDbAlignedDimension
 13
52.71734836867868
 23
85.05091949059957
 33
0.0
 14
52.71734836867877
 24
91.55091949059963
 34
0.0
 50
90.0
100
AcDbRotatedDimension
  0
CIRCLE
  5
1667
330
1505
100
AcDbEntity
  8
L-1
  6
CONTINUOUS
 62
     7
100
AcDbCircle
 10
54.71734836867875
 20
109.1826224506162
 30
0.0
 40
0.47695
  0
LINE
  5
1668
330
1505
100
AcDbEntity
  8
L-1
  6
CONTINUOUS
 62
     7
100
AcDbLine
 10
53.21734836867868
 20
107.2826224506163
 30
0.0
 11
53.21734836867868
 21
116.8826224506162
 31
0.0
  0
TEXT
  5
1669
330
1505
100
AcDbEntity
  8
L-2
  6
CONTINUOUS
 62
     5
100
AcDbText
 10
46.14495316547005
 20
108.2749975228574
 30
0.0
 40
2.0
  1
OUT 1
  7
MSゴシック
100
AcDbText
  0
LINE
  5
166A
330
1505
100
AcDbEntity
  8
L-1
  6
CONTINUOUS
 62
     7
100
AcDbLine
 10
65.21734836867875
 20
110.0826224506162
 30
0.0
 11
65.21734836867875
 21
108.2826224506163
 31
0.0
  0
LINE
  5
166B
330
1505
100
AcDbEntity
  8
L-1
  6
CONTINUOUS
 62
     7
100
AcDbLine
 10
59.21734836867877
 20
115.8826224506162
 30
0.0
 11
59.21734836867877
 21
108.2826224506163
 31
0.0
  0
LINE
  5
166C
330
1505
100
AcDbEntity
  8
L-1
  6
CONTINUOUS
 62
     7
100
AcDbLine
 10
59.21734836867869
 20
87.0509194905996
 30
0.0
 11
53.21734836867868
 21
87.0509194905996
 31
0.0
  0
LINE
  5
166D
330
1505
100
AcDbEntity
  8
L-1
  6
CONTINUOUS
 62
     7
100
AcDbLine
 10
59.21734836867877
 20
89.5509194905996
 30
0.0
 11
53.21734836867877
 21
89.5509194905996
 31
0.0
  0
TEXT
  5
166E
330
1505
100
AcDbEntity
  8
L-2
  6
CONTINUOUS
 62
     5
100
AcDbText
 10
47.15320485945361
 20
71.50103331631004
 30
0.0
 40
2.0
  1
IN 1
  7
MSゴシック
100
AcDbText
  0
CIRCLE
  5
166F
330
1505
100
AcDbEntity
  8
L-1
  6
CONTINUOUS
 62
     7
100
AcDbCircle
 10
54.71734836867875
 20
72.52793087646788
 30
0.0
 40
0.47695
  0
ARC
  5
1670
330
1505
100
AcDbEntity
  8
L-1
  6
CONTINUOUS
 62
     7
100
AcDbCircle
 10
52.71734836867866
 20
85.5509194905996
 30
0.0
 40
0.5
100
AcDbArc
 50
270.0
 51
359.9999999999983
  0
LINE
  5
1671
330
1505
100
AcDbEntity
  8
L-1
  6
CONTINUOUS
 62
     7
100
AcDbLine
 10
53.21734836867868
 20
87.0509194905996
 30
0.0
 11
53.21734836867864
 21
85.5509194905996
 31
0.0
  0
ARC
  5
1672
330
1505
100
AcDbEntity
  8
L-1
  6
CONTINUOUS
 62
     7
100
AcDbCircle
 10
54.71734836867877
 20
87.20091949059961
 30
0.0
 40
0.5
100
AcDbArc
 50
197.457603123723
 51
342.5423968762776
  0
LINE
  5
1673
330
1505
100
AcDbEntity
  8
L-1
  6
CONTINUOUS
 62
     7
100
AcDbLine
 10
53.21734836867877
 20
91.05091949059959
 30
0.0
 11
53.21734836867877
 21
89.5509194905996
 31
0.0
  0
ARC
  5
1674
330
1505
100
AcDbEntity
  8
L-1
  6
CONTINUOUS
 62
     7
100
AcDbCircle
 10
52.71734836867874
 20
91.05091949059959
 30
0.0
 40
0.5
100
AcDbArc
 50
359.9999999999983
 51
90.0
  0
ARC
  5
1675
330
1505
100
AcDbEntity
  8
L-1
  6
CONTINUOUS
 62
     7
100
AcDbCircle
 10
54.71734836867877
 20
89.4009194905996
 30
0.0
 40
0.5
100
AcDbArc
 50
17.45760312372197
 51
162.5423968762779
  0
LINE
  5
1676
330
1505
100
AcDbEntity
  8
L-1
  6
CONTINUOUS
 62
     7
100
AcDbLine
 10
59.21734836867877
 20
89.5509194905996
 30
0.0
 11
59.21734836867869
 21
87.0509194905996
 31
0.0
  0
LINE
  5
1677
330
1505
100
AcDbEntity
  8
L-1
  6
CONTINUOUS
 62
     7
100
AcDbLine
 10
65.21734836867875
 20
88.80091949059965
 30
0.0
 11
65.21734836867875
 21
87.80091949059963
 31
0.0
  0
LINE
  5
1678
330
1505
100
AcDbEntity
  8
L-1
  6
CONTINUOUS
 62
     7
100
AcDbLine
 10
65.21734836867875
 20
87.80091949059963
 30
0.0
 11
59.21734836867869
 21
87.80091949059963
 31
0.0
  0
LINE
  5
1679
330
1505
100
AcDbEntity
  8
L-1
  6
CONTINUOUS
 62
     7
100
AcDbLine
 10
65.21734836867875
 20
67.62793087646793
 30
0.0
 11
59.21734836867877
 21
67.6279308764679
 31
0.0
  0
LINE
  5
167A
330
1505
100
AcDbEntity
  8
L-1
  6
CONTINUOUS
 62
     7
100
AcDbLine
 10
65.21734836867875
 20
71.62793087646793
 30
0.0
 11
59.21734836867877
 21
71.62793087646789
 31
0.0
  0
LINE
  5
167B
330
1505
100
AcDbEntity
  8
L-1
  6
CONTINUOUS
 62
     7
100
AcDbLine
 10
59.21734836867877
 20
73.42793087646779
 30
0.0
 11
65.21734836867875
 21
73.42793087646779
 31
0.0
  0
LINE
  5
167C
330
1505
100
AcDbEntity
  8
L-1
  6
CONTINUOUS
 62
     7
100
AcDbLine
 10
59.21734836867877
 20
73.42793087646779
 30
0.0
 11
59.21734836867877
 21
74.4279308764678
 31
0.0
  0
LINE
  5
167D
330
1505
100
AcDbEntity
  8
L-1
  6
CONTINUOUS
 62
     7
100
AcDbLine
 10
65.21734836867875
 20
71.62793087646793
 30
0.0
 11
65.21734836867875
 21
73.42793087646779
 31
0.0
  0
LINE
  5
167E
330
1505
100
AcDbEntity
  8
L-1
  6
CONTINUOUS
 62
     7
100
AcDbLine
 10
59.21734836867877
 20
108.2826224506163
 30
0.0
 11
65.21734836867875
 21
108.2826224506163
 31
0.0
  0
LINE
  5
167F
330
1505
100
AcDbEntity
  8
L-1
  6
CONTINUOUS
 62
     7
100
AcDbLine
 10
65.21734836867875
 20
88.80091949059965
 30
0.0
 11
59.21734836867877
 21
88.80091949059965
 31
0.0
  0
LINE
  5
1680
330
1505
100
AcDbEntity
  8
L-1
  6
CONTINUOUS
 62
     7
100
AcDbLine
 10
59.21734836867877
 20
108.2826224506163
 30
0.0
 11
59.21734836867877
 21
107.2826224506163
 31
0.0
  0
TEXT
  5
1681
330
1505
100
AcDbEntity
  8
L-2
  6
CONTINUOUS
 62
     5
100
AcDbText
 10
46.17662560586468
 20
113.9557248904585
 30
0.0
 40
2.0
  1
OUT 2
  7
MSゴシック
100
AcDbText
  0
CIRCLE
  5
1682
330
1505
100
AcDbEntity
  8
L-1
  6
CONTINUOUS
 62
     7
100
AcDbCircle
 10
54.71734836867877
 20
114.9826224506162
 30
0.0
 40
0.47695
  0
LINE
  5
1683
330
1505
100
AcDbEntity
  8
L-1
  6
CONTINUOUS
 62
     7
100
AcDbLine
 10
59.21734836867877
 20
115.8826224506162
 30
0.0
 11
65.21734836867878
 21
115.8826224506162
 31
0.0
  0
LINE
  5
1684
330
1505
100
AcDbEntity
  8
L-1
  6
CONTINUOUS
 62
     7
100
AcDbLine
 10
65.21734836867875
 20
110.0826224506162
 30
0.0
 11
59.21734836867877
 21
110.0826224506162
 31
0.0
  0
LINE
  5
1685
330
1505
100
AcDbEntity
  8
L-1
  6
CONTINUOUS
 62
     7
100
AcDbLine
 10
65.21734836867875
 20
114.0826224506162
 30
0.0
 11
59.21734836867877
 21
114.0826224506162
 31
0.0
  0
LINE
  5
1686
330
1505
100
AcDbEntity
  8
L-1
  6
CONTINUOUS
 62
     7
100
AcDbLine
 10
59.21734836867877
 20
115.8826224506162
 30
0.0
 11
59.21734836867877
 21
116.8826224506162
 31
0.0
  0
LINE
  5
1687
330
1505
100
AcDbEntity
  8
L-1
  6
CONTINUOUS
 62
     7
100
AcDbLine
 10
65.21734836867878
 20
115.8826224506162
 30
0.0
 11
65.21734836867875
 21
114.0826224506162
 31
0.0
  0
ENDBLK
  5
1689
330
1505
100
AcDbEntity
  8
0
100
AcDbBlockEnd
  0
BLOCK
  5
1F53
330
1F49
100
AcDbEntity
  8
0
100
AcDbBlockBegin
  2
*D9
 70
     1
 10
0.0
 20
0.0
 30
0.0
  3
*D9
  1

  0
LINE
  5
208D
330
1F49
100
AcDbEntity
  8
L-2
  6
CONTINUOUS
 62
     4
100
AcDbLine
 10
105.4569613378194
 20
193.6694682515321
 30
0.0
 11
147.1280711920781
 21
193.6694682515321
 31
0.0
  0
LINE
  5
208E
330
1F49
100
AcDbEntity
  8
L-2
  6
CONTINUOUS
 62
     4
100
AcDbLine
 10
105.4569613378194
 20
66.469468251532
 30
0.0
 11
147.1280711920781
 21
66.469468251532
 31
0.0
  0
LINE
  5
208F
330
1F49
100
AcDbEntity
  8
L-2
  6
CONTINUOUS
 62
     4
100
AcDbLine
 10
146.1280711920784
 20
191.1694682515321
 30
0.0
 11
146.1280711920784
 21
68.969468251532
 31
0.0
  0
INSERT
  5
2090
330
1F49
100
AcDbEntity
  8
L-2
  6
CONTINUOUS
 62
     4
100
AcDbBlockReference
  2
_OPEN
 10
146.1280711920784
 20
193.6694682515321
 30
0.0
 41
2.5
 42
2.5
 43
2.5
 50
90.0
  0
INSERT
  5
2091
330
1F49
100
AcDbEntity
  8
L-2
  6
CONTINUOUS
 62
     4
100
AcDbBlockReference
  2
_OPEN
 10
146.1280711920784
 20
66.469468251532
 30
0.0
 41
2.5
 42
2.5
 43
2.5
 50
270.0
  0
MTEXT
  5
2092
330
1F49
100
AcDbEntity
  8
L-2
  6
CONTINUOUS
 62
     2
100
AcDbMText
 10
144.0280711920783
 20
130.069468251532
 30
0.0
 40
3.2
 41
0.0
 71
     5
 72
     1
  1
\A1;127.2
  7
MSゴシック
 11
0.0000000000000001
 21
1.0
 31
0.0
1001
ACAD
1000
MTEXTBEGIN
1070
    73
1070
     1
1070
    44
1040
1.0
1070
    74
1070
     0
1000
MTEXTEND
1000
MTEXTBEGIN
1070
    73
1070
     1
1070
    44
1040
1.0
1070
    74
1070
     0
1000
MTEXTEND
1000
MTEXTBEGIN
1070
    73
1070
     1
1070
    44
1040
1.0
1070
    74
1070
     0
1000
MTEXTEND
1000
MTEXTBEGIN
1070
    73
1070
     1
1070
    44
1040
1.0
1070
    74
1070
     0
1000
MTEXTEND
  0
POINT
  5
2093
330
1F49
100
AcDbEntity
  8
DEFPOINTS
  6
CONTINUOUS
 62
     0
100
AcDbPoint
 10
104.9569613378193
 20
193.6694682515321
 30
0.0
  0
POINT
  5
2094
330
1F49
100
AcDbEntity
  8
DEFPOINTS
  6
CONTINUOUS
 62
     0
100
AcDbPoint
 10
104.9569613378193
 20
66.469468251532
 30
0.0
  0
POINT
  5
2095
330
1F49
100
AcDbEntity
  8
DEFPOINTS
  6
CONTINUOUS
 62
     0
100
AcDbPoint
 10
146.1280711920784
 20
66.469468251532
 30
0.0
  0
ENDBLK
  5
1F54
330
1F49
100
AcDbEntity
  8
0
100
AcDbBlockEnd
  0
BLOCK
  5
1F7B
330
1F71
100
AcDbEntity
  8
0
100
AcDbBlockBegin
  2
*D10
 70
     1
 10
0.0
 20
0.0
 30
0.0
  3
*D10
  1

  0
LINE
  5
2096
330
1F71
100
AcDbEntity
  8
L-2
  6
CONTINUOUS
 62
     4
100
AcDbLine
 10
114.4569613378197
 20
192.2694682515319
 30
0.0
 11
134.6237756655461
 21
192.2694682515319
 31
0.0
  0
LINE
  5
2097
330
1F71
100
AcDbEntity
  8
L-2
  6
CONTINUOUS
 62
     4
100
AcDbLine
 10
114.4569613378189
 20
67.86946825153203
 30
0.0
 11
134.6237756655459
 21
67.86946825153203
 31
0.0
  0
LINE
  5
2098
330
1F71
100
AcDbEntity
  8
L-2
  6
CONTINUOUS
 62
     4
100
AcDbLine
 10
133.6237756655459
 20
189.7694682515319
 30
0.0
 11
133.6237756655459
 21
70.36946825153203
 31
0.0
  0
INSERT
  5
2099
330
1F71
100
AcDbEntity
  8
L-2
  6
CONTINUOUS
 62
     4
100
AcDbBlockReference
  2
_OPEN
 10
133.6237756655461
 20
192.2694682515319
 30
0.0
 41
2.5
 42
2.5
 43
2.5
 50
90.0
  0
INSERT
  5
209A
330
1F71
100
AcDbEntity
  8
L-2
  6
CONTINUOUS
 62
     4
100
AcDbBlockReference
  2
_OPEN
 10
133.6237756655459
 20
67.86946825153203
 30
0.0
 41
2.5
 42
2.5
 43
2.5
 50
270.0
  0
MTEXT
  5
209B
330
1F71
100
AcDbEntity
  8
L-2
  6
CONTINUOUS
 62
     2
100
AcDbMText
 10
131.523775665546
 20
130.069468251532
 30
0.0
 40
3.2
 41
0.0
 71
     5
 72
     1
  1
\A1;124.4
  7
MSゴシック
 11
0.0000000000000001
 21
1.0
 31
0.0
1001
ACAD
1000
MTEXTBEGIN
1070
    73
1070
     1
1070
    44
1040
1.0
1070
    74
1070
     0
1000
MTEXTEND
1000
MTEXTBEGIN
1070
    73
1070
     1
1070
    44
1040
1.0
1070
    74
1070
     0
1000
MTEXTEND
1000
MTEXTBEGIN
1070
    73
1070
     1
1070
    44
1040
1.0
1070
    74
1070
     0
1000
MTEXTEND
1000
MTEXTBEGIN
1070
    73
1070
     1
1070
    44
1040
1.0
1070
    74
1070
     0
1000
MTEXTEND
  0
POINT
  5
209C
330
1F71
100
AcDbEntity
  8
DEFPOINTS
  6
CONTINUOUS
 62
     0
100
AcDbPoint
 10
113.9569613378197
 20
192.2694682515319
 30
0.0
  0
POINT
  5
209D
330
1F71
100
AcDbEntity
  8
DEFPOINTS
  6
CONTINUOUS
 62
     0
100
AcDbPoint
 10
113.9569613378189
 20
67.86946825153203
 30
0.0
  0
POINT
  5
209E
330
1F71
100
AcDbEntity
  8
DEFPOINTS
  6
CONTINUOUS
 62
     0
100
AcDbPoint
 10
133.6237756655459
 20
67.86946825153203
 30
0.0
  0
ENDBLK
  5
1F7C
330
1F71
100
AcDbEntity
  8
0
100
AcDbBlockEnd
  0
BLOCK
  5
1FAC
330
1FA2
100
AcDbEntity
  8
0
100
AcDbBlockBegin
  2
*D11
 70
     1
 10
0.0
 20
0.0
 30
0.0
  3
*D11
  1

  0
LINE
  5
1FE3
330
1FA2
100
AcDbEntity
  8
L-2
  6
CONTINUOUS
 62
     4
100
AcDbLine
 10
61.26796088902387
 20
67.86946825153214
 30
0.0
 11
61.26796088902387
 21
50.0978678187422
 31
0.0
  0
LINE
  5
1FE4
330
1FA2
100
AcDbEntity
  8
L-2
  6
CONTINUOUS
 62
     4
100
AcDbLine
 10
75.26796088902393
 20
67.86946825153214
 30
0.0
 11
75.26796088902393
 21
50.0978678187422
 31
0.0
  0
LINE
  5
1FE5
330
1FA2
100
AcDbEntity
  8
L-2
  6
CONTINUOUS
 62
     4
100
AcDbLine
 10
63.76796088902387
 20
51.0978678187422
 30
0.0
 11
72.76796088902393
 21
51.0978678187422
 31
0.0
  0
INSERT
  5
1FE6
330
1FA2
100
AcDbEntity
  8
L-2
  6
CONTINUOUS
 62
     4
100
AcDbBlockReference
  2
_OPEN
 10
61.26796088902387
 20
51.0978678187422
 30
0.0
 41
2.5
 42
2.5
 43
2.5
 50
180.0
  0
INSERT
  5
1FE7
330
1FA2
100
AcDbEntity
  8
L-2
  6
CONTINUOUS
 62
     4
100
AcDbBlockReference
  2
_OPEN
 10
75.26796088902393
 20
51.0978678187422
 30
0.0
 41
2.5
 42
2.5
 43
2.5
  0
MTEXT
  5
1FE8
330
1FA2
100
AcDbEntity
  8
L-2
  6
CONTINUOUS
 62
     2
100
AcDbMText
 10
68.2679608890239
 20
53.19786781874221
 30
0.0
 40
3.2
 41
0.0
 71
     5
 72
     1
  1
\A1;14
  7
MSゴシック
1001
ACAD
1000
MTEXTBEGIN
1070
    73
1070
     1
1070
    44
1040
1.0
1070
    74
1070
     0
1000
MTEXTEND
1000
MTEXTBEGIN
1070
    73
1070
     1
1070
    44
1040
1.0
1070
    74
1070
     0
1000
MTEXTEND
1000
MTEXTBEGIN
1070
    73
1070
     1
1070
    44
1040
1.0
1070
    74
1070
     0
1000
MTEXTEND
1000
MTEXTBEGIN
1070
    73
1070
     1
1070
    44
1040
1.0
1070
    74
1070
     0
1000
MTEXTEND
  0
POINT
  5
1FE9
330
1FA2
100
AcDbEntity
  8
DEFPOINTS
  6
CONTINUOUS
 62
     0
100
AcDbPoint
 10
61.26796088902387
 20
68.36946825153214
 30
0.0
  0
POINT
  5
1FEA
330
1FA2
100
AcDbEntity
  8
DEFPOINTS
  6
CONTINUOUS
 62
     0
100
AcDbPoint
 10
75.26796088902393
 20
68.36946825153214
 30
0.0
  0
POINT
  5
1FEB
330
1FA2
100
AcDbEntity
  8
DEFPOINTS
  6
CONTINUOUS
 62
     0
100
AcDbPoint
 10
75.26796088902393
 20
51.0978678187422
 30
0.0
  0
ENDBLK
  5
1FAD
330
1FA2
100
AcDbEntity
  8
0
100
AcDbBlockEnd
  0
BLOCK
  5
1FCB
330
1FC1
100
AcDbEntity
  8
0
100
AcDbBlockBegin
  2
*D12
 70
     1
 10
0.0
 20
0.0
 30
0.0
  3
*D12
  1

  0
LINE
  5
1FF5
330
1FC1
100
AcDbEntity
  8
L-2
  6
CONTINUOUS
 62
     4
100
AcDbLine
 10
62.76796088902393
 20
69.06946825153202
 30
0.0
 11
51.35262817911687
 21
69.06946825153202
 31
0.0
  0
LINE
  5
1FF6
330
1FC1
100
AcDbEntity
  8
L-2
  6
CONTINUOUS
 62
     4
100
AcDbLine
 10
62.76796088902393
 20
98.06946825153195
 30
0.0
 11
51.35262817911689
 21
98.06946825153195
 31
0.0
  0
LINE
  5
1FF7
330
1FC1
100
AcDbEntity
  8
L-2
  6
CONTINUOUS
 62
     4
100
AcDbLine
 10
52.35262817911689
 20
71.56946825153202
 30
0.0
 11
52.35262817911689
 21
95.56946825153195
 31
0.0
  0
INSERT
  5
1FF8
330
1FC1
100
AcDbEntity
  8
L-2
  6
CONTINUOUS
 62
     4
100
AcDbBlockReference
  2
_OPEN
 10
52.35262817911689
 20
69.06946825153202
 30
0.0
 41
2.5
 42
2.5
 43
2.5
 50
270.0
  0
INSERT
  5
1FF9
330
1FC1
100
AcDbEntity
  8
L-2
  6
CONTINUOUS
 62
     4
100
AcDbBlockReference
  2
_OPEN
 10
52.35262817911689
 20
98.06946825153195
 30
0.0
 41
2.5
 42
2.5
 43
2.5
 50
90.0
  0
MTEXT
  5
1FFA
330
1FC1
100
AcDbEntity
  8
L-2
  6
CONTINUOUS
 62
     2
100
AcDbMText
 10
50.25262817911688
 20
83.56946825153199
 30
0.0
 40
3.2
 41
0.0
 71
     5
 72
     1
  1
\A1;29
  7
MSゴシック
 11
0.0000000000000001
 21
1.0
 31
0.0
1001
ACAD
1000
MTEXTBEGIN
1070
    73
1070
     1
1070
    44
1040
1.0
1070
    74
1070
     0
1000
MTEXTEND
1000
MTEXTBEGIN
1070
    73
1070
     1
1070
    44
1040
1.0
1070
    74
1070
     0
1000
MTEXTEND
1000
MTEXTBEGIN
1070
    73
1070
     1
1070
    44
1040
1.0
1070
    74
1070
     0
1000
MTEXTEND
1000
MTEXTBEGIN
1070
    73
1070
     1
1070
    44
1040
1.0
1070
    74
1070
     0
1000
MTEXTEND
  0
POINT
  5
1FFB
330
1FC1
100
AcDbEntity
  8
DEFPOINTS
  6
CONTINUOUS
 62
     0
100
AcDbPoint
 10
63.26796088902392
 20
69.06946825153202
 30
0.0
  0
POINT
  5
1FFC
330
1FC1
100
AcDbEntity
  8
DEFPOINTS
  6
CONTINUOUS
 62
     0
100
AcDbPoint
 10
63.26796088902392
 20
98.06946825153195
 30
0.0
  0
POINT
  5
1FFD
330
1FC1
100
AcDbEntity
  8
DEFPOINTS
  6
CONTINUOUS
 62
     0
100
AcDbPoint
 10
52.35262817911689
 20
98.06946825153195
 30
0.0
  0
ENDBLK
  5
1FCC
330
1FC1
100
AcDbEntity
  8
0
100
AcDbBlockEnd
  0
BLOCK
  5
1FD8
330
1FCE
100
AcDbEntity
  8
0
100
AcDbBlockBegin
  2
*D13
 70
     1
 10
0.0
 20
0.0
 30
0.0
  3
*D13
  1

  0
LINE
  5
1FEC
330
1FCE
100
AcDbEntity
  8
L-2
  6
CONTINUOUS
 62
     4
100
AcDbLine
 10
63.26796088902392
 20
68.56946825153201
 30
0.0
 11
63.26796088902392
 21
57.31737277645493
 31
0.0
  0
LINE
  5
1FED
330
1FCE
100
AcDbEntity
  8
L-2
  6
CONTINUOUS
 62
     4
100
AcDbLine
 10
73.26796088902392
 20
68.56946825153201
 30
0.0
 11
73.26796088902392
 21
57.31737277645493
 31
0.0
  0
LINE
  5
1FEE
330
1FCE
100
AcDbEntity
  8
L-2
  6
CONTINUOUS
 62
     4
100
AcDbLine
 10
65.76796088902392
 20
58.31737277645492
 30
0.0
 11
70.76796088902392
 21
58.31737277645492
 31
0.0
  0
INSERT
  5
1FEF
330
1FCE
100
AcDbEntity
  8
L-2
  6
CONTINUOUS
 62
     4
100
AcDbBlockReference
  2
_OPEN
 10
63.26796088902392
 20
58.31737277645492
 30
0.0
 41
2.5
 42
2.5
 43
2.5
 50
180.0
  0
INSERT
  5
1FF0
330
1FCE
100
AcDbEntity
  8
L-2
  6
CONTINUOUS
 62
     4
100
AcDbBlockReference
  2
_OPEN
 10
73.26796088902392
 20
58.31737277645492
 30
0.0
 41
2.5
 42
2.5
 43
2.5
  0
MTEXT
  5
1FF1
330
1FCE
100
AcDbEntity
  8
L-2
  6
CONTINUOUS
 62
     2
100
AcDbMText
 10
68.26796088902392
 20
60.41737277645492
 30
0.0
 40
3.2
 41
0.0
 71
     5
 72
     1
  1
\A1;10
  7
MSゴシック
1001
ACAD
1000
MTEXTBEGIN
1070
    73
1070
     1
1070
    44
1040
1.0
1070
    74
1070
     0
1000
MTEXTEND
1000
MTEXTBEGIN
1070
    73
1070
     1
1070
    44
1040
1.0
1070
    74
1070
     0
1000
MTEXTEND
1000
MTEXTBEGIN
1070
    73
1070
     1
1070
    44
1040
1.0
1070
    74
1070
     0
1000
MTEXTEND
1000
MTEXTBEGIN
1070
    73
1070
     1
1070
    44
1040
1.0
1070
    74
1070
     0
1000
MTEXTEND
  0
POINT
  5
1FF2
330
1FCE
100
AcDbEntity
  8
DEFPOINTS
  6
CONTINUOUS
 62
     0
100
AcDbPoint
 10
63.26796088902392
 20
69.06946825153202
 30
0.0
  0
POINT
  5
1FF3
330
1FCE
100
AcDbEntity
  8
DEFPOINTS
  6
CONTINUOUS
 62
     0
100
AcDbPoint
 10
73.26796088902392
 20
69.06946825153202
 30
0.0
  0
POINT
  5
1FF4
330
1FCE
100
AcDbEntity
  8
DEFPOINTS
  6
CONTINUOUS
 62
     0
100
AcDbPoint
 10
73.26796088902392
 20
58.31737277645492
 30
0.0
  0
ENDBLK
  5
1FD9
330
1FCE
100
AcDbEntity
  8
0
100
AcDbBlockEnd
  0
BLOCK
  5
2009
330
1FFF
100
AcDbEntity
  8
0
100
AcDbBlockBegin
  2
*D14
 70
     1
 10
0.0
 20
0.0
 30
0.0
  3
*D14
  1

  0
LINE
  5
2060
330
1FFF
100
AcDbEntity
  8
L-2
  6
CONTINUOUS
 62
     4
100
AcDbLine
 10
62.76796088902393
 20
100.0694682515319
 30
0.0
 11
51.35262817911689
 21
100.0694682515319
 31
0.0
  0
LINE
  5
2061
330
1FFF
100
AcDbEntity
  8
L-2
  6
CONTINUOUS
 62
     4
100
AcDbLine
 10
62.76796088902393
 20
129.0694682515322
 30
0.0
 11
51.3526281791169
 21
129.0694682515322
 31
0.0
  0
LINE
  5
2062
330
1FFF
100
AcDbEntity
  8
L-2
  6
CONTINUOUS
 62
     4
100
AcDbLine
 10
52.35262817911689
 20
102.5694682515319
 30
0.0
 11
52.3526281791169
 21
126.5694682515322
 31
0.0
  0
INSERT
  5
2063
330
1FFF
100
AcDbEntity
  8
L-2
  6
CONTINUOUS
 62
     4
100
AcDbBlockReference
  2
_OPEN
 10
52.35262817911689
 20
100.0694682515319
 30
0.0
 41
2.5
 42
2.5
 43
2.5
 50
270.0
  0
INSERT
  5
2064
330
1FFF
100
AcDbEntity
  8
L-2
  6
CONTINUOUS
 62
     4
100
AcDbBlockReference
  2
_OPEN
 10
52.3526281791169
 20
129.0694682515322
 30
0.0
 41
2.5
 42
2.5
 43
2.5
 50
90.0
  0
MTEXT
  5
2065
330
1FFF
100
AcDbEntity
  8
L-2
  6
CONTINUOUS
 62
     2
100
AcDbMText
 10
50.25262817911688
 20
114.5694682515321
 30
0.0
 40
3.2
 41
0.0
 71
     5
 72
     1
  1
\A1;29
  7
MSゴシック
 11
0.0000000000000001
 21
1.0
 31
0.0
1001
ACAD
1000
MTEXTBEGIN
1070
    73
1070
     1
1070
    44
1040
1.0
1070
    74
1070
     0
1000
MTEXTEND
1000
MTEXTBEGIN
1070
    73
1070
     1
1070
    44
1040
1.0
1070
    74
1070
     0
1000
MTEXTEND
1000
MTEXTBEGIN
1070
    73
1070
     1
1070
    44
1040
1.0
1070
    74
1070
     0
1000
MTEXTEND
1000
MTEXTBEGIN
1070
    73
1070
     1
1070
    44
1040
1.0
1070
    74
1070
     0
1000
MTEXTEND
  0
POINT
  5
2066
330
1FFF
100
AcDbEntity
  8
DEFPOINTS
  6
CONTINUOUS
 62
     0
100
AcDbPoint
 10
63.26796088902392
 20
100.0694682515319
 30
0.0
  0
POINT
  5
2067
330
1FFF
100
AcDbEntity
  8
DEFPOINTS
  6
CONTINUOUS
 62
     0
100
AcDbPoint
 10
63.26796088902392
 20
129.0694682515322
 30
0.0
  0
POINT
  5
2068
330
1FFF
100
AcDbEntity
  8
DEFPOINTS
  6
CONTINUOUS
 62
     0
100
AcDbPoint
 10
52.3526281791169
 20
129.0694682515322
 30
0.0
  0
ENDBLK
  5
200A
330
1FFF
100
AcDbEntity
  8
0
100
AcDbBlockEnd
  0
BLOCK
  5
2016
330
200C
100
AcDbEntity
  8
0
100
AcDbBlockBegin
  2
*D15
 70
     1
 10
0.0
 20
0.0
 30
0.0
  3
*D15
  1

  0
LINE
  5
2069
330
200C
100
AcDbEntity
  8
L-2
  6
CONTINUOUS
 62
     4
100
AcDbLine
 10
62.76796088902393
 20
131.0694682515322
 30
0.0
 11
51.3526281791169
 21
131.0694682515322
 31
0.0
  0
LINE
  5
206A
330
200C
100
AcDbEntity
  8
L-2
  6
CONTINUOUS
 62
     4
100
AcDbLine
 10
62.76796088902393
 20
160.0694682515323
 30
0.0
 11
51.35262817911691
 21
160.0694682515323
 31
0.0
  0
LINE
  5
206B
330
200C
100
AcDbEntity
  8
L-2
  6
CONTINUOUS
 62
     4
100
AcDbLine
 10
52.3526281791169
 20
133.5694682515323
 30
0.0
 11
52.3526281791169
 21
157.5694682515323
 31
0.0
  0
INSERT
  5
206C
330
200C
100
AcDbEntity
  8
L-2
  6
CONTINUOUS
 62
     4
100
AcDbBlockReference
  2
_OPEN
 10
52.3526281791169
 20
131.0694682515322
 30
0.0
 41
2.5
 42
2.5
 43
2.5
 50
270.0
  0
INSERT
  5
206D
330
200C
100
AcDbEntity
  8
L-2
  6
CONTINUOUS
 62
     4
100
AcDbBlockReference
  2
_OPEN
 10
52.3526281791169
 20
160.0694682515323
 30
0.0
 41
2.5
 42
2.5
 43
2.5
 50
90.0
  0
MTEXT
  5
206E
330
200C
100
AcDbEntity
  8
L-2
  6
CONTINUOUS
 62
     2
100
AcDbMText
 10
50.25262817911688
 20
145.569468251532
 30
0.0
 40
3.2
 41
0.0
 71
     5
 72
     1
  1
\A1;29
  7
MSゴシック
 11
0.0000000000000001
 21
1.0
 31
0.0
1001
ACAD
1000
MTEXTBEGIN
1070
    73
1070
     1
1070
    44
1040
1.0
1070
    74
1070
     0
1000
MTEXTEND
1000
MTEXTBEGIN
1070
    73
1070
     1
1070
    44
1040
1.0
1070
    74
1070
     0
1000
MTEXTEND
1000
MTEXTBEGIN
1070
    73
1070
     1
1070
    44
1040
1.0
1070
    74
1070
     0
1000
MTEXTEND
1000
MTEXTBEGIN
1070
    73
1070
     1
1070
    44
1040
1.0
1070
    74
1070
     0
1000
MTEXTEND
  0
POINT
  5
206F
330
200C
100
AcDbEntity
  8
DEFPOINTS
  6
CONTINUOUS
 62
     0
100
AcDbPoint
 10
63.26796088902392
 20
131.0694682515322
 30
0.0
  0
POINT
  5
2070
330
200C
100
AcDbEntity
  8
DEFPOINTS
  6
CONTINUOUS
 62
     0
100
AcDbPoint
 10
63.26796088902392
 20
160.0694682515323
 30
0.0
  0
POINT
  5
2071
330
200C
100
AcDbEntity
  8
DEFPOINTS
  6
CONTINUOUS
 62
     0
100
AcDbPoint
 10
52.3526281791169
 20
160.0694682515323
 30
0.0
  0
ENDBLK
  5
2017
330
200C
100
AcDbEntity
  8
0
100
AcDbBlockEnd
  0
BLOCK
  5
2023
330
2019
100
AcDbEntity
  8
0
100
AcDbBlockBegin
  2
*D16
 70
     1
 10
0.0
 20
0.0
 30
0.0
  3
*D16
  1

  0
LINE
  5
2072
330
2019
100
AcDbEntity
  8
L-2
  6
CONTINUOUS
 62
     4
100
AcDbLine
 10
62.76796088902393
 20
162.0694682515321
 30
0.0
 11
51.35262817911691
 21
162.0694682515321
 31
0.0
  0
LINE
  5
2073
330
2019
100
AcDbEntity
  8
L-2
  6
CONTINUOUS
 62
     4
100
AcDbLine
 10
62.76796088902393
 20
191.0694682515321
 30
0.0
 11
51.35262817911691
 21
191.0694682515321
 31
0.0
  0
LINE
  5
2074
330
2019
100
AcDbEntity
  8
L-2
  6
CONTINUOUS
 62
     4
100
AcDbLine
 10
52.3526281791169
 20
164.5694682515323
 30
0.0
 11
52.3526281791169
 21
188.5694682515321
 31
0.0
  0
INSERT
  5
2075
330
2019
100
AcDbEntity
  8
L-2
  6
CONTINUOUS
 62
     4
100
AcDbBlockReference
  2
_OPEN
 10
52.3526281791169
 20
162.0694682515321
 30
0.0
 41
2.5
 42
2.5
 43
2.5
 50
270.0
  0
INSERT
  5
2076
330
2019
100
AcDbEntity
  8
L-2
  6
CONTINUOUS
 62
     4
100
AcDbBlockReference
  2
_OPEN
 10
52.3526281791169
 20
191.0694682515321
 30
0.0
 41
2.5
 42
2.5
 43
2.5
 50
90.0
  0
MTEXT
  5
2077
330
2019
100
AcDbEntity
  8
L-2
  6
CONTINUOUS
 62
     2
100
AcDbMText
 10
50.25262817911688
 20
176.5694682515321
 30
0.0
 40
3.2
 41
0.0
 71
     5
 72
     1
  1
\A1;29
  7
MSゴシック
 11
0.0000000000000001
 21
1.0
 31
0.0
1001
ACAD
1000
MTEXTBEGIN
1070
    73
1070
     1
1070
    44
1040
1.0
1070
    74
1070
     0
1000
MTEXTEND
1000
MTEXTBEGIN
1070
    73
1070
     1
1070
    44
1040
1.0
1070
    74
1070
     0
1000
MTEXTEND
1000
MTEXTBEGIN
1070
    73
1070
     1
1070
    44
1040
1.0
1070
    74
1070
     0
1000
MTEXTEND
1000
MTEXTBEGIN
1070
    73
1070
     1
1070
    44
1040
1.0
1070
    74
1070
     0
1000
MTEXTEND
  0
POINT
  5
2078
330
2019
100
AcDbEntity
  8
DEFPOINTS
  6
CONTINUOUS
 62
     0
100
AcDbPoint
 10
63.26796088902392
 20
162.0694682515321
 30
0.0
  0
POINT
  5
2079
330
2019
100
AcDbEntity
  8
DEFPOINTS
  6
CONTINUOUS
 62
     0
100
AcDbPoint
 10
63.26796088902392
 20
191.0694682515321
 30
0.0
  0
POINT
  5
207A
330
2019
100
AcDbEntity
  8
DEFPOINTS
  6
CONTINUOUS
 62
     0
100
AcDbPoint
 10
52.3526281791169
 20
191.0694682515321
 30
0.0
  0
ENDBLK
  5
2024
330
2019
100
AcDbEntity
  8
0
100
AcDbBlockEnd
  0
BLOCK
  5
2031
330
2026
100
AcDbEntity
  8
0
100
AcDbBlockBegin
  2
*D17
 70
     1
 10
0.0
 20
0.0
 30
0.0
  3
*D17
  1

  0
LINE
  5
2057
330
2026
100
AcDbEntity
  8
L-2
  6
CONTINUOUS
 62
     4
100
AcDbLine
 10
101.9569613378194
 20
67.96946825153205
 30
0.0
 11
101.9569613378194
 21
50.0978678187422
 31
0.0
  0
LINE
  5
2058
330
2026
100
AcDbEntity
  8
L-2
  6
CONTINUOUS
 62
     4
100
AcDbLine
 10
115.6569613378195
 20
68.86946825153202
 30
0.0
 11
115.6569613378195
 21
50.0978678187422
 31
0.0
  0
LINE
  5
2059
330
2026
100
AcDbEntity
  8
L-2
  6
CONTINUOUS
 62
     4
100
AcDbLine
 10
104.4569613378194
 20
51.0978678187422
 30
0.0
 11
113.1569613378196
 21
51.0978678187422
 31
0.0
  0
INSERT
  5
205A
330
2026
100
AcDbEntity
  8
L-2
  6
CONTINUOUS
 62
     4
100
AcDbBlockReference
  2
_OPEN
 10
101.9569613378194
 20
51.0978678187422
 30
0.0
 41
2.5
 42
2.5
 43
2.5
 50
180.0
  0
INSERT
  5
205B
330
2026
100
AcDbEntity
  8
L-2
  6
CONTINUOUS
 62
     4
100
AcDbBlockReference
  2
_OPEN
 10
115.6569613378195
 20
51.0978678187422
 30
0.0
 41
2.5
 42
2.5
 43
2.5
  0
MTEXT
  5
205C
330
2026
100
AcDbEntity
  8
L-2
  6
CONTINUOUS
 62
     2
100
AcDbMText
 10
108.8069613378195
 20
53.19786781874221
 30
0.0
 40
3.2
 41
0.0
 71
     5
 72
     1
  1
\A1;13.7
  7
MSゴシック
1001
ACAD
1000
MTEXTBEGIN
1070
    73
1070
     1
1070
    44
1040
1.0
1070
    74
1070
     0
1000
MTEXTEND
1000
MTEXTBEGIN
1070
    73
1070
     1
1070
    44
1040
1.0
1070
    74
1070
     0
1000
MTEXTEND
1000
MTEXTBEGIN
1070
    73
1070
     1
1070
    44
1040
1.0
1070
    74
1070
     0
1000
MTEXTEND
1000
MTEXTBEGIN
1070
    73
1070
     1
1070
    44
1040
1.0
1070
    74
1070
     0
1000
MTEXTEND
  0
POINT
  5
205D
330
2026
100
AcDbEntity
  8
DEFPOINTS
  6
CONTINUOUS
 62
     0
100
AcDbPoint
 10
101.9569613378194
 20
68.46946825153205
 30
0.0
  0
POINT
  5
205E
330
2026
100
AcDbEntity
  8
DEFPOINTS
  6
CONTINUOUS
 62
     0
100
AcDbPoint
 10
115.6569613378195
 20
69.36946825153203
 30
0.0
  0
POINT
  5
205F
330
2026
100
AcDbEntity
  8
DEFPOINTS
  6
CONTINUOUS
 62
     0
100
AcDbPoint
 10
115.6569613378195
 20
51.0978678187422
 30
0.0
  0
ENDBLK
  5
2032
330
2026
100
AcDbEntity
  8
0
100
AcDbBlockEnd
  0
BLOCK
  5
20CF
330
20C5
100
AcDbEntity
  8
0
100
AcDbBlockBegin
  2
*D18
 70
     1
 10
0.0
 20
0.0
 30
0.0
  3
*D18
  1

  0
LINE
  5
20C6
330
20C5
100
AcDbEntity
  8
0
  6
BYBLOCK
 62
     4
100
AcDbLine
 10
61.77041980031864
 20
256.4181222490245
 30
0.0
 11
61.77041980031864
 21
264.6432195377245
 31
0.0
  0
LINE
  5
20C7
330
20C5
100
AcDbEntity
  8
0
  6
BYBLOCK
 62
     4
100
AcDbLine
 10
75.77041980031871
 20
256.4181222490245
 30
0.0
 11
75.77041980031871
 21
264.6432195377245
 31
0.0
  0
LINE
  5
20C8
330
20C5
100
AcDbEntity
  8
0
  6
BYBLOCK
 62
     4
100
AcDbLine
 10
64.27041980031865
 20
263.6432195377245
 30
0.0
 11
73.27041980031871
 21
263.6432195377245
 31
0.0
  0
INSERT
  5
20C9
330
20C5
100
AcDbEntity
  8
0
  6
BYBLOCK
 62
     4
100
AcDbBlockReference
  2
_OPEN
 10
61.77041980031864
 20
263.6432195377245
 30
0.0
 41
2.5
 42
2.5
 43
2.5
 50
180.0
  0
INSERT
  5
20CA
330
20C5
100
AcDbEntity
  8
0
  6
BYBLOCK
 62
     4
100
AcDbBlockReference
  2
_OPEN
 10
75.77041980031871
 20
263.6432195377245
 30
0.0
 41
2.5
 42
2.5
 43
2.5
  0
MTEXT
  5
20CB
330
20C5
100
AcDbEntity
  8
0
  6
BYBLOCK
 62
     2
100
AcDbMText
 10
68.77041980031868
 20
265.7432195377245
 30
0.0
 40
3.2
 41
0.0
 71
     5
 72
     1
  1
\A1;14
  7
BGS
1001
ACAD
1000
MTEXTBEGIN
1070
    73
1070
     1
1070
    44
1040
1.0
1070
    74
1070
     0
1000
MTEXTEND
1000
MTEXTBEGIN
1070
    73
1070
     1
1070
    44
1040
1.0
1070
    74
1070
     0
1000
MTEXTEND
1000
MTEXTBEGIN
1070
    73
1070
     1
1070
    44
1040
1.0
1070
    74
1070
     0
1000
MTEXTEND
  0
POINT
  5
20CC
330
20C5
100
AcDbEntity
  8
DEFPOINTS
  6
BYBLOCK
 62
     0
100
AcDbPoint
 10
61.77041980031864
 20
255.9181222490245
 30
0.0
  0
POINT
  5
20CD
330
20C5
100
AcDbEntity
  8
DEFPOINTS
  6
BYBLOCK
 62
     0
100
AcDbPoint
 10
75.77041980031871
 20
255.9181222490245
 30
0.0
  0
POINT
  5
20CE
330
20C5
100
AcDbEntity
  8
DEFPOINTS
  6
BYBLOCK
 62
     0
100
AcDbPoint
 10
75.77041980031871
 20
263.6432195377245
 30
0.0
  0
ENDBLK
  5
20D0
330
20C5
100
AcDbEntity
  8
0
100
AcDbBlockEnd
  0
BLOCK
  5
20DB
330
20D1
100
AcDbEntity
  8
0
100
AcDbBlockBegin
  2
*D19
 70
     1
 10
0.0
 20
0.0
 30
0.0
  3
*D19
  1

  0
LINE
  5
20D2
330
20D1
100
AcDbEntity
  8
0
  6
BYBLOCK
 62
     4
100
AcDbLine
 10
69.95043888558699
 20
171.5221248860109
 30
0.0
 11
59.63670397811029
 21
171.5221248860109
 31
0.0
  0
LINE
  5
20D3
330
20D1
100
AcDbEntity
  8
0
  6
BYBLOCK
 62
     4
100
AcDbLine
 10
69.95043888558699
 20
148.522124886011
 30
0.0
 11
59.63670397811029
 21
148.522124886011
 31
0.0
  0
LINE
  5
20D4
330
20D1
100
AcDbEntity
  8
0
  6
BYBLOCK
 62
     4
100
AcDbLine
 10
60.63670397811028
 20
169.022124886011
 30
0.0
 11
60.63670397811028
 21
151.022124886011
 31
0.0
  0
INSERT
  5
20D5
330
20D1
100
AcDbEntity
  8
0
  6
BYBLOCK
 62
     4
100
AcDbBlockReference
  2
_OPEN
 10
60.63670397811028
 20
171.5221248860109
 30
0.0
 41
2.5
 42
2.5
 43
2.5
 50
90.0
  0
INSERT
  5
20D6
330
20D1
100
AcDbEntity
  8
0
  6
BYBLOCK
 62
     4
100
AcDbBlockReference
  2
_OPEN
 10
60.63670397811028
 20
148.522124886011
 30
0.0
 41
2.5
 42
2.5
 43
2.5
 50
270.0
  0
MTEXT
  5
20D7
330
20D1
100
AcDbEntity
  8
0
  6
BYBLOCK
 62
     2
100
AcDbMText
 10
57.69860874001505
 20
160.0221248860109
 30
0.0
 40
3.2
 41
0.0
 71
     5
 72
     1
  1
\A1;(23)
  7
BGS
 11
0.0000000000000001
 21
1.0
 31
0.0
1001
ACAD
1000
MTEXTBEGIN
1070
    73
1070
     1
1070
    44
1040
1.0
1070
    74
1070
     0
1000
MTEXTEND
1000
MTEXTBEGIN
1070
    73
1070
     1
1070
    44
1040
1.0
1070
    74
1070
     0
1000
MTEXTEND
1000
MTEXTBEGIN
1070
    73
1070
     1
1070
    44
1040
1.0
1070
    74
1070
     0
1000
MTEXTEND
  0
POINT
  5
20D8
330
20D1
100
AcDbEntity
  8
DEFPOINTS
  6
BYBLOCK
 62
     0
100
AcDbPoint
 10
70.45043888558699
 20
171.5221248860109
 30
0.0
  0
POINT
  5
20D9
330
20D1
100
AcDbEntity
  8
DEFPOINTS
  6
BYBLOCK
 62
     0
100
AcDbPoint
 10
70.45043888558699
 20
148.522124886011
 30
0.0
  0
POINT
  5
20DA
330
20D1
100
AcDbEntity
  8
DEFPOINTS
  6
BYBLOCK
 62
     0
100
AcDbPoint
 10
60.63670397811028
 20
148.522124886011
 30
0.0
  0
ENDBLK
  5
20DC
330
20D1
100
AcDbEntity
  8
0
100
AcDbBlockEnd
  0
BLOCK
  5
20E7
330
20DD
100
AcDbEntity
  8
0
100
AcDbBlockBegin
  2
*D20
 70
     1
 10
0.0
 20
0.0
 30
0.0
  3
*D20
  1

  0
LINE
  5
20DE
330
20DD
100
AcDbEntity
  8
0
  6
BYBLOCK
 62
     4
100
AcDbLine
 10
69.95043888558699
 20
196.4221248860112
 30
0.0
 11
59.63670397811029
 21
196.4221248860112
 31
0.0
  0
LINE
  5
20DF
330
20DD
100
AcDbEntity
  8
0
  6
BYBLOCK
 62
     4
100
AcDbLine
 10
69.95043888558699
 20
173.5221248860112
 30
0.0
 11
59.63670397811029
 21
173.5221248860112
 31
0.0
  0
LINE
  5
20E0
330
20DD
100
AcDbEntity
  8
0
  6
BYBLOCK
 62
     4
100
AcDbLine
 10
60.6367039781103
 20
193.9221248860112
 30
0.0
 11
60.6367039781103
 21
176.0221248860112
 31
0.0
  0
INSERT
  5
20E1
330
20DD
100
AcDbEntity
  8
0
  6
BYBLOCK
 62
     4
100
AcDbBlockReference
  2
_OPEN
 10
60.6367039781103
 20
196.4221248860112
 30
0.0
 41
2.5
 42
2.5
 43
2.5
 50
90.0
  0
INSERT
  5
20E2
330
20DD
100
AcDbEntity
  8
0
  6
BYBLOCK
 62
     4
100
AcDbBlockReference
  2
_OPEN
 10
60.63670397811028
 20
173.5221248860112
 30
0.0
 41
2.5
 42
2.5
 43
2.5
 50
270.0
  0
MTEXT
  5
20E3
330
20DD
100
AcDbEntity
  8
0
  6
BYBLOCK
 62
     2
100
AcDbMText
 10
57.69860874001506
 20
184.972124886011
 30
0.0
 40
3.2
 41
0.0
 71
     5
 72
     1
  1
\A1;(22.9)
  7
BGS
 11
0.0000000000000001
 21
1.0
 31
0.0
1001
ACAD
1000
MTEXTBEGIN
1070
    73
1070
     1
1070
    44
1040
1.0
1070
    74
1070
     0
1000
MTEXTEND
1000
MTEXTBEGIN
1070
    73
1070
     1
1070
    44
1040
1.0
1070
    74
1070
     0
1000
MTEXTEND
1000
MTEXTBEGIN
1070
    73
1070
     1
1070
    44
1040
1.0
1070
    74
1070
     0
1000
MTEXTEND
  0
POINT
  5
20E4
330
20DD
100
AcDbEntity
  8
DEFPOINTS
  6
BYBLOCK
 62
     0
100
AcDbPoint
 10
70.45043888558699
 20
196.4221248860112
 30
0.0
  0
POINT
  5
20E5
330
20DD
100
AcDbEntity
  8
DEFPOINTS
  6
BYBLOCK
 62
     0
100
AcDbPoint
 10
70.45043888558699
 20
173.5221248860112
 30
0.0
  0
POINT
  5
20E6
330
20DD
100
AcDbEntity
  8
DEFPOINTS
  6
BYBLOCK
 62
     0
100
AcDbPoint
 10
60.63670397811028
 20
173.5221248860112
 30
0.0
  0
ENDBLK
  5
20E8
330
20DD
100
AcDbEntity
  8
0
100
AcDbBlockEnd
  0
BLOCK
  5
20F5
330
20E9
100
AcDbEntity
  8
0
100
AcDbBlockBegin
  2
*D21
 70
     1
 10
0.0
 20
0.0
 30
0.0
  3
*D21
  1

  0
LINE
  5
20EA
330
20E9
100
AcDbEntity
  8
0
  6
BYBLOCK
 62
     4
100
AcDbLine
 10
80.95043888558702
 20
179.5221248860108
 30
0.0
 11
92.04705353680322
 21
179.5221248860108
 31
0.0
  0
LINE
  5
20EB
330
20E9
100
AcDbEntity
  8
0
  6
BYBLOCK
 62
     4
100
AcDbLine
 10
80.95043888558702
 20
177.5221248860108
 30
0.0
 11
92.04705353680322
 21
177.5221248860108
 31
0.0
  0
LINE
  5
20EC
330
20E9
100
AcDbEntity
  8
0
  6
BYBLOCK
 62
     4
100
AcDbLine
 10
91.04705353680321
 20
182.0221248860108
 30
0.0
 11
91.04705353680321
 21
184.5221248860108
 31
0.0
  0
LINE
  5
20ED
330
20E9
100
AcDbEntity
  8
0
  6
BYBLOCK
 62
     4
100
AcDbLine
 10
91.04705353680321
 20
175.0221248860109
 30
0.0
 11
91.04705353680321
 21
169.3887915526774
 31
0.0
  0
LINE
  5
20EE
330
20E9
100
AcDbEntity
  8
0
  6
BYBLOCK
 62
     4
100
AcDbLine
 10
91.04705353680321
 20
179.5221248860108
 30
0.0
 11
91.04705353680321
 21
177.5221248860108
 31
0.0
  0
INSERT
  5
20EF
330
20E9
100
AcDbEntity
  8
0
  6
BYBLOCK
 62
     4
100
AcDbBlockReference
  2
_OPEN
 10
91.04705353680321
 20
179.5221248860108
 30
0.0
 41
2.5
 42
2.5
 43
2.5
 50
270.0
  0
INSERT
  5
20F0
330
20E9
100
AcDbEntity
  8
0
  6
BYBLOCK
 62
     4
100
AcDbBlockReference
  2
_OPEN
 10
91.04705353680321
 20
177.5221248860108
 30
0.0
 41
2.5
 42
2.5
 43
2.5
 50
90.0
  0
MTEXT
  5
20F1
330
20E9
100
AcDbEntity
  8
0
  6
BYBLOCK
 62
     2
100
AcDbMText
 10
88.94705353680322
 20
170.9554582193443
 30
0.0
 40
3.2
 41
0.0
 71
     5
 72
     1
  1
\A1;2
  7
BGS
 11
0.0000000000000001
 21
1.0
 31
0.0
1001
ACAD
1000
MTEXTBEGIN
1070
    73
1070
     1
1070
    44
1040
1.0
1070
    74
1070
     0
1000
MTEXTEND
1000
MTEXTBEGIN
1070
    73
1070
     1
1070
    44
1040
1.0
1070
    74
1070
     0
1000
MTEXTEND
1000
MTEXTBEGIN
1070
    73
1070
     1
1070
    44
1040
1.0
1070
    74
1070
     0
1000
MTEXTEND
  0
POINT
  5
20F2
330
20E9
100
AcDbEntity
  8
DEFPOINTS
  6
BYBLOCK
 62
     0
100
AcDbPoint
 10
80.45043888558701
 20
179.5221248860108
 30
0.0
  0
POINT
  5
20F3
330
20E9
100
AcDbEntity
  8
DEFPOINTS
  6
BYBLOCK
 62
     0
100
AcDbPoint
 10
80.45043888558701
 20
177.5221248860108
 30
0.0
  0
POINT
  5
20F4
330
20E9
100
AcDbEntity
  8
DEFPOINTS
  6
BYBLOCK
 62
     0
100
AcDbPoint
 10
91.04705353680321
 20
177.5221248860108
 30
0.0
  0
ENDBLK
  5
20F6
330
20E9
100
AcDbEntity
  8
0
100
AcDbBlockEnd
  0
BLOCK
  5
2101
330
20F7
100
AcDbEntity
  8
0
100
AcDbBlockBegin
  2
*D22
 70
     1
 10
0.0
 20
0.0
 30
0.0
  3
*D22
  1

  0
LINE
  5
20F8
330
20F7
100
AcDbEntity
  8
0
  6
BYBLOCK
 62
     4
100
AcDbLine
 10
69.95043888558699
 20
146.5221248860108
 30
0.0
 11
59.63670397811029
 21
146.5221248860108
 31
0.0
  0
LINE
  5
20F9
330
20F7
100
AcDbEntity
  8
0
  6
BYBLOCK
 62
     4
100
AcDbLine
 10
69.95043888558699
 20
123.5221248860107
 30
0.0
 11
59.63670397811029
 21
123.5221248860107
 31
0.0
  0
LINE
  5
20FA
330
20F7
100
AcDbEntity
  8
0
  6
BYBLOCK
 62
     4
100
AcDbLine
 10
60.63670397811028
 20
144.0221248860108
 30
0.0
 11
60.63670397811028
 21
126.0221248860108
 31
0.0
  0
INSERT
  5
20FB
330
20F7
100
AcDbEntity
  8
0
  6
BYBLOCK
 62
     4
100
AcDbBlockReference
  2
_OPEN
 10
60.63670397811028
 20
146.5221248860108
 30
0.0
 41
2.5
 42
2.5
 43
2.5
 50
90.0
  0
INSERT
  5
20FC
330
20F7
100
AcDbEntity
  8
0
  6
BYBLOCK
 62
     4
100
AcDbBlockReference
  2
_OPEN
 10
60.63670397811028
 20
123.5221248860107
 30
0.0
 41
2.5
 42
2.5
 43
2.5
 50
270.0
  0
MTEXT
  5
20FD
330
20F7
100
AcDbEntity
  8
0
  6
BYBLOCK
 62
     2
100
AcDbMText
 10
57.69860874001505
 20
135.0221248860107
 30
0.0
 40
3.2
 41
0.0
 71
     5
 72
     1
  1
\A1;(23)
  7
BGS
 11
0.0000000000000001
 21
1.0
 31
0.0
1001
ACAD
1000
MTEXTBEGIN
1070
    73
1070
     1
1070
    44
1040
1.0
1070
    74
1070
     0
1000
MTEXTEND
1000
MTEXTBEGIN
1070
    73
1070
     1
1070
    44
1040
1.0
1070
    74
1070
     0
1000
MTEXTEND
1000
MTEXTBEGIN
1070
    73
1070
     1
1070
    44
1040
1.0
1070
    74
1070
     0
1000
MTEXTEND
  0
POINT
  5
20FE
330
20F7
100
AcDbEntity
  8
DEFPOINTS
  6
BYBLOCK
 62
     0
100
AcDbPoint
 10
70.45043888558699
 20
146.5221248860108
 30
0.0
  0
POINT
  5
20FF
330
20F7
100
AcDbEntity
  8
DEFPOINTS
  6
BYBLOCK
 62
     0
100
AcDbPoint
 10
70.45043888558699
 20
123.5221248860107
 30
0.0
  0
POINT
  5
2100
330
20F7
100
AcDbEntity
  8
DEFPOINTS
  6
BYBLOCK
 62
     0
100
AcDbPoint
 10
60.63670397811028
 20
123.5221248860107
 30
0.0
  0
ENDBLK
  5
2102
330
20F7
100
AcDbEntity
  8
0
100
AcDbBlockEnd
  0
BLOCK
  5
210D
330
2103
100
AcDbEntity
  8
0
100
AcDbBlockBegin
  2
*D23
 70
     1
 10
0.0
 20
0.0
 30
0.0
  3
*D23
  1

  0
LINE
  5
2104
330
2103
100
AcDbEntity
  8
0
  6
BYBLOCK
 62
     4
100
AcDbLine
 10
69.95043888558699
 20
121.5221248860109
 30
0.0
 11
59.63670397811029
 21
121.5221248860109
 31
0.0
  0
LINE
  5
2105
330
2103
100
AcDbEntity
  8
0
  6
BYBLOCK
 62
     4
100
AcDbLine
 10
69.95043888558699
 20
98.62212488601091
 30
0.0
 11
59.63670397811029
 21
98.62212488601091
 31
0.0
  0
LINE
  5
2106
330
2103
100
AcDbEntity
  8
0
  6
BYBLOCK
 62
     4
100
AcDbLine
 10
60.63670397811028
 20
119.0221248860109
 30
0.0
 11
60.63670397811028
 21
101.1221248860109
 31
0.0
  0
INSERT
  5
2107
330
2103
100
AcDbEntity
  8
0
  6
BYBLOCK
 62
     4
100
AcDbBlockReference
  2
_OPEN
 10
60.63670397811028
 20
121.5221248860109
 30
0.0
 41
2.5
 42
2.5
 43
2.5
 50
90.0
  0
INSERT
  5
2108
330
2103
100
AcDbEntity
  8
0
  6
BYBLOCK
 62
     4
100
AcDbBlockReference
  2
_OPEN
 10
60.63670397811028
 20
98.62212488601091
 30
0.0
 41
2.5
 42
2.5
 43
2.5
 50
270.0
  0
MTEXT
  5
2109
330
2103
100
AcDbEntity
  8
0
  6
BYBLOCK
 62
     2
100
AcDbMText
 10
57.69860874001505
 20
110.0721248860109
 30
0.0
 40
3.2
 41
0.0
 71
     5
 72
     1
  1
\A1;(22.9)
  7
BGS
 11
0.0000000000000001
 21
1.0
 31
0.0
1001
ACAD
1000
MTEXTBEGIN
1070
    73
1070
     1
1070
    44
1040
1.0
1070
    74
1070
     0
1000
MTEXTEND
1000
MTEXTBEGIN
1070
    73
1070
     1
1070
    44
1040
1.0
1070
    74
1070
     0
1000
MTEXTEND
1000
MTEXTBEGIN
1070
    73
1070
     1
1070
    44
1040
1.0
1070
    74
1070
     0
1000
MTEXTEND
  0
POINT
  5
210A
330
2103
100
AcDbEntity
  8
DEFPOINTS
  6
BYBLOCK
 62
     0
100
AcDbPoint
 10
70.45043888558699
 20
121.5221248860109
 30
0.0
  0
POINT
  5
210B
330
2103
100
AcDbEntity
  8
DEFPOINTS
  6
BYBLOCK
 62
     0
100
AcDbPoint
 10
70.45043888558699
 20
98.62212488601091
 30
0.0
  0
POINT
  5
210C
330
2103
100
AcDbEntity
  8
DEFPOINTS
  6
BYBLOCK
 62
     0
100
AcDbPoint
 10
60.63670397811028
 20
98.62212488601091
 30
0.0
  0
ENDBLK
  5
210E
330
2103
100
AcDbEntity
  8
0
100
AcDbBlockEnd
  0
BLOCK
  5
211B
330
210F
100
AcDbEntity
  8
0
100
AcDbBlockBegin
  2
*D24
 70
     1
 10
0.0
 20
0.0
 30
0.0
  3
*D24
  1

  0
LINE
  5
2110
330
210F
100
AcDbEntity
  8
0
  6
BYBLOCK
 62
     4
100
AcDbLine
 10
80.95043888558702
 20
148.5221248860109
 30
0.0
 11
92.04705353680322
 21
148.5221248860109
 31
0.0
  0
LINE
  5
2111
330
210F
100
AcDbEntity
  8
0
  6
BYBLOCK
 62
     4
100
AcDbLine
 10
80.95043888558702
 20
146.5221248860109
 30
0.0
 11
92.04705353680322
 21
146.5221248860109
 31
0.0
  0
LINE
  5
2112
330
210F
100
AcDbEntity
  8
0
  6
BYBLOCK
 62
     4
100
AcDbLine
 10
91.04705353680321
 20
151.0221248860109
 30
0.0
 11
91.04705353680321
 21
153.5221248860109
 31
0.0
  0
LINE
  5
2113
330
210F
100
AcDbEntity
  8
0
  6
BYBLOCK
 62
     4
100
AcDbLine
 10
91.04705353680321
 20
144.0221248860109
 30
0.0
 11
91.04705353680321
 21
138.3887915526775
 31
0.0
  0
LINE
  5
2114
330
210F
100
AcDbEntity
  8
0
  6
BYBLOCK
 62
     4
100
AcDbLine
 10
91.04705353680321
 20
148.5221248860109
 30
0.0
 11
91.04705353680321
 21
146.5221248860109
 31
0.0
  0
INSERT
  5
2115
330
210F
100
AcDbEntity
  8
0
  6
BYBLOCK
 62
     4
100
AcDbBlockReference
  2
_OPEN
 10
91.04705353680321
 20
148.5221248860109
 30
0.0
 41
2.5
 42
2.5
 43
2.5
 50
270.0
  0
INSERT
  5
2116
330
210F
100
AcDbEntity
  8
0
  6
BYBLOCK
 62
     4
100
AcDbBlockReference
  2
_OPEN
 10
91.04705353680321
 20
146.5221248860109
 30
0.0
 41
2.5
 42
2.5
 43
2.5
 50
90.0
  0
MTEXT
  5
2117
330
210F
100
AcDbEntity
  8
0
  6
BYBLOCK
 62
     2
100
AcDbMText
 10
88.94705353680322
 20
139.9554582193441
 30
0.0
 40
3.2
 41
0.0
 71
     5
 72
     1
  1
\A1;2
  7
BGS
 11
0.0000000000000001
 21
1.0
 31
0.0
1001
ACAD
1000
MTEXTBEGIN
1070
    73
1070
     1
1070
    44
1040
1.0
1070
    74
1070
     0
1000
MTEXTEND
1000
MTEXTBEGIN
1070
    73
1070
     1
1070
    44
1040
1.0
1070
    74
1070
     0
1000
MTEXTEND
1000
MTEXTBEGIN
1070
    73
1070
     1
1070
    44
1040
1.0
1070
    74
1070
     0
1000
MTEXTEND
  0
POINT
  5
2118
330
210F
100
AcDbEntity
  8
DEFPOINTS
  6
BYBLOCK
 62
     0
100
AcDbPoint
 10
80.45043888558701
 20
148.5221248860109
 30
0.0
  0
POINT
  5
2119
330
210F
100
AcDbEntity
  8
DEFPOINTS
  6
BYBLOCK
 62
     0
100
AcDbPoint
 10
80.45043888558701
 20
146.5221248860109
 30
0.0
  0
POINT
  5
211A
330
210F
100
AcDbEntity
  8
DEFPOINTS
  6
BYBLOCK
 62
     0
100
AcDbPoint
 10
91.04705353680321
 20
146.5221248860109
 30
0.0
  0
ENDBLK
  5
211C
330
210F
100
AcDbEntity
  8
0
100
AcDbBlockEnd
  0
BLOCK
  5
2129
330
211D
100
AcDbEntity
  8
0
100
AcDbBlockBegin
  2
*D25
 70
     1
 10
0.0
 20
0.0
 30
0.0
  3
*D25
  1

  0
LINE
  5
211E
330
211D
100
AcDbEntity
  8
0
  6
BYBLOCK
 62
     4
100
AcDbLine
 10
80.95043888558702
 20
117.5221248860109
 30
0.0
 11
92.04705353680322
 21
117.5221248860109
 31
0.0
  0
LINE
  5
211F
330
211D
100
AcDbEntity
  8
0
  6
BYBLOCK
 62
     4
100
AcDbLine
 10
80.95043888558702
 20
115.5221248860109
 30
0.0
 11
92.04705353680322
 21
115.5221248860109
 31
0.0
  0
LINE
  5
2120
330
211D
100
AcDbEntity
  8
0
  6
BYBLOCK
 62
     4
100
AcDbLine
 10
91.04705353680323
 20
120.0221248860109
 30
0.0
 11
91.04705353680323
 21
122.5221248860109
 31
0.0
  0
LINE
  5
2121
330
211D
100
AcDbEntity
  8
0
  6
BYBLOCK
 62
     4
100
AcDbLine
 10
91.04705353680321
 20
113.0221248860109
 30
0.0
 11
91.04705353680321
 21
107.3887915526775
 31
0.0
  0
LINE
  5
2122
330
211D
100
AcDbEntity
  8
0
  6
BYBLOCK
 62
     4
100
AcDbLine
 10
91.04705353680323
 20
117.5221248860109
 30
0.0
 11
91.04705353680321
 21
115.5221248860109
 31
0.0
  0
INSERT
  5
2123
330
211D
100
AcDbEntity
  8
0
  6
BYBLOCK
 62
     4
100
AcDbBlockReference
  2
_OPEN
 10
91.04705353680323
 20
117.5221248860109
 30
0.0
 41
2.5
 42
2.5
 43
2.5
 50
270.0
  0
INSERT
  5
2124
330
211D
100
AcDbEntity
  8
0
  6
BYBLOCK
 62
     4
100
AcDbBlockReference
  2
_OPEN
 10
91.04705353680321
 20
115.5221248860109
 30
0.0
 41
2.5
 42
2.5
 43
2.5
 50
90.0
  0
MTEXT
  5
2125
330
211D
100
AcDbEntity
  8
0
  6
BYBLOCK
 62
     2
100
AcDbMText
 10
88.94705353680322
 20
108.9554582193442
 30
0.0
 40
3.2
 41
0.0
 71
     5
 72
     1
  1
\A1;2
  7
BGS
 11
0.0000000000000001
 21
1.0
 31
0.0
1001
ACAD
1000
MTEXTBEGIN
1070
    73
1070
     1
1070
    44
1040
1.0
1070
    74
1070
     0
1000
MTEXTEND
1000
MTEXTBEGIN
1070
    73
1070
     1
1070
    44
1040
1.0
1070
    74
1070
     0
1000
MTEXTEND
1000
MTEXTBEGIN
1070
    73
1070
     1
1070
    44
1040
1.0
1070
    74
1070
     0
1000
MTEXTEND
  0
POINT
  5
2126
330
211D
100
AcDbEntity
  8
DEFPOINTS
  6
BYBLOCK
 62
     0
100
AcDbPoint
 10
80.45043888558701
 20
117.5221248860109
 30
0.0
  0
POINT
  5
2127
330
211D
100
AcDbEntity
  8
DEFPOINTS
  6
BYBLOCK
 62
     0
100
AcDbPoint
 10
80.45043888558701
 20
115.5221248860109
 30
0.0
  0
POINT
  5
2128
330
211D
100
AcDbEntity
  8
DEFPOINTS
  6
BYBLOCK
 62
     0
100
AcDbPoint
 10
91.04705353680321
 20
115.5221248860109
 30
0.0
  0
ENDBLK
  5
212A
330
211D
100
AcDbEntity
  8
0
100
AcDbBlockEnd
  0
BLOCK
  5
2132
330
212B
100
AcDbEntity
  8
0
100
AcDbBlockBegin
  2
*D26
 70
     1
 10
0.0
 20
0.0
 30
0.0
  3
*D26
  1

  0
LINE
  5
212C
330
212B
100
AcDbEntity
  8
0
  6
BYBLOCK
 62
     4
100
AcDbLine
 10
92.65663294006019
 20
243.1955854047975
 30
0.0
 11
77.82081784118611
 21
225.7323932525038
 31
0.0
  0
MTEXT
  5
212D
330
212B
100
AcDbEntity
  8
0
  6
BYBLOCK
 62
     2
100
AcDbMText
 10
85.2569164105208
 20
237.7289041953502
 30
0.0
 40
3.2
 41
0.0
 71
     5
 72
     1
  1
\A1;4-R0.5
  7
BGS
 11
0.6474482898511142
 21
0.762109383204844
 31
0.0
1001
ACAD
1000
MTEXTBEGIN
1070
    73
1070
     1
1070
    44
1040
1.0
1070
    74
1070
     0
1000
MTEXTEND
1000
MTEXTBEGIN
1070
    73
1070
     1
1070
    44
1040
1.0
1070
    74
1070
     0
1000
MTEXTEND
1000
MTEXTBEGIN
1070
    73
1070
     1
1070
    44
1040
1.0
1070
    74
1070
     0
1000
MTEXTEND
  0
LINE
  5
212E
330
212B
100
AcDbEntity
  8
0
  6
BYBLOCK
 62
     4
100
AcDbLine
 10
77.49709369626055
 20
225.3513385609013
 30
0.0
 11
77.82081784118611
 21
225.7323932525038
 31
0.0
  0
INSERT
  5
212F
330
212B
100
AcDbEntity
  8
0
  6
BYBLOCK
 62
     4
100
AcDbBlockReference
  2
_OPEN
 10
77.82081784118611
 20
225.7323932525038
 30
0.0
 41
2.5
 42
2.5
 43
2.5
 50
229.650511001544
  0
POINT
  5
2130
330
212B
100
AcDbEntity
  8
DEFPOINTS
  6
BYBLOCK
 62
     0
100
AcDbPoint
 10
77.82081784118611
 20
225.7323932525038
 30
0.0
  0
POINT
  5
2131
330
212B
100
AcDbEntity
  8
DEFPOINTS
  6
BYBLOCK
 62
     0
100
AcDbPoint
 10
77.49709369626055
 20
225.3513385609013
 30
0.0
  0
ENDBLK
  5
2133
330
212B
100
AcDbEntity
  8
0
100
AcDbBlockEnd
  0
BLOCK
  5
213B
330
2134
100
AcDbEntity
  8
0
100
AcDbBlockBegin
  2
*D27
 70
     1
 10
0.0
 20
0.0
 30
0.0
  3
*D27
  1

  0
LINE
  5
2135
330
2134
100
AcDbEntity
  8
0
  6
BYBLOCK
 62
     4
100
AcDbLine
 10
50.84987662490713
 20
208.5570306286882
 30
0.0
 11
73.99101013142211
 21
198.6194196397335
 31
0.0
  0
MTEXT
  5
2136
330
2134
100
AcDbEntity
  8
0
  6
BYBLOCK
 62
     2
100
AcDbMText
 10
59.90885255801073
 20
206.9522368080634
 30
0.0
 40
3.2
 41
0.0
 71
     5
 72
     1
  1
\A1;2-R0.5
  7
BGS
 11
0.9188575083298131
 21
-0.3945895074453037
 31
0.0
1001
ACAD
1000
MTEXTBEGIN
1070
    73
1070
     1
1070
    44
1040
1.0
1070
    74
1070
     0
1000
MTEXTEND
1000
MTEXTBEGIN
1070
    73
1070
     1
1070
    44
1040
1.0
1070
    74
1070
     0
1000
MTEXTEND
1000
MTEXTBEGIN
1070
    73
1070
     1
1070
    44
1040
1.0
1070
    74
1070
     0
1000
MTEXTEND
  0
LINE
  5
2137
330
2134
100
AcDbEntity
  8
0
  6
BYBLOCK
 62
     4
100
AcDbLine
 10
74.45043888558702
 20
198.422124886011
 30
0.0
 11
73.99101013142211
 21
198.6194196397335
 31
0.0
  0
INSERT
  5
2138
330
2134
100
AcDbEntity
  8
0
  6
BYBLOCK
 62
     4
100
AcDbBlockReference
  2
_OPEN
 10
73.99101013142211
 20
198.6194196397335
 30
0.0
 41
2.5
 42
2.5
 43
2.5
 50
336.7596248457771
  0
POINT
  5
2139
330
2134
100
AcDbEntity
  8
DEFPOINTS
  6
BYBLOCK
 62
     0
100
AcDbPoint
 10
73.99101013142211
 20
198.6194196397335
 30
0.0
  0
POINT
  5
213A
330
2134
100
AcDbEntity
  8
DEFPOINTS
  6
BYBLOCK
 62
     0
100
AcDbPoint
 10
74.45043888558702
 20
198.422124886011
 30
0.0
  0
ENDBLK
  5
213C
330
2134
100
AcDbEntity
  8
0
100
AcDbBlockEnd
  0
BLOCK
  5
2144
330
213D
100
AcDbEntity
  8
0
100
AcDbBlockBegin
  2
*D28
 70
     1
 10
0.0
 20
0.0
 30
0.0
  3
*D28
  1

  0
LINE
  5
213E
330
213D
100
AcDbEntity
  8
0
  6
BYBLOCK
 62
     4
100
AcDbLine
 10
87.04863981874543
 20
266.8175312163226
 30
0.0
 11
75.41165578155045
 21
256.8915596816015
 31
0.0
  0
MTEXT
  5
213F
330
213D
100
AcDbEntity
  8
0
  6
BYBLOCK
 62
     2
100
AcDbMText
 10
81.76939536325985
 20
265.0746715436479
 30
0.0
 40
3.2
 41
0.0
 71
     5
 72
     1
  1
\A1;R1.5
  7
BGS
 11
0.7608239874878392
 21
0.6489582883846268
 31
0.0
1001
ACAD
1000
MTEXTBEGIN
1070
    73
1070
     1
1070
    44
1040
1.0
1070
    74
1070
     0
1000
MTEXTEND
1000
MTEXTBEGIN
1070
    73
1070
     1
1070
    44
1040
1.0
1070
    74
1070
     0
1000
MTEXTEND
1000
MTEXTBEGIN
1070
    73
1070
     1
1070
    44
1040
1.0
1070
    74
1070
     0
1000
MTEXTEND
  0
LINE
  5
2140
330
213D
100
AcDbEntity
  8
0
  6
BYBLOCK
 62
     4
100
AcDbLine
 10
74.2704198003187
 20
255.9181222490245
 30
0.0
 11
75.41165578155045
 21
256.8915596816015
 31
0.0
  0
INSERT
  5
2141
330
213D
100
AcDbEntity
  8
0
  6
BYBLOCK
 62
     4
100
AcDbBlockReference
  2
_OPEN
 10
75.41165578155045
 20
256.8915596816015
 30
0.0
 41
2.5
 42
2.5
 43
2.5
 50
220.4631072516964
  0
POINT
  5
2142
330
213D
100
AcDbEntity
  8
DEFPOINTS
  6
BYBLOCK
 62
     0
100
AcDbPoint
 10
75.41165578155045
 20
256.8915596816015
 30
0.0
  0
POINT
  5
2143
330
213D
100
AcDbEntity
  8
DEFPOINTS
  6
BYBLOCK
 62
     0
100
AcDbPoint
 10
74.2704198003187
 20
255.9181222490245
 30
0.0
  0
ENDBLK
  5
2145
330
213D
100
AcDbEntity
  8
0
100
AcDbBlockEnd
  0
BLOCK
  5
2152
330
2146
100
AcDbEntity
  8
0
100
AcDbBlockBegin
  2
*D29
 70
     1
 10
0.0
 20
0.0
 30
0.0
  3
*D29
  1

  0
LINE
  5
2147
330
2146
100
AcDbEntity
  8
0
  6
BYBLOCK
 62
     4
100
AcDbLine
 10
72.45043888558716
 20
245.3975127960853
 30
0.0
 11
62.99349886935988
 21
245.3975127960853
 31
0.0
  0
LINE
  5
2148
330
2146
100
AcDbEntity
  8
0
  6
BYBLOCK
 62
     4
100
AcDbLine
 10
69.45043888558709
 20
247.3975127960853
 30
0.0
 11
62.99349886935988
 21
247.3975127960853
 31
0.0
  0
LINE
  5
2149
330
2146
100
AcDbEntity
  8
0
  6
BYBLOCK
 62
     4
100
AcDbLine
 10
63.99349886935988
 20
242.8975127960853
 30
0.0
 11
63.99349886935988
 21
240.3975127960853
 31
0.0
  0
LINE
  5
214A
330
2146
100
AcDbEntity
  8
0
  6
BYBLOCK
 62
     4
100
AcDbLine
 10
63.99349886935988
 20
249.8975127960853
 30
0.0
 11
63.99349886935988
 21
255.5308461294186
 31
0.0
  0
LINE
  5
214B
330
2146
100
AcDbEntity
  8
0
  6
BYBLOCK
 62
     4
100
AcDbLine
 10
63.99349886935988
 20
245.3975127960853
 30
0.0
 11
63.99349886935988
 21
247.3975127960853
 31
0.0
  0
INSERT
  5
214C
330
2146
100
AcDbEntity
  8
0
  6
BYBLOCK
 62
     4
100
AcDbBlockReference
  2
_OPEN
 10
63.99349886935988
 20
245.3975127960853
 30
0.0
 41
2.5
 42
2.5
 43
2.5
 50
90.0
  0
INSERT
  5
214D
330
2146
100
AcDbEntity
  8
0
  6
BYBLOCK
 62
     4
100
AcDbBlockReference
  2
_OPEN
 10
63.99349886935988
 20
247.3975127960853
 30
0.0
 41
2.5
 42
2.5
 43
2.5
 50
270.0
  0
MTEXT
  5
214E
330
2146
100
AcDbEntity
  8
0
  6
BYBLOCK
 62
     2
100
AcDbMText
 10
61.89349886935988
 20
253.9641794627519
 30
0.0
 40
3.2
 41
0.0
 71
     5
 72
     1
  1
\A1;2
  7
BGS
 11
0.0000000000000001
 21
1.0
 31
0.0
1001
ACAD
1000
MTEXTBEGIN
1070
    73
1070
     1
1070
    44
1040
1.0
1070
    74
1070
     0
1000
MTEXTEND
1000
MTEXTBEGIN
1070
    73
1070
     1
1070
    44
1040
1.0
1070
    74
1070
     0
1000
MTEXTEND
1000
MTEXTBEGIN
1070
    73
1070
     1
1070
    44
1040
1.0
1070
    74
1070
     0
1000
MTEXTEND
  0
POINT
  5
214F
330
2146
100
AcDbEntity
  8
DEFPOINTS
  6
BYBLOCK
 62
     0
100
AcDbPoint
 10
72.95043888558716
 20
245.3975127960853
 30
0.0
  0
POINT
  5
2150
330
2146
100
AcDbEntity
  8
DEFPOINTS
  6
BYBLOCK
 62
     0
100
AcDbPoint
 10
69.95043888558709
 20
247.3975127960853
 30
0.0
  0
POINT
  5
2151
330
2146
100
AcDbEntity
  8
DEFPOINTS
  6
BYBLOCK
 62
     0
100
AcDbPoint
 10
63.99349886935988
 20
247.3975127960853
 30
0.0
  0
ENDBLK
  5
2153
330
2146
100
AcDbEntity
  8
0
100
AcDbBlockEnd
  0
BLOCK
  5
215E
330
2154
100
AcDbEntity
  8
0
100
AcDbBlockBegin
  2
*D30
 70
     1
 10
0.0
 20
0.0
 30
0.0
  3
*D30
  1

  0
LINE
  5
2155
330
2154
100
AcDbEntity
  8
0
  6
BYBLOCK
 62
     4
100
AcDbLine
 10
70.45043888558699
 20
209.0221248860109
 30
0.0
 11
70.45043888558699
 21
216.287005830077
 31
0.0
  0
LINE
  5
2156
330
2154
100
AcDbEntity
  8
0
  6
BYBLOCK
 62
     4
100
AcDbLine
 10
80.45043888558701
 20
209.0221248860109
 30
0.0
 11
80.45043888558701
 21
216.287005830077
 31
0.0
  0
LINE
  5
2157
330
2154
100
AcDbEntity
  8
0
  6
BYBLOCK
 62
     4
100
AcDbLine
 10
72.95043888558699
 20
215.287005830077
 30
0.0
 11
77.95043888558701
 21
215.287005830077
 31
0.0
  0
INSERT
  5
2158
330
2154
100
AcDbEntity
  8
0
  6
BYBLOCK
 62
     4
100
AcDbBlockReference
  2
_OPEN
 10
70.45043888558699
 20
215.287005830077
 30
0.0
 41
2.5
 42
2.5
 43
2.5
 50
180.0
  0
INSERT
  5
2159
330
2154
100
AcDbEntity
  8
0
  6
BYBLOCK
 62
     4
100
AcDbBlockReference
  2
_OPEN
 10
80.45043888558701
 20
215.287005830077
 30
0.0
 41
2.5
 42
2.5
 43
2.5
  0
MTEXT
  5
215A
330
2154
100
AcDbEntity
  8
0
  6
BYBLOCK
 62
     2
100
AcDbMText
 10
75.45043888558701
 20
218.2251010681723
 30
0.0
 40
3.2
 41
0.0
 71
     5
 72
     1
  1
\A1;(10)
  7
BGS
1001
ACAD
1000
MTEXTBEGIN
1070
    73
1070
     1
1070
    44
1040
1.0
1070
    74
1070
     0
1000
MTEXTEND
1000
MTEXTBEGIN
1070
    73
1070
     1
1070
    44
1040
1.0
1070
    74
1070
     0
1000
MTEXTEND
1000
MTEXTBEGIN
1070
    73
1070
     1
1070
    44
1040
1.0
1070
    74
1070
     0
1000
MTEXTEND
  0
POINT
  5
215B
330
2154
100
AcDbEntity
  8
DEFPOINTS
  6
BYBLOCK
 62
     0
100
AcDbPoint
 10
70.45043888558699
 20
208.522124886011
 30
0.0
  0
POINT
  5
215C
330
2154
100
AcDbEntity
  8
DEFPOINTS
  6
BYBLOCK
 62
     0
100
AcDbPoint
 10
80.45043888558701
 20
208.522124886011
 30
0.0
  0
POINT
  5
215D
330
2154
100
AcDbEntity
  8
DEFPOINTS
  6
BYBLOCK
 62
     0
100
AcDbPoint
 10
80.45043888558701
 20
215.287005830077
 30
0.0
  0
ENDBLK
  5
215F
330
2154
100
AcDbEntity
  8
0
100
AcDbBlockEnd
  0
BLOCK
  5
216C
330
2160
100
AcDbEntity
  8
0
100
AcDbBlockBegin
  2
*D31
 70
     1
 10
0.0
 20
0.0
 30
0.0
  3
*D31
  1

  0
LINE
  5
2161
330
2160
100
AcDbEntity
  8
0
  6
BYBLOCK
 62
     4
100
AcDbLine
 10
164.9538885116698
 20
197.7150736060471
 30
0.0
 11
164.9538885116698
 21
204.994559102533
 31
0.0
  0
LINE
  5
2162
330
2160
100
AcDbEntity
  8
0
  6
BYBLOCK
 62
     4
100
AcDbLine
 10
166.3538885116699
 20
197.9150736060482
 30
0.0
 11
166.3538885116699
 21
204.994559102533
 31
0.0
  0
LINE
  5
2163
330
2160
100
AcDbEntity
  8
0
  6
BYBLOCK
 62
     4
100
AcDbLine
 10
162.45388851167
 20
203.9945591025329
 30
0.0
 11
159.9538885116698
 21
203.9945591025329
 31
0.0
  0
LINE
  5
2164
330
2160
100
AcDbEntity
  8
0
  6
BYBLOCK
 62
     4
100
AcDbLine
 10
168.85388851167
 20
203.9945591025329
 30
0.0
 11
178.601507559289
 21
203.9945591025329
 31
0.0
  0
LINE
  5
2165
330
2160
100
AcDbEntity
  8
0
  6
BYBLOCK
 62
     4
100
AcDbLine
 10
164.9538885116698
 20
203.9945591025329
 30
0.0
 11
166.3538885116699
 21
203.9945591025329
 31
0.0
  0
INSERT
  5
2166
330
2160
100
AcDbEntity
  8
0
  6
BYBLOCK
 62
     4
100
AcDbBlockReference
  2
_OPEN
 10
164.9538885116698
 20
203.9945591025329
 30
0.0
 41
2.5
 42
2.5
 43
2.5
  0
INSERT
  5
2167
330
2160
100
AcDbEntity
  8
0
  6
BYBLOCK
 62
     4
100
AcDbBlockReference
  2
_OPEN
 10
166.3538885116699
 20
203.9945591025329
 30
0.0
 41
2.5
 42
2.5
 43
2.5
 50
180.0
  0
MTEXT
  5
2168
330
2160
100
AcDbEntity
  8
0
  6
BYBLOCK
 62
     2
100
AcDbMText
 10
174.9776980354795
 20
206.0945591025329
 30
0.0
 40
3.2
 41
0.0
 71
     5
 72
     1
  1
\A1;1.4
  7
BGS
1001
ACAD
1000
MTEXTBEGIN
1070
    73
1070
     1
1070
    44
1040
1.0
1070
    74
1070
     0
1000
MTEXTEND
1000
MTEXTBEGIN
1070
    73
1070
     1
1070
    44
1040
1.0
1070
    74
1070
     0
1000
MTEXTEND
1000
MTEXTBEGIN
1070
    73
1070
     1
1070
    44
1040
1.0
1070
    74
1070
     0
1000
MTEXTEND
  0
POINT
  5
2169
330
2160
100
AcDbEntity
  8
DEFPOINTS
  6
BYBLOCK
 62
     0
100
AcDbPoint
 10
164.9538885116698
 20
197.2150736060472
 30
0.0
  0
POINT
  5
216A
330
2160
100
AcDbEntity
  8
DEFPOINTS
  6
BYBLOCK
 62
     0
100
AcDbPoint
 10
166.3538885116699
 20
197.415073606048
 30
0.0
  0
POINT
  5
216B
330
2160
100
AcDbEntity
  8
DEFPOINTS
  6
BYBLOCK
 62
     0
100
AcDbPoint
 10
166.3538885116699
 20
203.9945591025329
 30
0.0
  0
ENDBLK
  5
216D
330
2160
100
AcDbEntity
  8
0
100
AcDbBlockEnd
  0
BLOCK
  5
2174
330
216E
100
AcDbEntity
  8
0
100
AcDbBlockBegin
  2
*D32
 70
     1
 10
0.0
 20
0.0
 30
0.0
  3
*D32
  1

  0
LINE
  5
216F
330
216E
100
AcDbEntity
  8
0
  6
BYBLOCK
 62
     4
100
AcDbLine
 10
151.5151742654784
 20
181.6302491269069
 30
0.0
 11
164.7732715974048
 21
197.599774066856
 31
0.0
  0
MTEXT
  5
2170
330
216E
100
AcDbEntity
  8
0
  6
BYBLOCK
 62
     2
100
AcDbMText
 10
153.3822288364278
 20
187.1667250167654
 30
0.0
 40
3.2
 41
0.0
 71
     5
 72
     1
  1
\A1;R0.5
  7
BGS
 11
0.6387661714696323
 21
0.7694009216176104
 31
0.0
1001
ACAD
1000
MTEXTBEGIN
1070
    73
1070
     1
1070
    44
1040
1.0
1070
    74
1070
     0
1000
MTEXTEND
1000
MTEXTBEGIN
1070
    73
1070
     1
1070
    44
1040
1.0
1070
    74
1070
     0
1000
MTEXTEND
1000
MTEXTBEGIN
1070
    73
1070
     1
1070
    44
1040
1.0
1070
    74
1070
     0
1000
MTEXTEND
  0
INSERT
  5
2171
330
216E
100
AcDbEntity
  8
0
  6
BYBLOCK
 62
     4
100
AcDbBlockReference
  2
_OPEN
 10
164.7732715974048
 20
197.599774066856
 30
0.0
 41
2.5
 42
2.5
 43
2.5
 50
50.30012257792758
  0
POINT
  5
2172
330
216E
100
AcDbEntity
  8
DEFPOINTS
  6
BYBLOCK
 62
     0
100
AcDbPoint
 10
164.7732715974048
 20
197.599774066856
 30
0.0
  0
POINT
  5
2173
330
216E
100
AcDbEntity
  8
DEFPOINTS
  6
BYBLOCK
 62
     0
100
AcDbPoint
 10
164.4538885116699
 20
197.2150736060472
 30
0.0
  0
ENDBLK
  5
2175
330
216E
100
AcDbEntity
  8
0
100
AcDbBlockEnd
  0
BLOCK
  5
2180
330
2176
100
AcDbEntity
  8
0
100
AcDbBlockBegin
  2
*D33
 70
     1
 10
0.0
 20
0.0
 30
0.0
  3
*D33
  1

  0
LINE
  5
2177
330
2176
100
AcDbEntity
  8
0
  6
BYBLOCK
 62
     4
100
AcDbLine
 10
165.1538885116772
 20
198.915073606047
 30
0.0
 11
177.6843459615399
 21
198.915073606047
 31
0.0
  0
LINE
  5
2178
330
2176
100
AcDbEntity
  8
0
  6
BYBLOCK
 62
     4
100
AcDbLine
 10
165.3538885116699
 20
98.71507360604708
 30
0.0
 11
177.6843459615399
 21
98.71507360604708
 31
0.0
  0
LINE
  5
2179
330
2176
100
AcDbEntity
  8
0
  6
BYBLOCK
 62
     4
100
AcDbLine
 10
176.6843459615399
 20
196.415073606047
 30
0.0
 11
176.6843459615399
 21
101.215073606047
 31
0.0
  0
INSERT
  5
217A
330
2176
100
AcDbEntity
  8
0
  6
BYBLOCK
 62
     4
100
AcDbBlockReference
  2
_OPEN
 10
176.6843459615399
 20
198.915073606047
 30
0.0
 41
2.5
 42
2.5
 43
2.5
 50
90.0
  0
INSERT
  5
217B
330
2176
100
AcDbEntity
  8
0
  6
BYBLOCK
 62
     4
100
AcDbBlockReference
  2
_OPEN
 10
176.6843459615399
 20
98.71507360604708
 30
0.0
 41
2.5
 42
2.5
 43
2.5
 50
270.0
  0
MTEXT
  5
217C
330
2176
100
AcDbEntity
  8
0
  6
BYBLOCK
 62
     2
100
AcDbMText
 10
174.5843459615399
 20
148.815073606047
 30
0.0
 40
3.2
 41
0.0
 71
     5
 72
     1
  1
\A1;100.2
  7
BGS
 11
0.0000000000000001
 21
1.0
 31
0.0
1001
ACAD
1000
MTEXTBEGIN
1070
    73
1070
     1
1070
    44
1040
1.0
1070
    74
1070
     0
1000
MTEXTEND
1000
MTEXTBEGIN
1070
    73
1070
     1
1070
    44
1040
1.0
1070
    74
1070
     0
1000
MTEXTEND
1000
MTEXTBEGIN
1070
    73
1070
     1
1070
    44
1040
1.0
1070
    74
1070
     0
1000
MTEXTEND
  0
POINT
  5
217D
330
2176
100
AcDbEntity
  8
DEFPOINTS
  6
BYBLOCK
 62
     0
100
AcDbPoint
 10
164.6538885116769
 20
198.915073606047
 30
0.0
  0
POINT
  5
217E
330
2176
100
AcDbEntity
  8
DEFPOINTS
  6
BYBLOCK
 62
     0
100
AcDbPoint
 10
164.8538885116699
 20
98.71507360604708
 30
0.0
  0
POINT
  5
217F
330
2176
100
AcDbEntity
  8
DEFPOINTS
  6
BYBLOCK
 62
     0
100
AcDbPoint
 10
176.6843459615399
 20
98.71507360604708
 30
0.0
  0
ENDBLK
  5
2181
330
2176
100
AcDbEntity
  8
0
100
AcDbBlockEnd
  0
BLOCK
  5
218C
330
2182
100
AcDbEntity
  8
0
100
AcDbBlockBegin
  2
*D34
 70
     1
 10
0.0
 20
0.0
 30
0.0
  3
*D34
  1

  0
LINE
  5
2183
330
2182
100
AcDbEntity
  8
0
  6
BYBLOCK
 62
     4
100
AcDbLine
 10
157.05388851167
 20
200.2150736060472
 30
0.0
 11
185.8363324506034
 21
200.2150736060472
 31
0.0
  0
LINE
  5
2184
330
2182
100
AcDbEntity
  8
0
  6
BYBLOCK
 62
     4
100
AcDbLine
 10
157.05388851167
 20
97.41507360604707
 30
0.0
 11
185.8363324506034
 21
97.41507360604707
 31
0.0
  0
LINE
  5
2185
330
2182
100
AcDbEntity
  8
0
  6
BYBLOCK
 62
     4
100
AcDbLine
 10
184.8363324506033
 20
197.7150736060471
 30
0.0
 11
184.8363324506033
 21
99.91507360604707
 31
0.0
  0
INSERT
  5
2186
330
2182
100
AcDbEntity
  8
0
  6
BYBLOCK
 62
     4
100
AcDbBlockReference
  2
_OPEN
 10
184.8363324506033
 20
200.2150736060472
 30
0.0
 41
2.5
 42
2.5
 43
2.5
 50
90.0
  0
INSERT
  5
2187
330
2182
100
AcDbEntity
  8
0
  6
BYBLOCK
 62
     4
100
AcDbBlockReference
  2
_OPEN
 10
184.8363324506033
 20
97.41507360604707
 30
0.0
 41
2.5
 42
2.5
 43
2.5
 50
270.0
  0
MTEXT
  5
2188
330
2182
100
AcDbEntity
  8
0
  6
BYBLOCK
 62
     2
100
AcDbMText
 10
181.8982372125083
 20
148.815073606047
 30
0.0
 40
3.2
 41
0.0
 71
     5
 72
     1
  1
\A1;(102.8)
  7
BGS
 11
0.0000000000000001
 21
1.0
 31
0.0
1001
ACAD
1000
MTEXTBEGIN
1070
    73
1070
     1
1070
    44
1040
1.0
1070
    74
1070
     0
1000
MTEXTEND
1000
MTEXTBEGIN
1070
    73
1070
     1
1070
    44
1040
1.0
1070
    74
1070
     0
1000
MTEXTEND
1000
MTEXTBEGIN
1070
    73
1070
     1
1070
    44
1040
1.0
1070
    74
1070
     0
1000
MTEXTEND
  0
POINT
  5
2189
330
2182
100
AcDbEntity
  8
DEFPOINTS
  6
BYBLOCK
 62
     0
100
AcDbPoint
 10
156.55388851167
 20
200.2150736060472
 30
0.0
  0
POINT
  5
218A
330
2182
100
AcDbEntity
  8
DEFPOINTS
  6
BYBLOCK
 62
     0
100
AcDbPoint
 10
156.55388851167
 20
97.41507360604707
 30
0.0
  0
POINT
  5
218B
330
2182
100
AcDbEntity
  8
DEFPOINTS
  6
BYBLOCK
 62
     0
100
AcDbPoint
 10
184.8363324506033
 20
97.41507360604707
 30
0.0
  0
ENDBLK
  5
218D
330
2182
100
AcDbEntity
  8
0
100
AcDbBlockEnd
  0
BLOCK
  5
2198
330
218E
100
AcDbEntity
  8
0
100
AcDbBlockBegin
  2
*D35
 70
     1
 10
0.0
 20
0.0
 30
0.0
  3
*D35
  1

  0
LINE
  5
218F
330
218E
100
AcDbEntity
  8
0
  6
BYBLOCK
 62
     4
100
AcDbLine
 10
130.6278358384229
 20
192.7288664104295
 30
0.0
 11
130.6278358384229
 21
211.9163962640634
 31
0.0
  0
LINE
  5
2190
330
218E
100
AcDbEntity
  8
0
  6
BYBLOCK
 62
     4
100
AcDbLine
 10
119.9278358384229
 20
195.0288664104283
 30
0.0
 11
119.9278358384229
 21
211.9163962640634
 31
0.0
  0
LINE
  5
2191
330
218E
100
AcDbEntity
  8
0
  6
BYBLOCK
 62
     4
100
AcDbLine
 10
128.1278358384229
 20
210.9163962640634
 30
0.0
 11
122.4278358384229
 21
210.9163962640634
 31
0.0
  0
INSERT
  5
2192
330
218E
100
AcDbEntity
  8
0
  6
BYBLOCK
 62
     4
100
AcDbBlockReference
  2
_OPEN
 10
130.6278358384229
 20
210.9163962640634
 30
0.0
 41
2.5
 42
2.5
 43
2.5
  0
INSERT
  5
2193
330
218E
100
AcDbEntity
  8
0
  6
BYBLOCK
 62
     4
100
AcDbBlockReference
  2
_OPEN
 10
119.9278358384229
 20
210.9163962640634
 30
0.0
 41
2.5
 42
2.5
 43
2.5
 50
180.0
  0
MTEXT
  5
2194
330
218E
100
AcDbEntity
  8
0
  6
BYBLOCK
 62
     2
100
AcDbMText
 10
125.2778358384229
 20
213.0163962640635
 30
0.0
 40
3.2
 41
0.0
 71
     5
 72
     1
  1
\A1;10.7
  7
BGS
1001
ACAD
1000
MTEXTBEGIN
1070
    73
1070
     1
1070
    44
1040
1.0
1070
    74
1070
     0
1000
MTEXTEND
1000
MTEXTBEGIN
1070
    73
1070
     1
1070
    44
1040
1.0
1070
    74
1070
     0
1000
MTEXTEND
1000
MTEXTBEGIN
1070
    73
1070
     1
1070
    44
1040
1.0
1070
    74
1070
     0
1000
MTEXTEND
  0
POINT
  5
2195
330
218E
100
AcDbEntity
  8
DEFPOINTS
  6
BYBLOCK
 62
     0
100
AcDbPoint
 10
130.6278358384229
 20
192.2288664104295
 30
0.0
  0
POINT
  5
2196
330
218E
100
AcDbEntity
  8
DEFPOINTS
  6
BYBLOCK
 62
     0
100
AcDbPoint
 10
119.9278358384229
 20
194.5288664104283
 30
0.0
  0
POINT
  5
2197
330
218E
100
AcDbEntity
  8
DEFPOINTS
  6
BYBLOCK
 62
     0
100
AcDbPoint
 10
119.9278358384229
 20
210.9163962640634
 30
0.0
  0
ENDBLK
  5
2199
330
218E
100
AcDbEntity
  8
0
100
AcDbBlockEnd
  0
BLOCK
  5
2385
330
237E
100
AcDbEntity
  8
0
100
AcDbBlockBegin
  2
*D36
 70
     1
 10
0.0
 20
0.0
 30
0.0
  3
*D36
  1

  0
LINE
  5
2453
330
237E
100
AcDbEntity
  8
L-2
  6
CONTINUOUS
 62
     4
100
AcDbLine
 10
307.3538088013189
 20
179.2653453335369
 30
0.0
 11
294.1366144270726
 21
163.707426639255
 31
0.0
  0
MTEXT
  5
2454
330
237E
100
AcDbEntity
  8
L-2
  6
CONTINUOUS
 62
     2
100
AcDbMText
 10
299.9540922717795
 20
173.7986641240895
 30
0.0
 40
3.2
 41
0.0
 71
     5
 72
     1
  1
\A1;4-R0.5
  7
BGS
 11
0.6474482898511145
 21
0.7621093832048437
 31
0.0
1001
ACAD
1000
MTEXTBEGIN
1070
    73
1070
     1
1070
    44
1040
1.0
1070
    74
1070
     0
1000
MTEXTEND
1000
MTEXTBEGIN
1070
    73
1070
     1
1070
    44
1040
1.0
1070
    74
1070
     0
1000
MTEXTEND
1000
MTEXTBEGIN
1070
    73
1070
     1
1070
    44
1040
1.0
1070
    74
1070
     0
1000
MTEXTEND
  0
LINE
  5
2455
330
237E
100
AcDbEntity
  8
L-2
  6
CONTINUOUS
 62
     4
100
AcDbLine
 10
292.1942695575193
 20
161.4210984896406
 30
0.0
 11
292.5179937024448
 21
161.802153181243
 31
0.0
  0
INSERT
  5
2456
330
237E
100
AcDbEntity
  8
L-2
  6
CONTINUOUS
 62
     4
100
AcDbBlockReference
  2
_OPEN
 10
292.5179937024448
 20
161.802153181243
 30
0.0
 41
2.5
 42
2.5
 43
2.5
 50
229.650511001544
  0
POINT
  5
2457
330
237E
100
AcDbEntity
  8
DEFPOINTS
  6
CONTINUOUS
 62
     0
100
AcDbPoint
 10
292.5179937024448
 20
161.802153181243
 30
0.0
  0
POINT
  5
2458
330
237E
100
AcDbEntity
  8
DEFPOINTS
  6
CONTINUOUS
 62
     0
100
AcDbPoint
 10
292.1942695575193
 20
161.4210984896406
 30
0.0
  0
ENDBLK
  5
2386
330
237E
100
AcDbEntity
  8
0
100
AcDbBlockEnd
  0
BLOCK
  5
2393
330
2387
100
AcDbEntity
  8
0
100
AcDbBlockBegin
  2
*D37
 70
     1
 10
0.0
 20
0.0
 30
0.0
  3
*D37
  1

  0
LINE
  5
2459
330
2387
100
AcDbEntity
  8
L-2
  6
CONTINUOUS
 62
     4
100
AcDbLine
 10
291.1942695575193
 20
87.82109848964072
 30
0.0
 11
302.2908842087355
 21
87.82109848964072
 31
0.0
  0
LINE
  5
245A
330
2387
100
AcDbEntity
  8
L-2
  6
CONTINUOUS
 62
     4
100
AcDbLine
 10
291.1942695575193
 20
85.82109848964071
 30
0.0
 11
302.2908842087355
 21
85.82109848964071
 31
0.0
  0
LINE
  5
245B
330
2387
100
AcDbEntity
  8
L-2
  6
CONTINUOUS
 62
     4
100
AcDbLine
 10
301.2908842087355
 20
90.32109848964072
 30
0.0
 11
301.2908842087355
 21
92.82109848964072
 31
0.0
  0
LINE
  5
245C
330
2387
100
AcDbEntity
  8
L-2
  6
CONTINUOUS
 62
     4
100
AcDbLine
 10
301.2908842087355
 20
83.32109848964071
 30
0.0
 11
301.2908842087355
 21
77.68776515630738
 31
0.0
  0
LINE
  5
245D
330
2387
100
AcDbEntity
  8
L-2
  6
CONTINUOUS
 62
     4
100
AcDbLine
 10
301.2908842087355
 20
87.82109848964072
 30
0.0
 11
301.2908842087355
 21
85.82109848964071
 31
0.0
  0
INSERT
  5
245E
330
2387
100
AcDbEntity
  8
L-2
  6
CONTINUOUS
 62
     4
100
AcDbBlockReference
  2
_OPEN
 10
301.2908842087355
 20
87.82109848964072
 30
0.0
 41
2.5
 42
2.5
 43
2.5
 50
270.0
  0
INSERT
  5
245F
330
2387
100
AcDbEntity
  8
L-2
  6
CONTINUOUS
 62
     4
100
AcDbBlockReference
  2
_OPEN
 10
301.2908842087355
 20
85.82109848964071
 30
0.0
 41
2.5
 42
2.5
 43
2.5
 50
90.0
  0
MTEXT
  5
2460
330
2387
100
AcDbEntity
  8
L-2
  6
CONTINUOUS
 62
     2
100
AcDbMText
 10
299.1908842087354
 20
79.25443182297411
 30
0.0
 40
3.2
 41
0.0
 71
     5
 72
     1
  1
\A1;2
  7
BGS
 11
0.0000000000000001
 21
1.0
 31
0.0
1001
ACAD
1000
MTEXTBEGIN
1070
    73
1070
     1
1070
    44
1040
1.0
1070
    74
1070
     0
1000
MTEXTEND
1000
MTEXTBEGIN
1070
    73
1070
     1
1070
    44
1040
1.0
1070
    74
1070
     0
1000
MTEXTEND
1000
MTEXTBEGIN
1070
    73
1070
     1
1070
    44
1040
1.0
1070
    74
1070
     0
1000
MTEXTEND
  0
POINT
  5
2461
330
2387
100
AcDbEntity
  8
DEFPOINTS
  6
CONTINUOUS
 62
     0
100
AcDbPoint
 10
290.6942695575192
 20
87.82109848964072
 30
0.0
  0
POINT
  5
2462
330
2387
100
AcDbEntity
  8
DEFPOINTS
  6
CONTINUOUS
 62
     0
100
AcDbPoint
 10
290.6942695575192
 20
85.82109848964071
 30
0.0
  0
POINT
  5
2463
330
2387
100
AcDbEntity
  8
DEFPOINTS
  6
CONTINUOUS
 62
     0
100
AcDbPoint
 10
301.2908842087355
 20
85.82109848964071
 30
0.0
  0
ENDBLK
  5
2394
330
2387
100
AcDbEntity
  8
0
100
AcDbBlockEnd
  0
BLOCK
  5
239F
330
2395
100
AcDbEntity
  8
0
100
AcDbBlockBegin
  2
*D38
 70
     1
 10
0.0
 20
0.0
 30
0.0
  3
*D38
  1

  0
LINE
  5
2464
330
2395
100
AcDbEntity
  8
L-2
  6
CONTINUOUS
 62
     4
100
AcDbLine
 10
280.6942695575193
 20
161.2210984896408
 30
0.0
 11
280.6942695575193
 21
168.4859794337068
 31
0.0
  0
LINE
  5
2465
330
2395
100
AcDbEntity
  8
L-2
  6
CONTINUOUS
 62
     4
100
AcDbLine
 10
290.6942695575192
 20
161.2210984896407
 30
0.0
 11
290.6942695575192
 21
168.4859794337068
 31
0.0
  0
LINE
  5
2466
330
2395
100
AcDbEntity
  8
L-2
  6
CONTINUOUS
 62
     4
100
AcDbLine
 10
283.1942695575193
 20
167.4859794337068
 30
0.0
 11
288.1942695575192
 21
167.4859794337068
 31
0.0
  0
INSERT
  5
2467
330
2395
100
AcDbEntity
  8
L-2
  6
CONTINUOUS
 62
     4
100
AcDbBlockReference
  2
_OPEN
 10
280.6942695575193
 20
167.4859794337068
 30
0.0
 41
2.5
 42
2.5
 43
2.5
 50
180.0
  0
INSERT
  5
2468
330
2395
100
AcDbEntity
  8
L-2
  6
CONTINUOUS
 62
     4
100
AcDbBlockReference
  2
_OPEN
 10
290.6942695575192
 20
167.4859794337068
 30
0.0
 41
2.5
 42
2.5
 43
2.5
  0
MTEXT
  5
2469
330
2395
100
AcDbEntity
  8
L-2
  6
CONTINUOUS
 62
     2
100
AcDbMText
 10
285.6942695575193
 20
170.424074671802
 30
0.0
 40
3.2
 41
0.0
 71
     5
 72
     1
  1
\A1;(10)
  7
BGS
1001
ACAD
1000
MTEXTBEGIN
1070
    73
1070
     1
1070
    44
1040
1.0
1070
    74
1070
     0
1000
MTEXTEND
1000
MTEXTBEGIN
1070
    73
1070
     1
1070
    44
1040
1.0
1070
    74
1070
     0
1000
MTEXTEND
1000
MTEXTBEGIN
1070
    73
1070
     1
1070
    44
1040
1.0
1070
    74
1070
     0
1000
MTEXTEND
  0
POINT
  5
246A
330
2395
100
AcDbEntity
  8
DEFPOINTS
  6
CONTINUOUS
 62
     0
100
AcDbPoint
 10
280.6942695575193
 20
160.7210984896408
 30
0.0
  0
POINT
  5
246B
330
2395
100
AcDbEntity
  8
DEFPOINTS
  6
CONTINUOUS
 62
     0
100
AcDbPoint
 10
290.6942695575192
 20
160.7210984896406
 30
0.0
  0
POINT
  5
246C
330
2395
100
AcDbEntity
  8
DEFPOINTS
  6
CONTINUOUS
 62
     0
100
AcDbPoint
 10
290.6942695575192
 20
167.4859794337068
 30
0.0
  0
ENDBLK
  5
23A0
330
2395
100
AcDbEntity
  8
0
100
AcDbBlockEnd
  0
BLOCK
  5
23AB
330
23A1
100
AcDbEntity
  8
0
100
AcDbBlockBegin
  2
*D39
 70
     1
 10
0.0
 20
0.0
 30
0.0
  3
*D39
  1

  0
LINE
  5
246D
330
23A1
100
AcDbEntity
  8
L-2
  6
CONTINUOUS
 62
     4
100
AcDbLine
 10
278.6942695575194
 20
200.9631412284856
 30
0.0
 11
278.6942695575194
 21
209.1882385171858
 31
0.0
  0
LINE
  5
246E
330
23A1
100
AcDbEntity
  8
L-2
  6
CONTINUOUS
 62
     4
100
AcDbLine
 10
292.6942695575192
 20
200.9631412284856
 30
0.0
 11
292.6942695575192
 21
209.1882385171858
 31
0.0
  0
LINE
  5
246F
330
23A1
100
AcDbEntity
  8
L-2
  6
CONTINUOUS
 62
     4
100
AcDbLine
 10
281.1942695575194
 20
208.1882385171858
 30
0.0
 11
290.1942695575193
 21
208.1882385171858
 31
0.0
  0
INSERT
  5
2470
330
23A1
100
AcDbEntity
  8
L-2
  6
CONTINUOUS
 62
     4
100
AcDbBlockReference
  2
_OPEN
 10
278.6942695575194
 20
208.1882385171858
 30
0.0
 41
2.5
 42
2.5
 43
2.5
 50
180.0
  0
INSERT
  5
2471
330
23A1
100
AcDbEntity
  8
L-2
  6
CONTINUOUS
 62
     4
100
AcDbBlockReference
  2
_OPEN
 10
292.6942695575192
 20
208.1882385171858
 30
0.0
 41
2.5
 42
2.5
 43
2.5
  0
MTEXT
  5
2472
330
23A1
100
AcDbEntity
  8
L-2
  6
CONTINUOUS
 62
     2
100
AcDbMText
 10
285.6942695575193
 20
210.2882385171858
 30
0.0
 40
3.2
 41
0.0
 71
     5
 72
     1
  1
\A1;14
  7
BGS
1001
ACAD
1000
MTEXTBEGIN
1070
    73
1070
     1
1070
    44
1040
1.0
1070
    74
1070
     0
1000
MTEXTEND
1000
MTEXTBEGIN
1070
    73
1070
     1
1070
    44
1040
1.0
1070
    74
1070
     0
1000
MTEXTEND
1000
MTEXTBEGIN
1070
    73
1070
     1
1070
    44
1040
1.0
1070
    74
1070
     0
1000
MTEXTEND
  0
POINT
  5
2473
330
23A1
100
AcDbEntity
  8
DEFPOINTS
  6
CONTINUOUS
 62
     0
100
AcDbPoint
 10
278.6942695575194
 20
200.4631412284858
 30
0.0
  0
POINT
  5
2474
330
23A1
100
AcDbEntity
  8
DEFPOINTS
  6
CONTINUOUS
 62
     0
100
AcDbPoint
 10
292.6942695575192
 20
200.4631412284858
 30
0.0
  0
POINT
  5
2475
330
23A1
100
AcDbEntity
  8
DEFPOINTS
  6
CONTINUOUS
 62
     0
100
AcDbPoint
 10
292.6942695575192
 20
208.1882385171858
 30
0.0
  0
ENDBLK
  5
23AC
330
23A1
100
AcDbEntity
  8
0
100
AcDbBlockEnd
  0
BLOCK
  5
23B9
330
23AD
100
AcDbEntity
  8
0
100
AcDbBlockBegin
  2
*D40
 70
     1
 10
0.0
 20
0.0
 30
0.0
  3
*D40
  1

  0
LINE
  5
2476
330
23AD
100
AcDbEntity
  8
L-2
  6
CONTINUOUS
 62
     4
100
AcDbLine
 10
282.6942695575193
 20
199.9631412284855
 30
0.0
 11
273.2373295412922
 21
199.9631412284855
 31
0.0
  0
LINE
  5
2477
330
23AD
100
AcDbEntity
  8
L-2
  6
CONTINUOUS
 62
     4
100
AcDbLine
 10
279.6942695575194
 20
201.9631412284858
 30
0.0
 11
273.2373295412922
 21
201.9631412284858
 31
0.0
  0
LINE
  5
2478
330
23AD
100
AcDbEntity
  8
L-2
  6
CONTINUOUS
 62
     4
100
AcDbLine
 10
274.237329541292
 20
197.4631412284858
 30
0.0
 11
274.237329541292
 21
194.9631412284855
 31
0.0
  0
LINE
  5
2479
330
23AD
100
AcDbEntity
  8
L-2
  6
CONTINUOUS
 62
     4
100
AcDbLine
 10
274.237329541292
 20
204.4631412284858
 30
0.0
 11
274.237329541292
 21
210.096474561819
 31
0.0
  0
LINE
  5
247A
330
23AD
100
AcDbEntity
  8
L-2
  6
CONTINUOUS
 62
     4
100
AcDbLine
 10
274.237329541292
 20
199.9631412284855
 30
0.0
 11
274.237329541292
 21
201.9631412284858
 31
0.0
  0
INSERT
  5
247B
330
23AD
100
AcDbEntity
  8
L-2
  6
CONTINUOUS
 62
     4
100
AcDbBlockReference
  2
_OPEN
 10
274.237329541292
 20
199.9631412284855
 30
0.0
 41
2.5
 42
2.5
 43
2.5
 50
90.0
  0
INSERT
  5
247C
330
23AD
100
AcDbEntity
  8
L-2
  6
CONTINUOUS
 62
     4
100
AcDbBlockReference
  2
_OPEN
 10
274.237329541292
 20
201.9631412284858
 30
0.0
 41
2.5
 42
2.5
 43
2.5
 50
270.0
  0
MTEXT
  5
247D
330
23AD
100
AcDbEntity
  8
L-2
  6
CONTINUOUS
 62
     2
100
AcDbMText
 10
272.1373295412921
 20
208.5298078951525
 30
0.0
 40
3.2
 41
0.0
 71
     5
 72
     1
  1
\A1;2
  7
BGS
 11
0.0000000000000001
 21
1.0
 31
0.0
1001
ACAD
1000
MTEXTBEGIN
1070
    73
1070
     1
1070
    44
1040
1.0
1070
    74
1070
     0
1000
MTEXTEND
1000
MTEXTBEGIN
1070
    73
1070
     1
1070
    44
1040
1.0
1070
    74
1070
     0
1000
MTEXTEND
1000
MTEXTBEGIN
1070
    73
1070
     1
1070
    44
1040
1.0
1070
    74
1070
     0
1000
MTEXTEND
  0
POINT
  5
247E
330
23AD
100
AcDbEntity
  8
DEFPOINTS
  6
CONTINUOUS
 62
     0
100
AcDbPoint
 10
283.1942695575193
 20
199.9631412284855
 30
0.0
  0
POINT
  5
247F
330
23AD
100
AcDbEntity
  8
DEFPOINTS
  6
CONTINUOUS
 62
     0
100
AcDbPoint
 10
280.1942695575194
 20
201.9631412284858
 30
0.0
  0
POINT
  5
2480
330
23AD
100
AcDbEntity
  8
DEFPOINTS
  6
CONTINUOUS
 62
     0
100
AcDbPoint
 10
274.237329541292
 20
201.9631412284858
 30
0.0
  0
ENDBLK
  5
23BA
330
23AD
100
AcDbEntity
  8
0
100
AcDbBlockEnd
  0
BLOCK
  5
23C5
330
23BB
100
AcDbEntity
  8
0
100
AcDbBlockBegin
  2
*D41
 70
     1
 10
0.0
 20
0.0
 30
0.0
  3
*D41
  1

  0
LINE
  5
2481
330
23BB
100
AcDbEntity
  8
L-2
  6
CONTINUOUS
 62
     4
100
AcDbLine
 10
280.1942695575192
 20
160.7210984896408
 30
0.0
 11
269.8805346500424
 21
160.7210984896408
 31
0.0
  0
LINE
  5
2482
330
23BB
100
AcDbEntity
  8
L-2
  6
CONTINUOUS
 62
     4
100
AcDbLine
 10
280.1942695575192
 20
137.8210984896409
 30
0.0
 11
269.8805346500424
 21
137.8210984896409
 31
0.0
  0
LINE
  5
2483
330
23BB
100
AcDbEntity
  8
L-2
  6
CONTINUOUS
 62
     4
100
AcDbLine
 10
270.8805346500426
 20
158.2210984896408
 30
0.0
 11
270.8805346500426
 21
140.3210984896409
 31
0.0
  0
INSERT
  5
2484
330
23BB
100
AcDbEntity
  8
L-2
  6
CONTINUOUS
 62
     4
100
AcDbBlockReference
  2
_OPEN
 10
270.8805346500426
 20
160.7210984896408
 30
0.0
 41
2.5
 42
2.5
 43
2.5
 50
90.0
  0
INSERT
  5
2485
330
23BB
100
AcDbEntity
  8
L-2
  6
CONTINUOUS
 62
     4
100
AcDbBlockReference
  2
_OPEN
 10
270.8805346500426
 20
137.8210984896409
 30
0.0
 41
2.5
 42
2.5
 43
2.5
 50
270.0
  0
MTEXT
  5
2486
330
23BB
100
AcDbEntity
  8
L-2
  6
CONTINUOUS
 62
     2
100
AcDbMText
 10
267.9424394119473
 20
149.2710984896409
 30
0.0
 40
3.2
 41
0.0
 71
     5
 72
     1
  1
\A1;(22.9)
  7
BGS
 11
0.0000000000000001
 21
1.0
 31
0.0
1001
ACAD
1000
MTEXTBEGIN
1070
    73
1070
     1
1070
    44
1040
1.0
1070
    74
1070
     0
1000
MTEXTEND
1000
MTEXTBEGIN
1070
    73
1070
     1
1070
    44
1040
1.0
1070
    74
1070
     0
1000
MTEXTEND
1000
MTEXTBEGIN
1070
    73
1070
     1
1070
    44
1040
1.0
1070
    74
1070
     0
1000
MTEXTEND
  0
POINT
  5
2487
330
23BB
100
AcDbEntity
  8
DEFPOINTS
  6
CONTINUOUS
 62
     0
100
AcDbPoint
 10
280.6942695575193
 20
160.7210984896408
 30
0.0
  0
POINT
  5
2488
330
23BB
100
AcDbEntity
  8
DEFPOINTS
  6
CONTINUOUS
 62
     0
100
AcDbPoint
 10
280.6942695575193
 20
137.8210984896409
 30
0.0
  0
POINT
  5
2489
330
23BB
100
AcDbEntity
  8
DEFPOINTS
  6
CONTINUOUS
 62
     0
100
AcDbPoint
 10
270.8805346500426
 20
137.8210984896409
 30
0.0
  0
ENDBLK
  5
23C6
330
23BB
100
AcDbEntity
  8
0
100
AcDbBlockEnd
  0
BLOCK
  5
23CE
330
23C7
100
AcDbEntity
  8
0
100
AcDbBlockBegin
  2
*D42
 70
     1
 10
0.0
 20
0.0
 30
0.0
  3
*D42
  1

  0
LINE
  5
248A
330
23C7
100
AcDbEntity
  8
L-2
  6
CONTINUOUS
 62
     4
100
AcDbLine
 10
261.0937072968392
 20
172.8560042323179
 30
0.0
 11
281.9376970325298
 21
163.9048670119765
 31
0.0
  0
MTEXT
  5
248B
330
23C7
100
AcDbEntity
  8
L-2
  6
CONTINUOUS
 62
     2
100
AcDbMText
 10
270.1526832299431
 20
171.2512104116933
 30
0.0
 40
3.2
 41
0.0
 71
     5
 72
     1
  1
\A1;2-R0.5
  7
BGS
 11
0.9188575083298132
 21
-0.3945895074453037
 31
0.0
1001
ACAD
1000
MTEXTBEGIN
1070
    73
1070
     1
1070
    44
1040
1.0
1070
    74
1070
     0
1000
MTEXTEND
1000
MTEXTBEGIN
1070
    73
1070
     1
1070
    44
1040
1.0
1070
    74
1070
     0
1000
MTEXTEND
1000
MTEXTBEGIN
1070
    73
1070
     1
1070
    44
1040
1.0
1070
    74
1070
     0
1000
MTEXTEND
  0
LINE
  5
248C
330
23C7
100
AcDbEntity
  8
L-2
  6
CONTINUOUS
 62
     4
100
AcDbLine
 10
284.6942695575193
 20
162.7210984896406
 30
0.0
 11
284.2348408033543
 21
162.9183932433633
 31
0.0
  0
INSERT
  5
248D
330
23C7
100
AcDbEntity
  8
L-2
  6
CONTINUOUS
 62
     4
100
AcDbBlockReference
  2
_OPEN
 10
284.2348408033543
 20
162.9183932433633
 30
0.0
 41
2.5
 42
2.5
 43
2.5
 50
336.7596248457771
  0
POINT
  5
248E
330
23C7
100
AcDbEntity
  8
DEFPOINTS
  6
CONTINUOUS
 62
     0
100
AcDbPoint
 10
284.2348408033543
 20
162.9183932433633
 30
0.0
  0
POINT
  5
248F
330
23C7
100
AcDbEntity
  8
DEFPOINTS
  6
CONTINUOUS
 62
     0
100
AcDbPoint
 10
284.6942695575193
 20
162.7210984896406
 30
0.0
  0
ENDBLK
  5
23CF
330
23C7
100
AcDbEntity
  8
0
100
AcDbBlockEnd
  0
BLOCK
  5
23D7
330
23D0
100
AcDbEntity
  8
0
100
AcDbBlockBegin
  2
*D43
 70
     1
 10
0.0
 20
0.0
 30
0.0
  3
*D43
  1

  0
LINE
  5
2490
330
23D0
100
AcDbEntity
  8
L-2
  6
CONTINUOUS
 62
     4
100
AcDbLine
 10
303.9724895759462
 20
211.3625501957835
 30
0.0
 11
294.2375655074707
 21
203.0589743820243
 31
0.0
  0
MTEXT
  5
2491
330
23D0
100
AcDbEntity
  8
L-2
  6
CONTINUOUS
 62
     2
100
AcDbMText
 10
298.6932451204607
 20
209.619690523109
 30
0.0
 40
3.2
 41
0.0
 71
     5
 72
     1
  1
\A1;R1.5
  7
BGS
 11
0.7608239874878472
 21
0.6489582883846176
 31
0.0
1001
ACAD
1000
MTEXTBEGIN
1070
    73
1070
     1
1070
    44
1040
1.0
1070
    74
1070
     0
1000
MTEXTEND
1000
MTEXTBEGIN
1070
    73
1070
     1
1070
    44
1040
1.0
1070
    74
1070
     0
1000
MTEXTEND
1000
MTEXTBEGIN
1070
    73
1070
     1
1070
    44
1040
1.0
1070
    74
1070
     0
1000
MTEXTEND
  0
LINE
  5
2492
330
23D0
100
AcDbEntity
  8
L-2
  6
CONTINUOUS
 62
     4
100
AcDbLine
 10
291.1942695575193
 20
200.4631412284858
 30
0.0
 11
292.3355055387509
 21
201.4365786610627
 31
0.0
  0
INSERT
  5
2493
330
23D0
100
AcDbEntity
  8
L-2
  6
CONTINUOUS
 62
     4
100
AcDbBlockReference
  2
_OPEN
 10
292.3355055387509
 20
201.4365786610627
 30
0.0
 41
2.5
 42
2.5
 43
2.5
 50
220.4631072516959
  0
POINT
  5
2494
330
23D0
100
AcDbEntity
  8
DEFPOINTS
  6
CONTINUOUS
 62
     0
100
AcDbPoint
 10
292.3355055387509
 20
201.4365786610627
 30
0.0
  0
POINT
  5
2495
330
23D0
100
AcDbEntity
  8
DEFPOINTS
  6
CONTINUOUS
 62
     0
100
AcDbPoint
 10
291.1942695575193
 20
200.4631412284858
 30
0.0
  0
ENDBLK
  5
23D8
330
23D0
100
AcDbEntity
  8
0
100
AcDbBlockEnd
  0
BLOCK
  5
23E3
330
23D9
100
AcDbEntity
  8
0
100
AcDbBlockBegin
  2
*D44
 70
     1
 10
0.0
 20
0.0
 30
0.0
  3
*D44
  1

  0
LINE
  5
2496
330
23D9
100
AcDbEntity
  8
L-2
  6
CONTINUOUS
 62
     4
100
AcDbLine
 10
340.871666510355
 20
160.9210984896418
 30
0.0
 11
340.871666510355
 21
180.1086283432756
 31
0.0
  0
LINE
  5
2497
330
23D9
100
AcDbEntity
  8
L-2
  6
CONTINUOUS
 62
     4
100
AcDbLine
 10
330.1716665103551
 20
163.2210984896406
 30
0.0
 11
330.1716665103551
 21
180.1086283432756
 31
0.0
  0
LINE
  5
2498
330
23D9
100
AcDbEntity
  8
L-2
  6
CONTINUOUS
 62
     4
100
AcDbLine
 10
338.3716665103551
 20
179.1086283432758
 30
0.0
 11
332.6716665103552
 21
179.1086283432758
 31
0.0
  0
INSERT
  5
2499
330
23D9
100
AcDbEntity
  8
L-2
  6
CONTINUOUS
 62
     4
100
AcDbBlockReference
  2
_OPEN
 10
340.871666510355
 20
179.1086283432758
 30
0.0
 41
2.5
 42
2.5
 43
2.5
  0
INSERT
  5
249A
330
23D9
100
AcDbEntity
  8
L-2
  6
CONTINUOUS
 62
     4
100
AcDbBlockReference
  2
_OPEN
 10
330.1716665103551
 20
179.1086283432758
 30
0.0
 41
2.5
 42
2.5
 43
2.5
 50
180.0
  0
MTEXT
  5
249B
330
23D9
100
AcDbEntity
  8
L-2
  6
CONTINUOUS
 62
     2
100
AcDbMText
 10
335.5216665103552
 20
181.2086283432758
 30
0.0
 40
3.2
 41
0.0
 71
     5
 72
     1
  1
\A1;10.7
  7
BGS
1001
ACAD
1000
MTEXTBEGIN
1070
    73
1070
     1
1070
    44
1040
1.0
1070
    74
1070
     0
1000
MTEXTEND
1000
MTEXTBEGIN
1070
    73
1070
     1
1070
    44
1040
1.0
1070
    74
1070
     0
1000
MTEXTEND
1000
MTEXTBEGIN
1070
    73
1070
     1
1070
    44
1040
1.0
1070
    74
1070
     0
1000
MTEXTEND
  0
POINT
  5
249C
330
23D9
100
AcDbEntity
  8
DEFPOINTS
  6
CONTINUOUS
 62
     0
100
AcDbPoint
 10
340.871666510355
 20
160.4210984896418
 30
0.0
  0
POINT
  5
249D
330
23D9
100
AcDbEntity
  8
DEFPOINTS
  6
CONTINUOUS
 62
     0
100
AcDbPoint
 10
330.1716665103551
 20
162.7210984896406
 30
0.0
  0
POINT
  5
249E
330
23D9
100
AcDbEntity
  8
DEFPOINTS
  6
CONTINUOUS
 62
     0
100
AcDbPoint
 10
330.1716665103551
 20
179.1086283432758
 30
0.0
  0
ENDBLK
  5
23E4
330
23D9
100
AcDbEntity
  8
0
100
AcDbBlockEnd
  0
BLOCK
  5
23F1
330
23E5
100
AcDbEntity
  8
0
100
AcDbBlockBegin
  2
*D45
 70
     1
 10
0.0
 20
0.0
 30
0.0
  3
*D45
  1

  0
LINE
  5
249F
330
23E5
100
AcDbEntity
  8
L-2
  6
CONTINUOUS
 62
     4
100
AcDbLine
 10
339.4716665103552
 20
160.7210984896406
 30
0.0
 11
339.4716665103552
 21
168.0005839861266
 31
0.0
  0
LINE
  5
24A0
330
23E5
100
AcDbEntity
  8
L-2
  6
CONTINUOUS
 62
     4
100
AcDbLine
 10
340.871666510355
 20
160.9210984896418
 30
0.0
 11
340.871666510355
 21
168.0005839861266
 31
0.0
  0
LINE
  5
24A1
330
23E5
100
AcDbEntity
  8
L-2
  6
CONTINUOUS
 62
     4
100
AcDbLine
 10
336.9716665103552
 20
167.0005839861266
 30
0.0
 11
334.4716665103551
 21
167.0005839861266
 31
0.0
  0
LINE
  5
24A2
330
23E5
100
AcDbEntity
  8
L-2
  6
CONTINUOUS
 62
     4
100
AcDbLine
 10
343.3716665103551
 20
167.0005839861266
 30
0.0
 11
353.1192855579742
 21
167.0005839861266
 31
0.0
  0
LINE
  5
24A3
330
23E5
100
AcDbEntity
  8
L-2
  6
CONTINUOUS
 62
     4
100
AcDbLine
 10
339.4716665103552
 20
167.0005839861266
 30
0.0
 11
340.871666510355
 21
167.0005839861266
 31
0.0
  0
INSERT
  5
24A4
330
23E5
100
AcDbEntity
  8
L-2
  6
CONTINUOUS
 62
     4
100
AcDbBlockReference
  2
_OPEN
 10
339.4716665103552
 20
167.0005839861266
 30
0.0
 41
2.5
 42
2.5
 43
2.5
  0
INSERT
  5
24A5
330
23E5
100
AcDbEntity
  8
L-2
  6
CONTINUOUS
 62
     4
100
AcDbBlockReference
  2
_OPEN
 10
340.871666510355
 20
167.0005839861266
 30
0.0
 41
2.5
 42
2.5
 43
2.5
 50
180.0
  0
MTEXT
  5
24A6
330
23E5
100
AcDbEntity
  8
L-2
  6
CONTINUOUS
 62
     2
100
AcDbMText
 10
349.4954760341646
 20
169.1005839861265
 30
0.0
 40
3.2
 41
0.0
 71
     5
 72
     1
  1
\A1;1.4
  7
BGS
1001
ACAD
1000
MTEXTBEGIN
1070
    73
1070
     1
1070
    44
1040
1.0
1070
    74
1070
     0
1000
MTEXTEND
1000
MTEXTBEGIN
1070
    73
1070
     1
1070
    44
1040
1.0
1070
    74
1070
     0
1000
MTEXTEND
1000
MTEXTBEGIN
1070
    73
1070
     1
1070
    44
1040
1.0
1070
    74
1070
     0
1000
MTEXTEND
  0
POINT
  5
24A7
330
23E5
100
AcDbEntity
  8
DEFPOINTS
  6
CONTINUOUS
 62
     0
100
AcDbPoint
 10
339.4716665103552
 20
160.2210984896407
 30
0.0
  0
POINT
  5
24A8
330
23E5
100
AcDbEntity
  8
DEFPOINTS
  6
CONTINUOUS
 62
     0
100
AcDbPoint
 10
340.871666510355
 20
160.4210984896418
 30
0.0
  0
POINT
  5
24A9
330
23E5
100
AcDbEntity
  8
DEFPOINTS
  6
CONTINUOUS
 62
     0
100
AcDbPoint
 10
340.871666510355
 20
167.0005839861266
 30
0.0
  0
ENDBLK
  5
23F2
330
23E5
100
AcDbEntity
  8
0
100
AcDbBlockEnd
  0
BLOCK
  5
23FF
330
23F3
100
AcDbEntity
  8
0
100
AcDbBlockBegin
  2
*D46
 70
     1
 10
0.0
 20
0.0
 30
0.0
  3
*D46
  1

  0
LINE
  5
24AA
330
23F3
100
AcDbEntity
  8
L-2
  6
CONTINUOUS
 62
     4
100
AcDbLine
 10
291.1942695575193
 20
137.8210984896407
 30
0.0
 11
302.2908842087355
 21
137.8210984896407
 31
0.0
  0
LINE
  5
24AB
330
23F3
100
AcDbEntity
  8
L-2
  6
CONTINUOUS
 62
     4
100
AcDbLine
 10
291.1942695575193
 20
135.8210984896407
 30
0.0
 11
302.2908842087355
 21
135.8210984896407
 31
0.0
  0
LINE
  5
24AC
330
23F3
100
AcDbEntity
  8
L-2
  6
CONTINUOUS
 62
     4
100
AcDbLine
 10
301.2908842087355
 20
140.3210984896406
 30
0.0
 11
301.2908842087355
 21
142.8210984896406
 31
0.0
  0
LINE
  5
24AD
330
23F3
100
AcDbEntity
  8
L-2
  6
CONTINUOUS
 62
     4
100
AcDbLine
 10
301.2908842087355
 20
133.3210984896405
 30
0.0
 11
301.2908842087353
 21
127.6877651563072
 31
0.0
  0
LINE
  5
24AE
330
23F3
100
AcDbEntity
  8
L-2
  6
CONTINUOUS
 62
     4
100
AcDbLine
 10
301.2908842087355
 20
137.8210984896407
 30
0.0
 11
301.2908842087355
 21
135.8210984896407
 31
0.0
  0
INSERT
  5
24AF
330
23F3
100
AcDbEntity
  8
L-2
  6
CONTINUOUS
 62
     4
100
AcDbBlockReference
  2
_OPEN
 10
301.2908842087355
 20
137.8210984896407
 30
0.0
 41
2.5
 42
2.5
 43
2.5
 50
270.0
  0
INSERT
  5
24B0
330
23F3
100
AcDbEntity
  8
L-2
  6
CONTINUOUS
 62
     4
100
AcDbBlockReference
  2
_OPEN
 10
301.2908842087355
 20
135.8210984896407
 30
0.0
 41
2.5
 42
2.5
 43
2.5
 50
90.0
  0
MTEXT
  5
24B1
330
23F3
100
AcDbEntity
  8
L-2
  6
CONTINUOUS
 62
     2
100
AcDbMText
 10
299.1908842087354
 20
129.254431822974
 30
0.0
 40
3.2
 41
0.0
 71
     5
 72
     1
  1
\A1;2
  7
BGS
 11
0.0000000000000001
 21
1.0
 31
0.0
1001
ACAD
1000
MTEXTBEGIN
1070
    73
1070
     1
1070
    44
1040
1.0
1070
    74
1070
     0
1000
MTEXTEND
1000
MTEXTBEGIN
1070
    73
1070
     1
1070
    44
1040
1.0
1070
    74
1070
     0
1000
MTEXTEND
1000
MTEXTBEGIN
1070
    73
1070
     1
1070
    44
1040
1.0
1070
    74
1070
     0
1000
MTEXTEND
  0
POINT
  5
24B2
330
23F3
100
AcDbEntity
  8
DEFPOINTS
  6
CONTINUOUS
 62
     0
100
AcDbPoint
 10
290.6942695575192
 20
137.8210984896407
 30
0.0
  0
POINT
  5
24B3
330
23F3
100
AcDbEntity
  8
DEFPOINTS
  6
CONTINUOUS
 62
     0
100
AcDbPoint
 10
290.6942695575192
 20
135.8210984896407
 30
0.0
  0
POINT
  5
24B4
330
23F3
100
AcDbEntity
  8
DEFPOINTS
  6
CONTINUOUS
 62
     0
100
AcDbPoint
 10
301.2908842087355
 20
135.8210984896407
 30
0.0
  0
ENDBLK
  5
2400
330
23F3
100
AcDbEntity
  8
0
100
AcDbBlockEnd
  0
BLOCK
  5
2407
330
2401
100
AcDbEntity
  8
0
100
AcDbBlockBegin
  2
*D47
 70
     1
 10
0.0
 20
0.0
 30
0.0
  3
*D47
  1

  0
LINE
  5
24B5
330
2401
100
AcDbEntity
  8
L-2
  6
CONTINUOUS
 62
     4
100
AcDbLine
 10
326.0329522641641
 20
144.6362740105
 30
0.0
 11
337.694134167416
 21
158.6822966464055
 31
0.0
  0
MTEXT
  5
24B6
330
2401
100
AcDbEntity
  8
L-2
  6
CONTINUOUS
 62
     2
100
AcDbMText
 10
327.9000068351135
 20
150.1727499003584
 30
0.0
 40
3.2
 41
0.0
 71
     5
 72
     1
  1
\A1;R0.5
  7
BGS
 11
0.6387661714696105
 21
0.7694009216176286
 31
0.0
1001
ACAD
1000
MTEXTBEGIN
1070
    73
1070
     1
1070
    44
1040
1.0
1070
    74
1070
     0
1000
MTEXTEND
1000
MTEXTBEGIN
1070
    73
1070
     1
1070
    44
1040
1.0
1070
    74
1070
     0
1000
MTEXTEND
1000
MTEXTBEGIN
1070
    73
1070
     1
1070
    44
1040
1.0
1070
    74
1070
     0
1000
MTEXTEND
  0
INSERT
  5
24B7
330
2401
100
AcDbEntity
  8
L-2
  6
CONTINUOUS
 62
     4
100
AcDbBlockReference
  2
_OPEN
 10
339.2910495960898
 20
160.6057989504496
 30
0.0
 41
2.5
 42
2.5
 43
2.5
 50
50.30012257792924
  0
POINT
  5
24B8
330
2401
100
AcDbEntity
  8
DEFPOINTS
  6
CONTINUOUS
 62
     0
100
AcDbPoint
 10
339.2910495960898
 20
160.6057989504496
 30
0.0
  0
POINT
  5
24B9
330
2401
100
AcDbEntity
  8
DEFPOINTS
  6
CONTINUOUS
 62
     0
100
AcDbPoint
 10
338.9716665103552
 20
160.2210984896407
 30
0.0
  0
ENDBLK
  5
2408
330
2401
100
AcDbEntity
  8
0
100
AcDbBlockEnd
  0
BLOCK
  5
2413
330
2409
100
AcDbEntity
  8
0
100
AcDbBlockBegin
  2
*D48
 70
     1
 10
0.0
 20
0.0
 30
0.0
  3
*D48
  1

  0
LINE
  5
24BA
330
2409
100
AcDbEntity
  8
L-2
  6
CONTINUOUS
 62
     4
100
AcDbLine
 10
331.5716665103554
 20
163.2210984896406
 30
0.0
 11
360.3541104492888
 21
163.2210984896406
 31
0.0
  0
LINE
  5
24BB
330
2409
100
AcDbEntity
  8
L-2
  6
CONTINUOUS
 62
     4
100
AcDbLine
 10
331.5716665103554
 20
60.42109848964066
 30
0.0
 11
360.3541104492888
 21
60.42109848964065
 31
0.0
  0
LINE
  5
24BC
330
2409
100
AcDbEntity
  8
L-2
  6
CONTINUOUS
 62
     4
100
AcDbLine
 10
359.3541104492887
 20
160.7210984896406
 30
0.0
 11
359.3541104492887
 21
62.92109848964065
 31
0.0
  0
INSERT
  5
24BD
330
2409
100
AcDbEntity
  8
L-2
  6
CONTINUOUS
 62
     4
100
AcDbBlockReference
  2
_OPEN
 10
359.3541104492887
 20
163.2210984896406
 30
0.0
 41
2.5
 42
2.5
 43
2.5
 50
90.0
  0
INSERT
  5
24BE
330
2409
100
AcDbEntity
  8
L-2
  6
CONTINUOUS
 62
     4
100
AcDbBlockReference
  2
_OPEN
 10
359.3541104492887
 20
60.42109848964065
 30
0.0
 41
2.5
 42
2.5
 43
2.5
 50
270.0
  0
MTEXT
  5
24BF
330
2409
100
AcDbEntity
  8
L-2
  6
CONTINUOUS
 62
     2
100
AcDbMText
 10
356.4160152111933
 20
111.8210984896407
 30
0.0
 40
3.2
 41
0.0
 71
     5
 72
     1
  1
\A1;(102.8)
  7
BGS
 11
0.0000000000000001
 21
1.0
 31
0.0
1001
ACAD
1000
MTEXTBEGIN
1070
    73
1070
     1
1070
    44
1040
1.0
1070
    74
1070
     0
1000
MTEXTEND
1000
MTEXTBEGIN
1070
    73
1070
     1
1070
    44
1040
1.0
1070
    74
1070
     0
1000
MTEXTEND
1000
MTEXTBEGIN
1070
    73
1070
     1
1070
    44
1040
1.0
1070
    74
1070
     0
1000
MTEXTEND
  0
POINT
  5
24C0
330
2409
100
AcDbEntity
  8
DEFPOINTS
  6
CONTINUOUS
 62
     0
100
AcDbPoint
 10
331.0716665103553
 20
163.2210984896406
 30
0.0
  0
POINT
  5
24C1
330
2409
100
AcDbEntity
  8
DEFPOINTS
  6
CONTINUOUS
 62
     0
100
AcDbPoint
 10
331.0716665103553
 20
60.42109848964066
 30
0.0
  0
POINT
  5
24C2
330
2409
100
AcDbEntity
  8
DEFPOINTS
  6
CONTINUOUS
 62
     0
100
AcDbPoint
 10
359.3541104492887
 20
60.42109848964065
 30
0.0
  0
ENDBLK
  5
2414
330
2409
100
AcDbEntity
  8
0
100
AcDbBlockEnd
  0
BLOCK
  5
241F
330
2415
100
AcDbEntity
  8
0
100
AcDbBlockBegin
  2
*D49
 70
     1
 10
0.0
 20
0.0
 30
0.0
  3
*D49
  1

  0
LINE
  5
24C3
330
2415
100
AcDbEntity
  8
L-2
  6
CONTINUOUS
 62
     4
100
AcDbLine
 10
339.6716665103623
 20
161.9210984896406
 30
0.0
 11
352.2021239602252
 21
161.9210984896406
 31
0.0
  0
LINE
  5
24C4
330
2415
100
AcDbEntity
  8
L-2
  6
CONTINUOUS
 62
     4
100
AcDbLine
 10
339.8716665103551
 20
61.72109848964068
 30
0.0
 11
352.2021239602252
 21
61.72109848964068
 31
0.0
  0
LINE
  5
24C5
330
2415
100
AcDbEntity
  8
L-2
  6
CONTINUOUS
 62
     4
100
AcDbLine
 10
351.2021239602252
 20
159.4210984896408
 30
0.0
 11
351.2021239602252
 21
64.22109848964071
 31
0.0
  0
INSERT
  5
24C6
330
2415
100
AcDbEntity
  8
L-2
  6
CONTINUOUS
 62
     4
100
AcDbBlockReference
  2
_OPEN
 10
351.2021239602252
 20
161.9210984896406
 30
0.0
 41
2.5
 42
2.5
 43
2.5
 50
90.0
  0
INSERT
  5
24C7
330
2415
100
AcDbEntity
  8
L-2
  6
CONTINUOUS
 62
     4
100
AcDbBlockReference
  2
_OPEN
 10
351.2021239602252
 20
61.72109848964068
 30
0.0
 41
2.5
 42
2.5
 43
2.5
 50
270.0
  0
MTEXT
  5
24C8
330
2415
100
AcDbEntity
  8
L-2
  6
CONTINUOUS
 62
     2
100
AcDbMText
 10
349.1021239602251
 20
111.8210984896407
 30
0.0
 40
3.2
 41
0.0
 71
     5
 72
     1
  1
\A1;100.2
  7
BGS
 11
0.0000000000000001
 21
1.0
 31
0.0
1001
ACAD
1000
MTEXTBEGIN
1070
    73
1070
     1
1070
    44
1040
1.0
1070
    74
1070
     0
1000
MTEXTEND
1000
MTEXTBEGIN
1070
    73
1070
     1
1070
    44
1040
1.0
1070
    74
1070
     0
1000
MTEXTEND
1000
MTEXTBEGIN
1070
    73
1070
     1
1070
    44
1040
1.0
1070
    74
1070
     0
1000
MTEXTEND
  0
POINT
  5
24C9
330
2415
100
AcDbEntity
  8
DEFPOINTS
  6
CONTINUOUS
 62
     0
100
AcDbPoint
 10
339.1716665103623
 20
161.9210984896406
 30
0.0
  0
POINT
  5
24CA
330
2415
100
AcDbEntity
  8
DEFPOINTS
  6
CONTINUOUS
 62
     0
100
AcDbPoint
 10
339.3716665103551
 20
61.72109848964068
 30
0.0
  0
POINT
  5
24CB
330
2415
100
AcDbEntity
  8
DEFPOINTS
  6
CONTINUOUS
 62
     0
100
AcDbPoint
 10
351.2021239602252
 20
61.72109848964068
 30
0.0
  0
ENDBLK
  5
2420
330
2415
100
AcDbEntity
  8
0
100
AcDbBlockEnd
  0
BLOCK
  5
242D
330
2421
100
AcDbEntity
  8
0
100
AcDbBlockBegin
  2
*D50
 70
     1
 10
0.0
 20
0.0
 30
0.0
  3
*D50
  1

  0
LINE
  5
24CC
330
2421
100
AcDbEntity
  8
L-2
  6
CONTINUOUS
 62
     4
100
AcDbLine
 10
291.1942695575193
 20
112.8210984896407
 30
0.0
 11
302.2908842087355
 21
112.8210984896407
 31
0.0
  0
LINE
  5
24CD
330
2421
100
AcDbEntity
  8
L-2
  6
CONTINUOUS
 62
     4
100
AcDbLine
 10
291.1942695575193
 20
110.8210984896407
 30
0.0
 11
302.2908842087355
 21
110.8210984896407
 31
0.0
  0
LINE
  5
24CE
330
2421
100
AcDbEntity
  8
L-2
  6
CONTINUOUS
 62
     4
100
AcDbLine
 10
301.2908842087355
 20
115.3210984896406
 30
0.0
 11
301.2908842087355
 21
117.8210984896405
 31
0.0
  0
LINE
  5
24CF
330
2421
100
AcDbEntity
  8
L-2
  6
CONTINUOUS
 62
     4
100
AcDbLine
 10
301.2908842087355
 20
108.3210984896405
 30
0.0
 11
301.2908842087355
 21
102.6877651563072
 31
0.0
  0
LINE
  5
24D0
330
2421
100
AcDbEntity
  8
L-2
  6
CONTINUOUS
 62
     4
100
AcDbLine
 10
301.2908842087355
 20
112.8210984896407
 30
0.0
 11
301.2908842087355
 21
110.8210984896407
 31
0.0
  0
INSERT
  5
24D1
330
2421
100
AcDbEntity
  8
L-2
  6
CONTINUOUS
 62
     4
100
AcDbBlockReference
  2
_OPEN
 10
301.2908842087355
 20
112.8210984896407
 30
0.0
 41
2.5
 42
2.5
 43
2.5
 50
270.0
  0
INSERT
  5
24D2
330
2421
100
AcDbEntity
  8
L-2
  6
CONTINUOUS
 62
     4
100
AcDbBlockReference
  2
_OPEN
 10
301.2908842087355
 20
110.8210984896407
 30
0.0
 41
2.5
 42
2.5
 43
2.5
 50
90.0
  0
MTEXT
  5
24D3
330
2421
100
AcDbEntity
  8
L-2
  6
CONTINUOUS
 62
     2
100
AcDbMText
 10
299.1908842087354
 20
104.254431822974
 30
0.0
 40
3.2
 41
0.0
 71
     5
 72
     1
  1
\A1;2
  7
BGS
 11
0.0000000000000001
 21
1.0
 31
0.0
1001
ACAD
1000
MTEXTBEGIN
1070
    73
1070
     1
1070
    44
1040
1.0
1070
    74
1070
     0
1000
MTEXTEND
1000
MTEXTBEGIN
1070
    73
1070
     1
1070
    44
1040
1.0
1070
    74
1070
     0
1000
MTEXTEND
1000
MTEXTBEGIN
1070
    73
1070
     1
1070
    44
1040
1.0
1070
    74
1070
     0
1000
MTEXTEND
  0
POINT
  5
24D4
330
2421
100
AcDbEntity
  8
DEFPOINTS
  6
CONTINUOUS
 62
     0
100
AcDbPoint
 10
290.6942695575192
 20
112.8210984896407
 30
0.0
  0
POINT
  5
24D5
330
2421
100
AcDbEntity
  8
DEFPOINTS
  6
CONTINUOUS
 62
     0
100
AcDbPoint
 10
290.6942695575192
 20
110.8210984896407
 30
0.0
  0
POINT
  5
24D6
330
2421
100
AcDbEntity
  8
DEFPOINTS
  6
CONTINUOUS
 62
     0
100
AcDbPoint
 10
301.2908842087355
 20
110.8210984896407
 30
0.0
  0
ENDBLK
  5
242E
330
2421
100
AcDbEntity
  8
0
100
AcDbBlockEnd
  0
BLOCK
  5
2439
330
242F
100
AcDbEntity
  8
0
100
AcDbBlockBegin
  2
*D51
 70
     1
 10
0.0
 20
0.0
 30
0.0
  3
*D51
  1

  0
LINE
  5
24D7
330
242F
100
AcDbEntity
  8
L-2
  6
CONTINUOUS
 62
     4
100
AcDbLine
 10
280.1942695575192
 20
135.8210984896409
 30
0.0
 11
269.8805346500424
 21
135.8210984896409
 31
0.0
  0
LINE
  5
24D8
330
242F
100
AcDbEntity
  8
L-2
  6
CONTINUOUS
 62
     4
100
AcDbLine
 10
280.1942695575192
 20
112.8210984896409
 30
0.0
 11
269.8805346500424
 21
112.8210984896409
 31
0.0
  0
LINE
  5
24D9
330
242F
100
AcDbEntity
  8
L-2
  6
CONTINUOUS
 62
     4
100
AcDbLine
 10
270.8805346500426
 20
133.3210984896409
 30
0.0
 11
270.8805346500426
 21
115.3210984896409
 31
0.0
  0
INSERT
  5
24DA
330
242F
100
AcDbEntity
  8
L-2
  6
CONTINUOUS
 62
     4
100
AcDbBlockReference
  2
_OPEN
 10
270.8805346500426
 20
135.8210984896409
 30
0.0
 41
2.5
 42
2.5
 43
2.5
 50
90.0
  0
INSERT
  5
24DB
330
242F
100
AcDbEntity
  8
L-2
  6
CONTINUOUS
 62
     4
100
AcDbBlockReference
  2
_OPEN
 10
270.8805346500426
 20
112.8210984896409
 30
0.0
 41
2.5
 42
2.5
 43
2.5
 50
270.0
  0
MTEXT
  5
24DC
330
242F
100
AcDbEntity
  8
L-2
  6
CONTINUOUS
 62
     2
100
AcDbMText
 10
267.9424394119473
 20
124.3210984896409
 30
0.0
 40
3.2
 41
0.0
 71
     5
 72
     1
  1
\A1;(23)
  7
BGS
 11
0.0000000000000001
 21
1.0
 31
0.0
1001
ACAD
1000
MTEXTBEGIN
1070
    73
1070
     1
1070
    44
1040
1.0
1070
    74
1070
     0
1000
MTEXTEND
1000
MTEXTBEGIN
1070
    73
1070
     1
1070
    44
1040
1.0
1070
    74
1070
     0
1000
MTEXTEND
1000
MTEXTBEGIN
1070
    73
1070
     1
1070
    44
1040
1.0
1070
    74
1070
     0
1000
MTEXTEND
  0
POINT
  5
24DD
330
242F
100
AcDbEntity
  8
DEFPOINTS
  6
CONTINUOUS
 62
     0
100
AcDbPoint
 10
280.6942695575193
 20
135.8210984896409
 30
0.0
  0
POINT
  5
24DE
330
242F
100
AcDbEntity
  8
DEFPOINTS
  6
CONTINUOUS
 62
     0
100
AcDbPoint
 10
280.6942695575193
 20
112.8210984896409
 30
0.0
  0
POINT
  5
24DF
330
242F
100
AcDbEntity
  8
DEFPOINTS
  6
CONTINUOUS
 62
     0
100
AcDbPoint
 10
270.8805346500426
 20
112.8210984896409
 30
0.0
  0
ENDBLK
  5
243A
330
242F
100
AcDbEntity
  8
0
100
AcDbBlockEnd
  0
BLOCK
  5
2445
330
243B
100
AcDbEntity
  8
0
100
AcDbBlockBegin
  2
*D52
 70
     1
 10
0.0
 20
0.0
 30
0.0
  3
*D52
  1

  0
LINE
  5
24E0
330
243B
100
AcDbEntity
  8
L-2
  6
CONTINUOUS
 62
     4
100
AcDbLine
 10
280.1942695575192
 20
85.82109848964066
 30
0.0
 11
269.8805346500424
 21
85.82109848964066
 31
0.0
  0
LINE
  5
24E1
330
243B
100
AcDbEntity
  8
L-2
  6
CONTINUOUS
 62
     4
100
AcDbLine
 10
280.1942695575192
 20
62.92109848964066
 30
0.0
 11
269.8805346500424
 21
62.92109848964066
 31
0.0
  0
LINE
  5
24E2
330
243B
100
AcDbEntity
  8
L-2
  6
CONTINUOUS
 62
     4
100
AcDbLine
 10
270.8805346500426
 20
83.32109848964066
 30
0.0
 11
270.8805346500426
 21
65.42109848964066
 31
0.0
  0
INSERT
  5
24E3
330
243B
100
AcDbEntity
  8
L-2
  6
CONTINUOUS
 62
     4
100
AcDbBlockReference
  2
_OPEN
 10
270.8805346500426
 20
85.82109848964066
 30
0.0
 41
2.5
 42
2.5
 43
2.5
 50
90.0
  0
INSERT
  5
24E4
330
243B
100
AcDbEntity
  8
L-2
  6
CONTINUOUS
 62
     4
100
AcDbBlockReference
  2
_OPEN
 10
270.8805346500426
 20
62.92109848964066
 30
0.0
 41
2.5
 42
2.5
 43
2.5
 50
270.0
  0
MTEXT
  5
24E5
330
243B
100
AcDbEntity
  8
L-2
  6
CONTINUOUS
 62
     2
100
AcDbMText
 10
267.9424394119473
 20
74.3710984896407
 30
0.0
 40
3.2
 41
0.0
 71
     5
 72
     1
  1
\A1;(22.9)
  7
BGS
 11
0.0000000000000001
 21
1.0
 31
0.0
1001
ACAD
1000
MTEXTBEGIN
1070
    73
1070
     1
1070
    44
1040
1.0
1070
    74
1070
     0
1000
MTEXTEND
1000
MTEXTBEGIN
1070
    73
1070
     1
1070
    44
1040
1.0
1070
    74
1070
     0
1000
MTEXTEND
1000
MTEXTBEGIN
1070
    73
1070
     1
1070
    44
1040
1.0
1070
    74
1070
     0
1000
MTEXTEND
  0
POINT
  5
24E6
330
243B
100
AcDbEntity
  8
DEFPOINTS
  6
CONTINUOUS
 62
     0
100
AcDbPoint
 10
280.6942695575193
 20
85.82109848964066
 30
0.0
  0
POINT
  5
24E7
330
243B
100
AcDbEntity
  8
DEFPOINTS
  6
CONTINUOUS
 62
     0
100
AcDbPoint
 10
280.6942695575193
 20
62.92109848964066
 30
0.0
  0
POINT
  5
24E8
330
243B
100
AcDbEntity
  8
DEFPOINTS
  6
CONTINUOUS
 62
     0
100
AcDbPoint
 10
270.8805346500426
 20
62.92109848964066
 30
0.0
  0
ENDBLK
  5
2446
330
243B
100
AcDbEntity
  8
0
100
AcDbBlockEnd
  0
BLOCK
  5
2451
330
2447
100
AcDbEntity
  8
0
100
AcDbBlockBegin
  2
*D53
 70
     1
 10
0.0
 20
0.0
 30
0.0
  3
*D53
  1

  0
LINE
  5
24E9
330
2447
100
AcDbEntity
  8
L-2
  6
CONTINUOUS
 62
     4
100
AcDbLine
 10
280.1942695575192
 20
110.8210984896406
 30
0.0
 11
269.8805346500424
 21
110.8210984896406
 31
0.0
  0
LINE
  5
24EA
330
2447
100
AcDbEntity
  8
L-2
  6
CONTINUOUS
 62
     4
100
AcDbLine
 10
280.1942695575192
 20
87.8210984896406
 30
0.0
 11
269.8805346500424
 21
87.8210984896406
 31
0.0
  0
LINE
  5
24EB
330
2447
100
AcDbEntity
  8
L-2
  6
CONTINUOUS
 62
     4
100
AcDbLine
 10
270.8805346500426
 20
108.3210984896405
 30
0.0
 11
270.8805346500426
 21
90.3210984896406
 31
0.0
  0
INSERT
  5
24EC
330
2447
100
AcDbEntity
  8
L-2
  6
CONTINUOUS
 62
     4
100
AcDbBlockReference
  2
_OPEN
 10
270.8805346500426
 20
110.8210984896406
 30
0.0
 41
2.5
 42
2.5
 43
2.5
 50
90.0
  0
INSERT
  5
24ED
330
2447
100
AcDbEntity
  8
L-2
  6
CONTINUOUS
 62
     4
100
AcDbBlockReference
  2
_OPEN
 10
270.8805346500426
 20
87.8210984896406
 30
0.0
 41
2.5
 42
2.5
 43
2.5
 50
270.0
  0
MTEXT
  5
24EE
330
2447
100
AcDbEntity
  8
L-2
  6
CONTINUOUS
 62
     2
100
AcDbMText
 10
267.9424394119473
 20
99.32109848964064
 30
0.0
 40
3.2
 41
0.0
 71
     5
 72
     1
  1
\A1;(23)
  7
BGS
 11
0.0000000000000001
 21
1.0
 31
0.0
1001
ACAD
1000
MTEXTBEGIN
1070
    73
1070
     1
1070
    44
1040
1.0
1070
    74
1070
     0
1000
MTEXTEND
1000
MTEXTBEGIN
1070
    73
1070
     1
1070
    44
1040
1.0
1070
    74
1070
     0
1000
MTEXTEND
1000
MTEXTBEGIN
1070
    73
1070
     1
1070
    44
1040
1.0
1070
    74
1070
     0
1000
MTEXTEND
  0
POINT
  5
24EF
330
2447
100
AcDbEntity
  8
DEFPOINTS
  6
CONTINUOUS
 62
     0
100
AcDbPoint
 10
280.6942695575193
 20
110.8210984896406
 30
0.0
  0
POINT
  5
24F0
330
2447
100
AcDbEntity
  8
DEFPOINTS
  6
CONTINUOUS
 62
     0
100
AcDbPoint
 10
280.6942695575193
 20
87.8210984896406
 30
0.0
  0
POINT
  5
24F1
330
2447
100
AcDbEntity
  8
DEFPOINTS
  6
CONTINUOUS
 62
     0
100
AcDbPoint
 10
270.8805346500426
 20
87.8210984896406
 30
0.0
  0
ENDBLK
  5
2452
330
2447
100
AcDbEntity
  8
0
100
AcDbBlockEnd
  0
BLOCK
  5
2519
330
250F
100
AcDbEntity
  8
0
100
AcDbBlockBegin
  2
*D54
 70
     1
 10
0.0
 20
0.0
 30
0.0
  3
*D54
  1

  0
LINE
  5
2510
330
250F
100
AcDbEntity
  8
L-2
  6
CONTINUOUS
 62
     4
100
AcDbLine
 10
331.5716665103554
 20
163.2210984896406
 30
0.0
 11
368.7402196486168
 21
163.2210984896406
 31
0.0
  0
LINE
  5
2511
330
250F
100
AcDbEntity
  8
L-2
  6
CONTINUOUS
 62
     4
100
AcDbLine
 10
331.5716665103553
 20
60.42109848964068
 30
0.0
 11
368.7402196486168
 21
60.42109848964066
 31
0.0
  0
LINE
  5
2512
330
250F
100
AcDbEntity
  8
L-2
  6
CONTINUOUS
 62
     4
100
AcDbLine
 10
367.7402196486168
 20
160.7210984896406
 30
0.0
 11
367.7402196486168
 21
62.92109848964067
 31
0.0
  0
INSERT
  5
2513
330
250F
100
AcDbEntity
  8
L-2
  6
CONTINUOUS
 62
     4
100
AcDbBlockReference
  2
_OPEN
 10
367.7402196486168
 20
163.2210984896406
 30
0.0
 41
2.5
 42
2.5
 43
2.5
 50
90.0
  0
INSERT
  5
2514
330
250F
100
AcDbEntity
  8
L-2
  6
CONTINUOUS
 62
     4
100
AcDbBlockReference
  2
_OPEN
 10
367.7402196486168
 20
60.42109848964067
 30
0.0
 41
2.5
 42
2.5
 43
2.5
 50
270.0
  0
MTEXT
  5
2515
330
250F
100
AcDbEntity
  8
L-2
  6
CONTINUOUS
 62
     2
100
AcDbMText
 10
365.6402196486167
 20
111.8210984896407
 30
0.0
 40
3.2
 41
0.0
 71
     5
 72
     1
  1
\A1;102.8
  7
BGS
 11
0.0000000000000001
 21
1.0
 31
0.0
1001
ACAD
1000
MTEXTBEGIN
1070
    73
1070
     1
1070
    44
1040
1.0
1070
    74
1070
     0
1000
MTEXTEND
1000
MTEXTBEGIN
1070
    73
1070
     1
1070
    44
1040
1.0
1070
    74
1070
     0
1000
MTEXTEND
1000
MTEXTBEGIN
1070
    73
1070
     1
1070
    44
1040
1.0
1070
    74
1070
     0
1000
MTEXTEND
  0
POINT
  5
2516
330
250F
100
AcDbEntity
  8
DEFPOINTS
  6
CONTINUOUS
 62
     0
100
AcDbPoint
 10
331.0716665103553
 20
163.2210984896406
 30
0.0
  0
POINT
  5
2517
330
250F
100
AcDbEntity
  8
DEFPOINTS
  6
CONTINUOUS
 62
     0
100
AcDbPoint
 10
331.0716665103553
 20
60.42109848964068
 30
0.0
  0
POINT
  5
2518
330
250F
100
AcDbEntity
  8
DEFPOINTS
  6
CONTINUOUS
 62
     0
100
AcDbPoint
 10
367.7402196486168
 20
60.42109848964067
 30
0.0
  0
ENDBLK
  5
251A
330
250F
100
AcDbEntity
  8
0
100
AcDbBlockEnd
  0
BLOCK
  5
2526
330
251C
100
AcDbEntity
  8
0
100
AcDbBlockBegin
  2
*D55
 70
     1
 10
0.0
 20
0.0
 30
0.0
  3
*D55
  1

  0
LINE
  5
251D
330
251C
100
AcDbEntity
  8
L-2
  6
CONTINUOUS
 62
     4
100
AcDbLine
 10
331.5716665103554
 20
163.2210984896406
 30
0.0
 11
368.7402196486168
 21
163.2210984896406
 31
0.0
  0
LINE
  5
251E
330
251C
100
AcDbEntity
  8
L-2
  6
CONTINUOUS
 62
     4
100
AcDbLine
 10
331.5716665103553
 20
60.42109848964068
 30
0.0
 11
368.7402196486168
 21
60.42109848964066
 31
0.0
  0
LINE
  5
251F
330
251C
100
AcDbEntity
  8
L-2
  6
CONTINUOUS
 62
     4
100
AcDbLine
 10
367.7402196486168
 20
160.7210984896406
 30
0.0
 11
367.7402196486168
 21
62.92109848964067
 31
0.0
  0
INSERT
  5
2520
330
251C
100
AcDbEntity
  8
L-2
  6
CONTINUOUS
 62
     4
100
AcDbBlockReference
  2
_OPEN
 10
367.7402196486168
 20
163.2210984896406
 30
0.0
 41
2.5
 42
2.5
 43
2.5
 50
90.0
  0
INSERT
  5
2521
330
251C
100
AcDbEntity
  8
L-2
  6
CONTINUOUS
 62
     4
100
AcDbBlockReference
  2
_OPEN
 10
367.7402196486168
 20
60.42109848964067
 30
0.0
 41
2.5
 42
2.5
 43
2.5
 50
270.0
  0
MTEXT
  5
2522
330
251C
100
AcDbEntity
  8
L-2
  6
CONTINUOUS
 62
     2
100
AcDbMText
 10
365.6402196486167
 20
111.8210984896407
 30
0.0
 40
3.2
 41
0.0
 71
     5
 72
     1
  1
\A1;102.8
  7
BGS
 11
0.0000000000000001
 21
1.0
 31
0.0
1001
ACAD
1000
MTEXTBEGIN
1070
    73
1070
     1
1070
    44
1040
1.0
1070
    74
1070
     0
1000
MTEXTEND
1000
MTEXTBEGIN
1070
    73
1070
     1
1070
    44
1040
1.0
1070
    74
1070
     0
1000
MTEXTEND
1000
MTEXTBEGIN
1070
    73
1070
     1
1070
    44
1040
1.0
1070
    74
1070
     0
1000
MTEXTEND
  0
POINT
  5
2523
330
251C
100
AcDbEntity
  8
DEFPOINTS
  6
CONTINUOUS
 62
     0
100
AcDbPoint
 10
331.0716665103553
 20
163.2210984896406
 30
0.0
  0
POINT
  5
2524
330
251C
100
AcDbEntity
  8
DEFPOINTS
  6
CONTINUOUS
 62
     0
100
AcDbPoint
 10
331.0716665103553
 20
60.42109848964068
 30
0.0
  0
POINT
  5
2525
330
251C
100
AcDbEntity
  8
DEFPOINTS
  6
CONTINUOUS
 62
     0
100
AcDbPoint
 10
367.7402196486168
 20
60.42109848964067
 30
0.0
  0
ENDBLK
  5
2527
330
251C
100
AcDbEntity
  8
0
100
AcDbBlockEnd
  0
BLOCK
  5
2589
330
2528
100
AcDbEntity
  8
0
100
AcDbBlockBegin
  2
A$C4EBA5655
 70
     0
 10
0.0
 20
0.0
 30
0.0
  3
A$C4EBA5655
  1

  0
DIMENSION
  5
2529
330
2528
100
AcDbEntity
  8
L-2
  6
CONTINUOUS
100
AcDbDimension
  2
*D55
 10
82.04040437225989
 20
-51.3369552615484
 30
0.0
 11
79.94040437225987
 21
0.0630447384516799
 31
0.0
 12
-285.6998152763569
 22
-111.7580537511891
 32
0.0
  3
CAD-STD
100
AcDbAlignedDimension
 13
45.37185123399843
 23
51.46304473845169
 33
0.0
 14
45.37185123399836
 24
-51.3369552615484
 34
0.0
 50
90.0
100
AcDbRotatedDimension
  0
LINE
  5
252A
330
2528
100
AcDbEntity
  8
L-1
  6
CONTINUOUS
 62
     2
100
AcDbLine
 10
4.994454281162346
 20
24.06304473845162
 30
0.0
 11
4.994454281162346
 21
1.063044738451622
 31
0.0
  0
LINE
  5
252B
330
2528
100
AcDbEntity
  8
L-1
  6
CONTINUOUS
 62
     2
100
AcDbLine
 10
-5.005545718837652
 20
24.06304473845185
 30
0.0
 11
-5.005545718837652
 21
1.063044738451849
 31
0.0
  0
LINE
  5
252C
330
2528
100
AcDbEntity
  8
L-1
  6
CONTINUOUS
 62
     2
100
AcDbLine
 10
6.994454281162347
 20
49.66304473845167
 30
0.0
 11
6.994454281162347
 21
-49.53695526154842
 31
0.0
  0
LINE
  5
252D
330
2528
100
AcDbEntity
  8
L-1
  6
CONTINUOUS
 62
     2
100
AcDbLine
 10
-7.005545718837652
 20
49.66304473845164
 30
0.0
 11
-7.005545718837709
 21
-49.53695526154831
 31
0.0
  0
LINE
  5
252E
330
2528
100
AcDbEntity
  8
L-1
  6
CONTINUOUS
 62
     2
100
AcDbLine
 10
52.47185123399834
 20
-50.03695526154839
 30
0.0
 11
52.47185123399834
 21
50.16304473845164
 31
0.0
  0
LINE
  5
252F
330
2528
100
AcDbEntity
  8
L-1
  6
CONTINUOUS
 62
     2
100
AcDbLine
 10
55.17185123399826
 20
-48.53695526154839
 30
0.0
 11
55.17185123399826
 21
48.66304473845222
 31
0.0
  0
LINE
  5
2530
330
2528
100
AcDbEntity
  8
L-1
  6
CONTINUOUS
 62
     2
100
AcDbLine
 10
4.994454281162346
 20
-0.9369552615483767
 30
0.0
 11
4.994454281162346
 21
-23.93695526154837
 31
0.0
  0
LINE
  5
2531
330
2528
100
AcDbEntity
  8
L-1
  6
CONTINUOUS
 62
     2
100
AcDbLine
 10
-5.005545718837652
 20
-0.9369552615481495
 30
0.0
 11
-5.005545718837652
 21
-23.93695526154849
 31
0.0
  0
LINE
  5
2532
330
2528
100
AcDbEntity
  8
L-1
  6
CONTINUOUS
 62
     2
100
AcDbLine
 10
4.994454281162346
 20
-23.93695526154837
 30
0.0
 11
-5.005545718837652
 21
-23.93695526154849
 31
0.0
  0
LINE
  5
2533
330
2528
100
AcDbEntity
  8
L-1
  6
CONTINUOUS
 62
     2
100
AcDbLine
 10
4.994454281162346
 20
-25.93695526154837
 30
0.0
 11
-5.005545718837652
 21
-25.93695526154849
 31
0.0
  0
LINE
  5
2534
330
2528
100
AcDbEntity
  8
L-1
  6
CONTINUOUS
 62
     2
100
AcDbLine
 10
4.994454281162346
 20
-48.83695526154838
 30
0.0
 11
-5.005545718837652
 21
-48.83695526154843
 31
0.0
  0
LINE
  5
2535
330
2528
100
AcDbEntity
  8
L-1
  6
CONTINUOUS
 62
     2
100
AcDbLine
 10
6.494454281162347
 20
-50.03695526154842
 30
0.0
 11
1.494454281162346
 21
-50.03695526154835
 31
0.0
  0
TEXT
  5
2536
330
2528
100
AcDbEntity
  8
L-2
  6
CONTINUOUS
 62
     2
100
AcDbText
 10
4.176095234395916
 20
-44.91711034917277
 30
0.0
 40
3.0
  1
>PC<
 50
90.0
  7
BGS
 72
     4
 11
2.676095234395916
 21
-39.3456817777442
 31
0.0
100
AcDbText
  0
LINE
  5
2537
330
2528
100
AcDbEntity
  8
L-1
  6
CONTINUOUS
 62
     2
100
AcDbLine
 10
-5.005545718837652
 20
-25.93695526154849
 30
0.0
 11
-5.005545718837652
 21
-48.83695526154843
 31
0.0
  0
LINE
  5
2538
330
2528
100
AcDbEntity
  8
L-1
  6
CONTINUOUS
 62
     2
100
AcDbLine
 10
-1.505545718837652
 20
-50.03695526154832
 30
0.0
 11
-6.505545718837709
 21
-50.03695526154832
 31
0.0
  0
ARC
  5
2539
330
2528
100
AcDbEntity
  8
L-1
  6
CONTINUOUS
 62
     2
100
AcDbCircle
 10
-6.505545718837709
 20
-49.53695526154835
 30
0.0
 40
0.5
100
AcDbArc
 50
180.0
 51
270.0
  0
LINE
  5
253A
330
2528
100
AcDbEntity
  8
L-1
  6
CONTINUOUS
 62
     2
100
AcDbLine
 10
1.494454281162346
 20
-50.03695526154835
 30
0.0
 11
1.494454281162346
 21
-50.83695526154845
 31
0.0
  0
LINE
  5
253B
330
2528
100
AcDbEntity
  8
L-1
  6
CONTINUOUS
 62
     2
100
AcDbLine
 10
-1.505545718837652
 20
-50.03695526154832
 30
0.0
 11
-1.505545718837652
 21
-50.83695526154845
 31
0.0
  0
ARC
  5
253C
330
2528
100
AcDbEntity
  8
L-1
  6
CONTINUOUS
 62
     2
100
AcDbCircle
 10
-1.005545718837709
 20
-50.83695526154845
 30
0.0
 40
0.5
100
AcDbArc
 50
180.0
 51
270.0
  0
LINE
  5
253D
330
2528
100
AcDbEntity
  8
L-1
  6
CONTINUOUS
 62
     2
100
AcDbLine
 10
0.9944542811623476
 20
-51.33695526154845
 30
0.0
 11
-1.00554571883765
 21
-51.3369552615484
 31
0.0
  0
ARC
  5
253E
330
2528
100
AcDbEntity
  8
L-1
  6
CONTINUOUS
 62
     2
100
AcDbCircle
 10
0.9944542811622907
 20
-50.83695526154845
 30
0.0
 40
0.5
100
AcDbArc
 50
270.0
 51
0.0
  0
LINE
  5
253F
330
2528
100
AcDbEntity
  8
L-1
  6
CONTINUOUS
 62
     2
100
AcDbLine
 10
-1.505545718837652
 20
-50.03695526154832
 30
0.0
 11
-1.505545718837652
 21
-48.33695526154838
 31
0.0
  0
LINE
  5
2540
330
2528
100
AcDbEntity
  8
L-1
  6
CONTINUOUS
 62
     2
100
AcDbLine
 10
-2.505545718837879
 20
-50.03695526154832
 30
0.0
 11
-2.505545718837935
 21
-48.8369552615484
 31
0.0
  0
LINE
  5
2541
330
2528
100
AcDbEntity
  8
L-1
  6
CONTINUOUS
 62
     2
100
AcDbLine
 10
1.494454281162346
 20
-50.03695526154842
 30
0.0
 11
1.494454281162346
 21
-48.33695526154838
 31
0.0
  0
LINE
  5
2542
330
2528
100
AcDbEntity
  8
L-1
  6
CONTINUOUS
 62
     2
100
AcDbLine
 10
4.994454281162346
 20
-25.93695526154837
 30
0.0
 11
4.994454281162346
 21
-48.83695526154838
 31
0.0
  0
LINE
  5
2543
330
2528
100
AcDbEntity
  8
L-1
  6
CONTINUOUS
 62
     2
100
AcDbLine
 10
2.494454281162061
 20
-50.03695526154835
 30
0.0
 11
2.494454281162061
 21
-48.83695526154838
 31
0.0
  0
ARC
  5
2544
330
2528
100
AcDbEntity
  8
L-1
  6
CONTINUOUS
 62
     2
100
AcDbCircle
 10
6.49445428116229
 20
-49.53695526154842
 30
0.0
 40
0.5
100
AcDbArc
 50
270.0
 51
0.0
  0
LINE
  5
2545
330
2528
100
AcDbEntity
  8
L-1
  6
CONTINUOUS
 62
     2
100
AcDbLine
 10
4.994454281162346
 20
1.063044738451622
 30
0.0
 11
-5.005545718837652
 21
1.063044738451849
 31
0.0
  0
LINE
  5
2546
330
2528
100
AcDbEntity
  8
L-1
  6
CONTINUOUS
 62
     2
100
AcDbLine
 10
4.994454281162346
 20
-0.9369552615483767
 30
0.0
 11
-5.005545718837652
 21
-0.9369552615482064
 31
0.0
  0
LINE
  5
2547
330
2528
100
AcDbEntity
  8
L-1
  6
CONTINUOUS
 62
     2
100
AcDbLine
 10
52.47185123399834
 20
-48.8369552615484
 30
0.0
 11
45.37185123399774
 21
-48.83695526154848
 31
0.0
  0
LINE
  5
2548
330
2528
100
AcDbEntity
  8
L-1
  6
CONTINUOUS
 62
     2
100
AcDbLine
 10
53.67185123399838
 20
-50.03695526154846
 30
0.0
 11
45.37185123399836
 21
-50.03695526154842
 31
0.0
  0
LINE
  5
2549
330
2528
100
AcDbEntity
  8
L-1
  6
CONTINUOUS
 62
     2
100
AcDbLine
 10
44.47185123399828
 20
-50.83695526154838
 30
0.0
 11
44.47185123399828
 21
-48.92287757770913
 31
0.0
  0
LINE
  5
254A
330
2528
100
AcDbEntity
  8
L-1
  6
CONTINUOUS
 62
     2
100
AcDbLine
 10
45.37185123399836
 20
-50.03695526154835
 30
0.0
 11
45.37185123399836
 21
-51.3369552615484
 31
0.0
  0
LINE
  5
254B
330
2528
100
AcDbEntity
  8
L-1
  6
CONTINUOUS
 62
     2
100
AcDbLine
 10
45.37185123399836
 20
-51.3369552615484
 30
0.0
 11
44.97185123399828
 21
-51.33695526154838
 31
0.0
  0
POINT
  5
254C
330
2528
100
AcDbEntity
  8
DEFPOINTS
  6
BYBLOCK
 62
     2
100
AcDbPoint
 10
44.47185123399828
 20
-51.3369552615484
 30
0.0
  0
ARC
  5
254D
330
2528
100
AcDbEntity
  8
L-1
  6
CONTINUOUS
 62
     2
100
AcDbCircle
 10
44.97185123399828
 20
-50.83695526154838
 30
0.0
 40
0.5
100
AcDbArc
 50
180.0
 51
270.0
  0
LINE
  5
254E
330
2528
100
AcDbEntity
  8
L-1
  6
CONTINUOUS
 62
     2
100
AcDbLine
 10
45.37185123399825
 20
-48.83695526154843
 30
0.0
 11
44.47185123399828
 21
-48.92287757770913
 31
0.0
  0
POINT
  5
254F
330
2528
100
AcDbEntity
  8
DEFPOINTS
  6
BYBLOCK
 62
     2
100
AcDbPoint
 10
45.37185123399825
 20
-48.83695526154843
 30
0.0
  0
POINT
  5
2550
330
2528
100
AcDbEntity
  8
DEFPOINTS
  6
BYBLOCK
 62
     2
100
AcDbPoint
 10
45.37185123399836
 20
-50.03695526154839
 30
0.0
  0
ARC
  5
2551
330
2528
100
AcDbEntity
  8
L-1
  6
CONTINUOUS
 62
     2
100
AcDbCircle
 10
53.67185123399821
 20
-48.53695526154839
 30
0.0
 40
1.5
100
AcDbArc
 50
270.0
 51
0.0
  0
LINE
  5
2552
330
2528
100
AcDbEntity
  8
L-1
  6
CONTINUOUS
 62
     2
100
AcDbLine
 10
4.994454281162346
 20
48.96304473845165
 30
0.0
 11
-5.005545718837652
 21
48.96304473845177
 31
0.0
  0
LINE
  5
2553
330
2528
100
AcDbEntity
  8
L-1
  6
CONTINUOUS
 62
     2
100
AcDbLine
 10
6.494454281162347
 20
50.16304473845167
 30
0.0
 11
1.494454281162346
 21
50.16304473845164
 31
0.0
  0
LINE
  5
2554
330
2528
100
AcDbEntity
  8
L-1
  6
CONTINUOUS
 62
     2
100
AcDbLine
 10
4.994454281162346
 20
26.06304473845161
 30
0.0
 11
-5.005545718837652
 21
26.06304473845185
 31
0.0
  0
LINE
  5
2555
330
2528
100
AcDbEntity
  8
L-1
  6
CONTINUOUS
 62
     2
100
AcDbLine
 10
4.994454281162346
 20
24.06304473845162
 30
0.0
 11
-5.005545718837652
 21
24.06304473845185
 31
0.0
  0
LINE
  5
2556
330
2528
100
AcDbEntity
  8
L-1
  6
CONTINUOUS
 62
     2
100
AcDbLine
 10
-5.005545718837652
 20
48.96304473845177
 30
0.0
 11
-5.005545718837652
 21
26.06304473845185
 31
0.0
  0
LINE
  5
2557
330
2528
100
AcDbEntity
  8
L-1
  6
CONTINUOUS
 62
     2
100
AcDbLine
 10
-1.505545718837652
 20
50.16304473845164
 30
0.0
 11
-6.505545718837709
 21
50.16304473845164
 31
0.0
  0
ARC
  5
2558
330
2528
100
AcDbEntity
  8
L-1
  6
CONTINUOUS
 62
     2
100
AcDbCircle
 10
-6.505545718837652
 20
49.66304473845162
 30
0.0
 40
0.5
100
AcDbArc
 50
90.0
 51
180.0
  0
ARC
  5
2559
330
2528
100
AcDbEntity
  8
L-1
  6
CONTINUOUS
 62
     2
100
AcDbCircle
 10
-1.00554571883765
 20
50.96304473845169
 30
0.0
 40
0.5
100
AcDbArc
 50
90.0
 51
180.0
  0
LINE
  5
255A
330
2528
100
AcDbEntity
  8
L-1
  6
CONTINUOUS
 62
     2
100
AcDbLine
 10
-1.505545718837652
 20
50.96304473845169
 30
0.0
 11
-1.505545718837652
 21
48.96304473845169
 31
0.0
  0
LINE
  5
255B
330
2528
100
AcDbEntity
  8
L-1
  6
CONTINUOUS
 62
     2
100
AcDbLine
 10
-1.505545718837652
 20
48.96304473845173
 30
0.0
 11
-1.505545718837652
 21
48.46304473845169
 31
0.0
  0
LINE
  5
255C
330
2528
100
AcDbEntity
  8
L-1
  6
CONTINUOUS
 62
     2
100
AcDbLine
 10
-2.505545718837879
 20
50.16304473845162
 30
0.0
 11
-2.505545718837935
 21
48.96304473845169
 31
0.0
  0
LINE
  5
255D
330
2528
100
AcDbEntity
  8
L-1
  6
CONTINUOUS
 62
     2
100
AcDbLine
 10
1.494454281162346
 20
50.16304473845164
 30
0.0
 11
1.494454281162346
 21
50.46304473845172
 31
0.0
  0
LINE
  5
255E
330
2528
100
AcDbEntity
  8
L-1
  6
CONTINUOUS
 62
     2
100
AcDbLine
 10
1.494454281162346
 20
50.96304473845169
 30
0.0
 11
1.494454281162346
 21
48.96304473845169
 31
0.0
  0
LINE
  5
255F
330
2528
100
AcDbEntity
  8
L-1
  6
CONTINUOUS
 62
     2
100
AcDbLine
 10
1.494454281162346
 20
48.96304473845169
 30
0.0
 11
1.494454281162346
 21
48.46304473845169
 31
0.0
  0
LINE
  5
2560
330
2528
100
AcDbEntity
  8
L-1
  6
CONTINUOUS
 62
     2
100
AcDbLine
 10
0.9944542811623476
 20
51.46304473845169
 30
0.0
 11
-1.00554571883765
 21
51.46304473845169
 31
0.0
  0
ARC
  5
2561
330
2528
100
AcDbEntity
  8
L-1
  6
CONTINUOUS
 62
     2
100
AcDbCircle
 10
0.9944542811623476
 20
50.96304473845169
 30
0.0
 40
0.5
100
AcDbArc
 50
0.0
 51
90.0
  0
LINE
  5
2562
330
2528
100
AcDbEntity
  8
L-1
  6
CONTINUOUS
 62
     2
100
AcDbLine
 10
4.994454281162346
 20
48.96304473845161
 30
0.0
 11
4.994454281162346
 21
26.06304473845161
 31
0.0
  0
LINE
  5
2563
330
2528
100
AcDbEntity
  8
L-1
  6
CONTINUOUS
 62
     2
100
AcDbLine
 10
2.494454281162061
 20
50.16304473845164
 30
0.0
 11
2.494454281162061
 21
48.96304473845169
 31
0.0
  0
ARC
  5
2564
330
2528
100
AcDbEntity
  8
L-1
  6
CONTINUOUS
 62
     2
100
AcDbCircle
 10
6.494454281162347
 20
49.66304473845164
 30
0.0
 40
0.5
100
AcDbArc
 50
0.0
 51
90.0
  0
LINE
  5
2565
330
2528
100
AcDbEntity
  8
L-1
  6
CONTINUOUS
 62
     2
100
AcDbLine
 10
1.494454281162461
 20
88.20508747729679
 30
0.0
 11
2.494454281162461
 21
88.20508747729673
 31
0.0
  0
LINE
  5
2566
330
2528
100
AcDbEntity
  8
L-1
  6
CONTINUOUS
 62
     2
100
AcDbLine
 10
1.494454281162461
 20
87.5050874772967
 30
0.0
 11
6.994454281162461
 21
87.5050874772968
 31
0.0
  0
LINE
  5
2567
330
2528
100
AcDbEntity
  8
L-1
  6
CONTINUOUS
 62
     2
100
AcDbLine
 10
-5.505545718837536
 20
90.20508747729671
 30
0.0
 11
5.494454281162461
 21
90.20508747729671
 31
0.0
  0
LINE
  5
2568
330
2528
100
AcDbEntity
  8
L-1
  6
CONTINUOUS
 62
     2
100
AcDbLine
 10
-1.505545718837538
 20
88.20508747729673
 30
0.0
 11
-1.505545718837538
 21
79.20508747729673
 31
0.0
  0
LINE
  5
2569
330
2528
100
AcDbEntity
  8
L-1
  6
CONTINUOUS
 62
     2
100
AcDbLine
 10
1.494454281162461
 20
88.20508747729675
 30
0.0
 11
1.494454281162461
 21
79.20508747729678
 31
0.0
  0
LINE
  5
256A
330
2528
100
AcDbEntity
  8
L-1
  6
CONTINUOUS
 62
     2
100
AcDbLine
 10
-1.505545718837538
 20
79.60508747729666
 30
0.0
 11
1.494454281162461
 21
79.60508747729676
 31
0.0
  0
ARC
  5
256B
330
2528
100
AcDbEntity
  8
L-1
  6
CONTINUOUS
 62
     2
100
AcDbCircle
 10
-1.005545718837536
 20
79.20508747729673
 30
0.0
 40
0.5
100
AcDbArc
 50
180.0
 51
270.0
  0
POINT
  5
256C
330
2528
100
AcDbEntity
  8
DEFPOINTS
  6
BYBLOCK
 62
     2
100
AcDbPoint
 10
-1.505545718837538
 20
79.20508747729673
 30
0.0
  0
POINT
  5
256D
330
2528
100
AcDbEntity
  8
DEFPOINTS
  6
BYBLOCK
 62
     2
100
AcDbPoint
 10
-1.505545718837538
 20
79.20508747729673
 30
0.0
  0
LINE
  5
256E
330
2528
100
AcDbEntity
  8
L-1
  6
CONTINUOUS
 62
     2
100
AcDbLine
 10
-1.005545718837536
 20
78.70508747729672
 30
0.0
 11
0.9944542811625185
 21
78.7050874772968
 31
0.0
  0
POINT
  5
256F
330
2528
100
AcDbEntity
  8
DEFPOINTS
  6
BYBLOCK
 62
     2
100
AcDbPoint
 10
1.494454281162461
 20
79.20508747729678
 30
0.0
  0
POINT
  5
2570
330
2528
100
AcDbEntity
  8
DEFPOINTS
  6
BYBLOCK
 62
     2
100
AcDbPoint
 10
1.494454281162461
 20
79.20508747729678
 30
0.0
  0
ARC
  5
2571
330
2528
100
AcDbEntity
  8
L-1
  6
CONTINUOUS
 62
     2
100
AcDbCircle
 10
0.9944542811624611
 20
79.20508747729678
 30
0.0
 40
0.5
100
AcDbArc
 50
270.0
 51
0.0
  0
LINE
  5
2572
330
2528
100
AcDbEntity
  8
L-1
  6
CONTINUOUS
 62
     2
100
AcDbLine
 10
-7.005545718837536
 20
87.50508747729673
 30
0.0
 11
-1.505545718837538
 21
87.5050874772967
 31
0.0
  0
ARC
  5
2573
330
2528
100
AcDbEntity
  8
L-1
  6
CONTINUOUS
 62
     2
100
AcDbCircle
 10
-5.505545718837536
 20
88.70508747729671
 30
0.0
 40
1.5
100
AcDbArc
 50
90.0
 51
180.0000000000024
  0
LINE
  5
2574
330
2528
100
AcDbEntity
  8
L-1
  6
CONTINUOUS
 62
     2
100
AcDbLine
 10
-7.005545718837536
 20
87.50508747729673
 30
0.0
 11
-7.005545718837536
 21
88.70508747729667
 31
0.0
  0
LINE
  5
2575
330
2528
100
AcDbEntity
  8
L-1
  6
CONTINUOUS
 62
     2
100
AcDbLine
 10
-2.505545718837538
 20
88.2050874772967
 30
0.0
 11
-1.505545718837538
 21
88.20508747729673
 31
0.0
  0
LINE
  5
2576
330
2528
100
AcDbEntity
  8
L-1
  6
CONTINUOUS
 62
     2
100
AcDbLine
 10
-2.505545718837538
 20
88.20508747729673
 30
0.0
 11
-2.505545718837538
 21
87.50508747729673
 31
0.0
  0
POINT
  5
2577
330
2528
100
AcDbEntity
  8
DEFPOINTS
  6
BYBLOCK
 62
     2
100
AcDbPoint
 10
-2.505545718837538
 20
87.5050874772967
 30
0.0
  0
LINE
  5
2578
330
2528
100
AcDbEntity
  8
L-1
  6
CONTINUOUS
 62
     2
100
AcDbLine
 10
2.494454281162461
 20
88.20508747729675
 30
0.0
 11
2.494454281162461
 21
87.50508747729677
 31
0.0
  0
POINT
  5
2579
330
2528
100
AcDbEntity
  8
DEFPOINTS
  6
BYBLOCK
 62
     2
100
AcDbPoint
 10
2.494454281162461
 20
87.50508747729673
 30
0.0
  0
ARC
  5
257A
330
2528
100
AcDbEntity
  8
L-1
  6
CONTINUOUS
 62
     2
100
AcDbCircle
 10
5.494454281162461
 20
88.70508747729671
 30
0.0
 40
1.5
100
AcDbArc
 50
0.0
 51
90.0
  0
LINE
  5
257B
330
2528
100
AcDbEntity
  8
L-1
  6
CONTINUOUS
 62
     2
100
AcDbLine
 10
6.994454281162461
 20
87.5050874772968
 30
0.0
 11
6.994454281162461
 21
88.70508747729671
 31
0.0
  0
LINE
  5
257C
330
2528
100
AcDbEntity
  8
L-1
  6
CONTINUOUS
 62
     2
100
AcDbLine
 10
53.52738858840741
 20
50.1630447384517
 30
0.0
 11
45.37185123399836
 21
50.16304473845167
 31
0.0
  0
LINE
  5
257D
330
2528
100
AcDbEntity
  8
L-1
  6
CONTINUOUS
 62
     2
100
AcDbLine
 10
52.47185123399834
 20
48.96304473845165
 30
0.0
 11
45.37185123399774
 21
48.96304473845169
 31
0.0
  0
LINE
  5
257E
330
2528
100
AcDbEntity
  8
L-1
  6
CONTINUOUS
 62
     2
100
AcDbLine
 10
45.37185123399843
 20
50.16304473845164
 30
0.0
 11
45.37185123399843
 21
51.46304473845169
 31
0.0
  0
LINE
  5
257F
330
2528
100
AcDbEntity
  8
L-1
  6
CONTINUOUS
 62
     2
100
AcDbLine
 10
44.47185123399831
 20
50.96304473845165
 30
0.0
 11
44.47185123399831
 21
49.0489670546124
 31
0.0
  0
POINT
  5
2580
330
2528
100
AcDbEntity
  8
DEFPOINTS
  6
BYBLOCK
 62
     2
100
AcDbPoint
 10
45.37185123399843
 20
50.16304473845167
 30
0.0
  0
POINT
  5
2581
330
2528
100
AcDbEntity
  8
DEFPOINTS
  6
BYBLOCK
 62
     2
100
AcDbPoint
 10
45.37185123399829
 20
48.96304473845169
 30
0.0
  0
LINE
  5
2582
330
2528
100
AcDbEntity
  8
L-1
  6
CONTINUOUS
 62
     2
100
AcDbLine
 10
45.37185123399829
 20
48.96304473845169
 30
0.0
 11
44.47185123399831
 21
49.0489670546124
 31
0.0
  0
LINE
  5
2583
330
2528
100
AcDbEntity
  8
L-1
  6
CONTINUOUS
 62
     2
100
AcDbLine
 10
45.37185123399843
 20
51.46304473845169
 30
0.0
 11
44.97185123399833
 21
51.46304473845165
 31
0.0
  0
POINT
  5
2584
330
2528
100
AcDbEntity
  8
DEFPOINTS
  6
BYBLOCK
 62
     2
100
AcDbPoint
 10
44.47185123399831
 20
51.46304473845169
 30
0.0
  0
ARC
  5
2585
330
2528
100
AcDbEntity
  8
L-1
  6
CONTINUOUS
 62
     2
100
AcDbCircle
 10
44.97185123399833
 20
50.96304473845165
 30
0.0
 40
0.5
100
AcDbArc
 50
90.0
 51
180.0
  0
POINT
  5
2586
330
2528
100
AcDbEntity
  8
DEFPOINTS
  6
BYBLOCK
 62
     2
100
AcDbPoint
 10
48.2718512339975
 20
48.96304473845169
 30
0.0
  0
ARC
  5
2587
330
2528
100
AcDbEntity
  8
L-1
  6
CONTINUOUS
 62
     2
100
AcDbCircle
 10
53.49961991120586
 20
48.48118257262007
 30
0.0
 40
1.682091389993235
100
AcDbArc
 50
6.206762783406682
 51
90.94590596658679
  0
POINT
  5
2588
330
2528
100
AcDbEntity
  8
DEFPOINTS
  6
BYBLOCK
 62
     2
100
AcDbPoint
 10
52.47185123399834
 20
50.1630447384517
 30
0.0
  0
ENDBLK
  5
258A
330
2528
100
AcDbEntity
  8
0
100
AcDbBlockEnd
  0
BLOCK
  5
2596
330
258C
100
AcDbEntity
  8
0
100
AcDbBlockBegin
  2
*D57
 70
     1
 10
0.0
 20
0.0
 30
0.0
  3
*D57
  1

  0
LINE
  5
258D
330
258C
100
AcDbEntity
  8
L-2
  6
CONTINUOUS
 62
     4
100
AcDbLine
 10
331.5716665103554
 20
163.2210984896406
 30
0.0
 11
368.7402196486168
 21
163.2210984896406
 31
0.0
  0
LINE
  5
258E
330
258C
100
AcDbEntity
  8
L-2
  6
CONTINUOUS
 62
     4
100
AcDbLine
 10
331.5716665103553
 20
60.42109848964068
 30
0.0
 11
368.7402196486168
 21
60.42109848964066
 31
0.0
  0
LINE
  5
258F
330
258C
100
AcDbEntity
  8
L-2
  6
CONTINUOUS
 62
     4
100
AcDbLine
 10
367.7402196486168
 20
160.7210984896406
 30
0.0
 11
367.7402196486168
 21
62.92109848964067
 31
0.0
  0
INSERT
  5
2590
330
258C
100
AcDbEntity
  8
L-2
  6
CONTINUOUS
 62
     4
100
AcDbBlockReference
  2
_OPEN
 10
367.7402196486168
 20
163.2210984896406
 30
0.0
 41
2.5
 42
2.5
 43
2.5
 50
90.0
  0
INSERT
  5
2591
330
258C
100
AcDbEntity
  8
L-2
  6
CONTINUOUS
 62
     4
100
AcDbBlockReference
  2
_OPEN
 10
367.7402196486168
 20
60.42109848964067
 30
0.0
 41
2.5
 42
2.5
 43
2.5
 50
270.0
  0
MTEXT
  5
2592
330
258C
100
AcDbEntity
  8
L-2
  6
CONTINUOUS
 62
     2
100
AcDbMText
 10
365.6402196486167
 20
111.8210984896407
 30
0.0
 40
3.2
 41
0.0
 71
     5
 72
     1
  1
\A1;102.8
  7
BGS
 11
0.0000000000000001
 21
1.0
 31
0.0
1001
ACAD
1000
MTEXTBEGIN
1070
    73
1070
     1
1070
    44
1040
1.0
1070
    74
1070
     0
1000
MTEXTEND
1000
MTEXTBEGIN
1070
    73
1070
     1
1070
    44
1040
1.0
1070
    74
1070
     0
1000
MTEXTEND
1000
MTEXTBEGIN
1070
    73
1070
     1
1070
    44
1040
1.0
1070
    74
1070
     0
1000
MTEXTEND
  0
POINT
  5
2593
330
258C
100
AcDbEntity
  8
DEFPOINTS
  6
CONTINUOUS
 62
     0
100
AcDbPoint
 10
331.0716665103553
 20
163.2210984896406
 30
0.0
  0
POINT
  5
2594
330
258C
100
AcDbEntity
  8
DEFPOINTS
  6
CONTINUOUS
 62
     0
100
AcDbPoint
 10
331.0716665103553
 20
60.42109848964068
 30
0.0
  0
POINT
  5
2595
330
258C
100
AcDbEntity
  8
DEFPOINTS
  6
CONTINUOUS
 62
     0
100
AcDbPoint
 10
367.7402196486168
 20
60.42109848964067
 30
0.0
  0
ENDBLK
  5
2597
330
258C
100
AcDbEntity
  8
0
100
AcDbBlockEnd
  0
BLOCK
  5
259A
330
2598
100
AcDbEntity
  8
0
100
AcDbBlockBegin
  2
A$C47407C77
 70
     0
 10
0.0
 20
0.0
 30
0.0
  3
A$C47407C77
  1

  0
DIMENSION
  5
2599
330
2598
100
AcDbEntity
  8
L-2
  6
CONTINUOUS
100
AcDbDimension
  2
*D57
 10
36.66855287190149
 20
-0.0000002549863112
 30
0.0
 11
34.56855287190149
 21
51.39999974501378
 31
0.0
 12
-331.0716667767152
 22
-60.42109874462699
 32
0.0
  3
CAD-STD
100
AcDbAlignedDimension
 13
-0.0000002663599616
 23
102.7999997450137
 33
0.0
 14
-0.0000002663600185
 24
-0.0000002549863041
 34
0.0
 50
90.0
100
AcDbRotatedDimension
  0
ENDBLK
  5
259B
330
2598
100
AcDbEntity
  8
0
100
AcDbBlockEnd
  0
BLOCK
  5
2660
330
2600
100
AcDbEntity
  8
0
100
AcDbBlockBegin
  2
A$C27615FA6
 70
     0
 10
0.0
 20
0.0
 30
0.0
  3
A$C27615FA6
  1

  0
LINE
  5
2601
330
2600
100
AcDbEntity
  8
L-1
  6
CONTINUOUS
 62
     2
100
AcDbLine
 10
12.0
 20
23.99999999999994
 30
0.0
 11
12.0
 21
0.9999999999999571
 31
0.0
  0
LINE
  5
2602
330
2600
100
AcDbEntity
  8
L-1
  6
CONTINUOUS
 62
     2
100
AcDbLine
 10
2.0
 20
24.00000000000018
 30
0.0
 11
2.0
 21
1.000000000000184
 31
0.0
  0
LINE
  5
2603
330
2600
100
AcDbEntity
  8
L-1
  6
CONTINUOUS
 62
     2
100
AcDbLine
 10
14.0
 20
49.6
 30
0.0
 11
14.0
 21
-49.60000000000009
 31
0.0
  0
LINE
  5
2604
330
2600
100
AcDbEntity
  8
L-1
  6
CONTINUOUS
 62
     2
100
AcDbLine
 10
0.0
 20
49.59999999999998
 30
0.0
 11
-0.0000000000000568
 21
-49.59999999999998
 31
0.0
  0
LINE
  5
2605
330
2600
100
AcDbEntity
  8
L-1
  6
CONTINUOUS
 62
     2
100
AcDbLine
 10
59.47739695283599
 20
-50.10000000000006
 30
0.0
 11
59.47739695283599
 21
50.09999999999998
 31
0.0
  0
LINE
  5
2606
330
2600
100
AcDbEntity
  8
L-1
  6
CONTINUOUS
 62
     2
100
AcDbLine
 10
62.17739695283592
 20
-48.60000000000006
 30
0.0
 11
62.17739695283592
 21
48.60000000000054
 31
0.0
  0
LINE
  5
2607
330
2600
100
AcDbEntity
  8
L-1
  6
CONTINUOUS
 62
     2
100
AcDbLine
 10
12.0
 20
-1.00000000000004
 30
0.0
 11
12.0
 21
-24.00000000000003
 31
0.0
  0
LINE
  5
2608
330
2600
100
AcDbEntity
  8
L-1
  6
CONTINUOUS
 62
     2
100
AcDbLine
 10
2.0
 20
-0.9999999999998149
 30
0.0
 11
2.0
 21
-24.00000000000015
 31
0.0
  0
LINE
  5
2609
330
2600
100
AcDbEntity
  8
L-1
  6
CONTINUOUS
 62
     2
100
AcDbLine
 10
12.0
 20
-24.00000000000003
 30
0.0
 11
2.0
 21
-24.00000000000015
 31
0.0
  0
LINE
  5
260A
330
2600
100
AcDbEntity
  8
L-1
  6
CONTINUOUS
 62
     2
100
AcDbLine
 10
12.0
 20
-26.00000000000004
 30
0.0
 11
2.0
 21
-26.00000000000015
 31
0.0
  0
LINE
  5
260B
330
2600
100
AcDbEntity
  8
L-1
  6
CONTINUOUS
 62
     2
100
AcDbLine
 10
12.0
 20
-48.90000000000005
 30
0.0
 11
2.0
 21
-48.90000000000011
 31
0.0
  0
LINE
  5
260C
330
2600
100
AcDbEntity
  8
L-1
  6
CONTINUOUS
 62
     2
100
AcDbLine
 10
13.5
 20
-50.10000000000009
 30
0.0
 11
8.5
 21
-50.10000000000004
 31
0.0
  0
TEXT
  5
260D
330
2600
100
AcDbEntity
  8
L-2
  6
CONTINUOUS
 62
     2
100
AcDbText
 10
11.18164095323356
 20
-44.98015508762444
 30
0.0
 40
3.0
  1
>PC<
 50
90.0
  7
BGS
 72
     4
 11
9.681640953233568
 21
-39.40872651619587
 31
0.0
100
AcDbText
  0
LINE
  5
260E
330
2600
100
AcDbEntity
  8
L-1
  6
CONTINUOUS
 62
     2
100
AcDbLine
 10
2.0
 20
-26.00000000000015
 30
0.0
 11
2.0
 21
-48.90000000000011
 31
0.0
  0
LINE
  5
260F
330
2600
100
AcDbEntity
  8
L-1
  6
CONTINUOUS
 62
     2
100
AcDbLine
 10
5.5
 20
-50.09999999999998
 30
0.0
 11
0.4999999999999434
 21
-50.09999999999998
 31
0.0
  0
ARC
  5
2610
330
2600
100
AcDbEntity
  8
L-1
  6
CONTINUOUS
 62
     2
100
AcDbCircle
 10
0.4999999999999434
 20
-49.60000000000004
 30
0.0
 40
0.5
100
AcDbArc
 50
180.0
 51
270.0
  0
LINE
  5
2611
330
2600
100
AcDbEntity
  8
L-1
  6
CONTINUOUS
 62
     2
100
AcDbLine
 10
8.5
 20
-50.10000000000004
 30
0.0
 11
8.5
 21
-50.9000000000001
 31
0.0
  0
LINE
  5
2612
330
2600
100
AcDbEntity
  8
L-1
  6
CONTINUOUS
 62
     2
100
AcDbLine
 10
5.5
 20
-50.09999999999998
 30
0.0
 11
5.5
 21
-50.9000000000001
 31
0.0
  0
ARC
  5
2613
330
2600
100
AcDbEntity
  8
L-1
  6
CONTINUOUS
 62
     2
100
AcDbCircle
 10
5.999999999999943
 20
-50.9000000000001
 30
0.0
 40
0.5
100
AcDbArc
 50
180.0
 51
270.0
  0
LINE
  5
2614
330
2600
100
AcDbEntity
  8
L-1
  6
CONTINUOUS
 62
     2
100
AcDbLine
 10
8.0
 20
-51.40000000000011
 30
0.0
 11
6.0
 21
-51.40000000000007
 31
0.0
  0
ARC
  5
2615
330
2600
100
AcDbEntity
  8
L-1
  6
CONTINUOUS
 62
     2
100
AcDbCircle
 10
7.999999999999943
 20
-50.9000000000001
 30
0.0
 40
0.5
100
AcDbArc
 50
270.0
 51
0.0
  0
LINE
  5
2616
330
2600
100
AcDbEntity
  8
L-1
  6
CONTINUOUS
 62
     2
100
AcDbLine
 10
5.5
 20
-50.09999999999998
 30
0.0
 11
5.5
 21
-48.40000000000005
 31
0.0
  0
LINE
  5
2617
330
2600
100
AcDbEntity
  8
L-1
  6
CONTINUOUS
 62
     2
100
AcDbLine
 10
4.499999999999771
 20
-50.09999999999998
 30
0.0
 11
4.499999999999714
 21
-48.90000000000007
 31
0.0
  0
LINE
  5
2618
330
2600
100
AcDbEntity
  8
L-1
  6
CONTINUOUS
 62
     2
100
AcDbLine
 10
8.5
 20
-50.10000000000009
 30
0.0
 11
8.5
 21
-48.40000000000005
 31
0.0
  0
LINE
  5
2619
330
2600
100
AcDbEntity
  8
L-1
  6
CONTINUOUS
 62
     2
100
AcDbLine
 10
12.0
 20
-26.00000000000004
 30
0.0
 11
12.0
 21
-48.90000000000005
 31
0.0
  0
LINE
  5
261A
330
2600
100
AcDbEntity
  8
L-1
  6
CONTINUOUS
 62
     2
100
AcDbLine
 10
9.499999999999715
 20
-50.10000000000001
 30
0.0
 11
9.499999999999715
 21
-48.90000000000005
 31
0.0
  0
ARC
  5
261B
330
2600
100
AcDbEntity
  8
L-1
  6
CONTINUOUS
 62
     2
100
AcDbCircle
 10
13.49999999999994
 20
-49.60000000000009
 30
0.0
 40
0.5
100
AcDbArc
 50
270.0
 51
0.0
  0
LINE
  5
261C
330
2600
100
AcDbEntity
  8
L-1
  6
CONTINUOUS
 62
     2
100
AcDbLine
 10
12.0
 20
0.9999999999999571
 30
0.0
 11
2.0
 21
1.000000000000184
 31
0.0
  0
LINE
  5
261D
330
2600
100
AcDbEntity
  8
L-1
  6
CONTINUOUS
 62
     2
100
AcDbLine
 10
12.0
 20
-1.00000000000004
 30
0.0
 11
2.0
 21
-0.9999999999998719
 31
0.0
  0
LINE
  5
261E
330
2600
100
AcDbEntity
  8
L-1
  6
CONTINUOUS
 62
     2
100
AcDbLine
 10
59.47739695283599
 20
-48.90000000000007
 30
0.0
 11
52.3773969528354
 21
-48.90000000000013
 31
0.0
  0
LINE
  5
261F
330
2600
100
AcDbEntity
  8
L-1
  6
CONTINUOUS
 62
     2
100
AcDbLine
 10
60.67739695283602
 20
-50.10000000000012
 30
0.0
 11
52.37739695283603
 21
-50.10000000000009
 31
0.0
  0
LINE
  5
2620
330
2600
100
AcDbEntity
  8
L-1
  6
CONTINUOUS
 62
     2
100
AcDbLine
 10
51.47739695283593
 20
-50.90000000000005
 30
0.0
 11
51.47739695283593
 21
-48.98592231616079
 31
0.0
  0
LINE
  5
2621
330
2600
100
AcDbEntity
  8
L-1
  6
CONTINUOUS
 62
     2
100
AcDbLine
 10
52.37739695283603
 20
-50.10000000000004
 30
0.0
 11
52.37739695283603
 21
-51.40000000000007
 31
0.0
  0
LINE
  5
2622
330
2600
100
AcDbEntity
  8
L-1
  6
CONTINUOUS
 62
     2
100
AcDbLine
 10
52.37739695283603
 20
-51.40000000000007
 30
0.0
 11
51.97739695283593
 21
-51.40000000000005
 31
0.0
  0
POINT
  5
2623
330
2600
100
AcDbEntity
  8
DEFPOINTS
  6
BYBLOCK
 62
     2
100
AcDbPoint
 10
51.47739695283593
 20
-51.40000000000007
 30
0.0
  0
ARC
  5
2624
330
2600
100
AcDbEntity
  8
L-1
  6
CONTINUOUS
 62
     2
100
AcDbCircle
 10
51.97739695283593
 20
-50.90000000000005
 30
0.0
 40
0.5
100
AcDbArc
 50
180.0
 51
270.0
  0
LINE
  5
2625
330
2600
100
AcDbEntity
  8
L-1
  6
CONTINUOUS
 62
     2
100
AcDbLine
 10
52.3773969528359
 20
-48.90000000000011
 30
0.0
 11
51.47739695283593
 21
-48.98592231616079
 31
0.0
  0
POINT
  5
2626
330
2600
100
AcDbEntity
  8
DEFPOINTS
  6
BYBLOCK
 62
     2
100
AcDbPoint
 10
52.3773969528359
 20
-48.90000000000011
 30
0.0
  0
POINT
  5
2627
330
2600
100
AcDbEntity
  8
DEFPOINTS
  6
BYBLOCK
 62
     2
100
AcDbPoint
 10
52.37739695283603
 20
-50.10000000000006
 30
0.0
  0
ARC
  5
2628
330
2600
100
AcDbEntity
  8
L-1
  6
CONTINUOUS
 62
     2
100
AcDbCircle
 10
60.67739695283585
 20
-48.60000000000006
 30
0.0
 40
1.5
100
AcDbArc
 50
270.0
 51
0.0
  0
LINE
  5
2629
330
2600
100
AcDbEntity
  8
L-1
  6
CONTINUOUS
 62
     2
100
AcDbLine
 10
12.0
 20
48.89999999999999
 30
0.0
 11
2.0
 21
48.90000000000011
 31
0.0
  0
LINE
  5
262A
330
2600
100
AcDbEntity
  8
L-1
  6
CONTINUOUS
 62
     2
100
AcDbLine
 10
13.5
 20
50.10000000000001
 30
0.0
 11
8.5
 21
50.09999999999998
 31
0.0
  0
LINE
  5
262B
330
2600
100
AcDbEntity
  8
L-1
  6
CONTINUOUS
 62
     2
100
AcDbLine
 10
12.0
 20
25.99999999999996
 30
0.0
 11
2.0
 21
26.00000000000018
 31
0.0
  0
LINE
  5
262C
330
2600
100
AcDbEntity
  8
L-1
  6
CONTINUOUS
 62
     2
100
AcDbLine
 10
12.0
 20
23.99999999999994
 30
0.0
 11
2.0
 21
24.00000000000018
 31
0.0
  0
LINE
  5
262D
330
2600
100
AcDbEntity
  8
L-1
  6
CONTINUOUS
 62
     2
100
AcDbLine
 10
2.0
 20
48.90000000000011
 30
0.0
 11
2.0
 21
26.00000000000018
 31
0.0
  0
LINE
  5
262E
330
2600
100
AcDbEntity
  8
L-1
  6
CONTINUOUS
 62
     2
100
AcDbLine
 10
5.5
 20
50.09999999999998
 30
0.0
 11
0.4999999999999434
 21
50.09999999999998
 31
0.0
  0
ARC
  5
262F
330
2600
100
AcDbEntity
  8
L-1
  6
CONTINUOUS
 62
     2
100
AcDbCircle
 10
0.5
 20
49.59999999999995
 30
0.0
 40
0.5
100
AcDbArc
 50
90.0
 51
180.0
  0
ARC
  5
2630
330
2600
100
AcDbEntity
  8
L-1
  6
CONTINUOUS
 62
     2
100
AcDbCircle
 10
6.0
 20
50.90000000000002
 30
0.0
 40
0.5
100
AcDbArc
 50
90.0
 51
180.0
  0
LINE
  5
2631
330
2600
100
AcDbEntity
  8
L-1
  6
CONTINUOUS
 62
     2
100
AcDbLine
 10
5.5
 20
50.90000000000002
 30
0.0
 11
5.5
 21
48.90000000000005
 31
0.0
  0
LINE
  5
2632
330
2600
100
AcDbEntity
  8
L-1
  6
CONTINUOUS
 62
     2
100
AcDbLine
 10
5.5
 20
48.90000000000007
 30
0.0
 11
5.5
 21
48.40000000000002
 31
0.0
  0
LINE
  5
2633
330
2600
100
AcDbEntity
  8
L-1
  6
CONTINUOUS
 62
     2
100
AcDbLine
 10
4.499999999999771
 20
50.09999999999995
 30
0.0
 11
4.499999999999714
 21
48.90000000000005
 31
0.0
  0
LINE
  5
2634
330
2600
100
AcDbEntity
  8
L-1
  6
CONTINUOUS
 62
     2
100
AcDbLine
 10
8.5
 20
50.09999999999998
 30
0.0
 11
8.5
 21
50.40000000000005
 31
0.0
  0
LINE
  5
2635
330
2600
100
AcDbEntity
  8
L-1
  6
CONTINUOUS
 62
     2
100
AcDbLine
 10
8.5
 20
50.90000000000002
 30
0.0
 11
8.5
 21
48.90000000000002
 31
0.0
  0
LINE
  5
2636
330
2600
100
AcDbEntity
  8
L-1
  6
CONTINUOUS
 62
     2
100
AcDbLine
 10
8.5
 20
48.90000000000002
 30
0.0
 11
8.5
 21
48.40000000000002
 31
0.0
  0
LINE
  5
2637
330
2600
100
AcDbEntity
  8
L-1
  6
CONTINUOUS
 62
     2
100
AcDbLine
 10
8.0
 20
51.40000000000005
 30
0.0
 11
6.0
 21
51.40000000000005
 31
0.0
  0
ARC
  5
2638
330
2600
100
AcDbEntity
  8
L-1
  6
CONTINUOUS
 62
     2
100
AcDbCircle
 10
8.0
 20
50.90000000000002
 30
0.0
 40
0.5
100
AcDbArc
 50
0.0
 51
90.0
  0
LINE
  5
2639
330
2600
100
AcDbEntity
  8
L-1
  6
CONTINUOUS
 62
     2
100
AcDbLine
 10
12.0
 20
48.89999999999997
 30
0.0
 11
12.0
 21
25.99999999999996
 31
0.0
  0
LINE
  5
263A
330
2600
100
AcDbEntity
  8
L-1
  6
CONTINUOUS
 62
     2
100
AcDbLine
 10
9.499999999999715
 20
50.09999999999998
 30
0.0
 11
9.499999999999715
 21
48.90000000000002
 31
0.0
  0
ARC
  5
263B
330
2600
100
AcDbEntity
  8
L-1
  6
CONTINUOUS
 62
     2
100
AcDbCircle
 10
13.5
 20
49.59999999999998
 30
0.0
 40
0.5
100
AcDbArc
 50
0.0
 51
90.0
  0
LINE
  5
263C
330
2600
100
AcDbEntity
  8
L-1
  6
CONTINUOUS
 62
     2
100
AcDbLine
 10
8.50000000000011
 20
88.14204273884511
 30
0.0
 11
9.500000000000113
 21
88.14204273884506
 31
0.0
  0
LINE
  5
263D
330
2600
100
AcDbEntity
  8
L-1
  6
CONTINUOUS
 62
     2
100
AcDbLine
 10
8.50000000000011
 20
87.44204273884504
 30
0.0
 11
14.00000000000011
 21
87.44204273884511
 31
0.0
  0
LINE
  5
263E
330
2600
100
AcDbEntity
  8
L-1
  6
CONTINUOUS
 62
     2
100
AcDbLine
 10
1.500000000000111
 20
90.14204273884507
 30
0.0
 11
12.50000000000011
 21
90.14204273884507
 31
0.0
  0
LINE
  5
263F
330
2600
100
AcDbEntity
  8
L-1
  6
CONTINUOUS
 62
     2
100
AcDbLine
 10
5.500000000000113
 20
88.14204273884506
 30
0.0
 11
5.500000000000113
 21
79.14204273884506
 31
0.0
  0
LINE
  5
2640
330
2600
100
AcDbEntity
  8
L-1
  6
CONTINUOUS
 62
     2
100
AcDbLine
 10
8.50000000000011
 20
88.14204273884511
 30
0.0
 11
8.50000000000011
 21
79.14204273884513
 31
0.0
  0
LINE
  5
2641
330
2600
100
AcDbEntity
  8
L-1
  6
CONTINUOUS
 62
     2
100
AcDbLine
 10
5.500000000000113
 20
79.54204273884498
 30
0.0
 11
8.50000000000011
 21
79.5420427388451
 31
0.0
  0
ARC
  5
2642
330
2600
100
AcDbEntity
  8
L-1
  6
CONTINUOUS
 62
     2
100
AcDbCircle
 10
6.000000000000111
 20
79.14204273884506
 30
0.0
 40
0.5
100
AcDbArc
 50
180.0
 51
270.0
  0
POINT
  5
2643
330
2600
100
AcDbEntity
  8
DEFPOINTS
  6
BYBLOCK
 62
     2
100
AcDbPoint
 10
5.500000000000113
 20
79.14204273884506
 30
0.0
  0
POINT
  5
2644
330
2600
100
AcDbEntity
  8
DEFPOINTS
  6
BYBLOCK
 62
     2
100
AcDbPoint
 10
5.500000000000113
 20
79.14204273884506
 30
0.0
  0
LINE
  5
2645
330
2600
100
AcDbEntity
  8
L-1
  6
CONTINUOUS
 62
     2
100
AcDbLine
 10
6.000000000000111
 20
78.64204273884507
 30
0.0
 11
8.00000000000017
 21
78.64204273884514
 31
0.0
  0
POINT
  5
2646
330
2600
100
AcDbEntity
  8
DEFPOINTS
  6
BYBLOCK
 62
     2
100
AcDbPoint
 10
8.50000000000011
 20
79.14204273884513
 30
0.0
  0
POINT
  5
2647
330
2600
100
AcDbEntity
  8
DEFPOINTS
  6
BYBLOCK
 62
     2
100
AcDbPoint
 10
8.50000000000011
 20
79.14204273884513
 30
0.0
  0
ARC
  5
2648
330
2600
100
AcDbEntity
  8
L-1
  6
CONTINUOUS
 62
     2
100
AcDbCircle
 10
8.00000000000011
 20
79.14204273884513
 30
0.0
 40
0.5
100
AcDbArc
 50
270.0
 51
0.0
  0
LINE
  5
2649
330
2600
100
AcDbEntity
  8
L-1
  6
CONTINUOUS
 62
     2
100
AcDbLine
 10
0.0000000000001137
 20
87.44204273884506
 30
0.0
 11
5.500000000000113
 21
87.44204273884504
 31
0.0
  0
ARC
  5
264A
330
2600
100
AcDbEntity
  8
L-1
  6
CONTINUOUS
 62
     2
100
AcDbCircle
 10
1.500000000000111
 20
88.64204273884507
 30
0.0
 40
1.5
100
AcDbArc
 50
90.0
 51
180.0000000000024
  0
LINE
  5
264B
330
2600
100
AcDbEntity
  8
L-1
  6
CONTINUOUS
 62
     2
100
AcDbLine
 10
0.0000000000001137
 20
87.44204273884506
 30
0.0
 11
0.0000000000001137
 21
88.64204273884501
 31
0.0
  0
LINE
  5
264C
330
2600
100
AcDbEntity
  8
L-1
  6
CONTINUOUS
 62
     2
100
AcDbLine
 10
4.500000000000113
 20
88.14204273884504
 30
0.0
 11
5.500000000000113
 21
88.14204273884506
 31
0.0
  0
LINE
  5
264D
330
2600
100
AcDbEntity
  8
L-1
  6
CONTINUOUS
 62
     2
100
AcDbLine
 10
4.500000000000113
 20
88.14204273884506
 30
0.0
 11
4.500000000000113
 21
87.44204273884506
 31
0.0
  0
POINT
  5
264E
330
2600
100
AcDbEntity
  8
DEFPOINTS
  6
BYBLOCK
 62
     2
100
AcDbPoint
 10
4.500000000000113
 20
87.44204273884504
 30
0.0
  0
LINE
  5
264F
330
2600
100
AcDbEntity
  8
L-1
  6
CONTINUOUS
 62
     2
100
AcDbLine
 10
9.500000000000113
 20
88.14204273884511
 30
0.0
 11
9.500000000000113
 21
87.44204273884511
 31
0.0
  0
POINT
  5
2650
330
2600
100
AcDbEntity
  8
DEFPOINTS
  6
BYBLOCK
 62
     2
100
AcDbPoint
 10
9.500000000000113
 20
87.44204273884506
 30
0.0
  0
ARC
  5
2651
330
2600
100
AcDbEntity
  8
L-1
  6
CONTINUOUS
 62
     2
100
AcDbCircle
 10
12.50000000000011
 20
88.64204273884507
 30
0.0
 40
1.5
100
AcDbArc
 50
0.0
 51
90.0
  0
LINE
  5
2652
330
2600
100
AcDbEntity
  8
L-1
  6
CONTINUOUS
 62
     2
100
AcDbLine
 10
14.00000000000011
 20
87.44204273884511
 30
0.0
 11
14.00000000000011
 21
88.64204273884507
 31
0.0
  0
LINE
  5
2653
330
2600
100
AcDbEntity
  8
L-1
  6
CONTINUOUS
 62
     2
100
AcDbLine
 10
60.53293430724504
 20
50.10000000000004
 30
0.0
 11
52.37739695283603
 21
50.10000000000001
 31
0.0
  0
LINE
  5
2654
330
2600
100
AcDbEntity
  8
L-1
  6
CONTINUOUS
 62
     2
100
AcDbLine
 10
59.47739695283599
 20
48.89999999999999
 30
0.0
 11
52.3773969528354
 21
48.90000000000005
 31
0.0
  0
LINE
  5
2655
330
2600
100
AcDbEntity
  8
L-1
  6
CONTINUOUS
 62
     2
100
AcDbLine
 10
52.37739695283607
 20
50.09999999999998
 30
0.0
 11
52.37739695283607
 21
51.40000000000002
 31
0.0
  0
LINE
  5
2656
330
2600
100
AcDbEntity
  8
L-1
  6
CONTINUOUS
 62
     2
100
AcDbLine
 10
51.47739695283599
 20
50.89999999999999
 30
0.0
 11
51.47739695283599
 21
48.98592231616074
 31
0.0
  0
POINT
  5
2657
330
2600
100
AcDbEntity
  8
DEFPOINTS
  6
BYBLOCK
 62
     2
100
AcDbPoint
 10
52.37739695283607
 20
50.10000000000001
 30
0.0
  0
POINT
  5
2658
330
2600
100
AcDbEntity
  8
DEFPOINTS
  6
BYBLOCK
 62
     2
100
AcDbPoint
 10
52.37739695283597
 20
48.90000000000005
 30
0.0
  0
LINE
  5
2659
330
2600
100
AcDbEntity
  8
L-1
  6
CONTINUOUS
 62
     2
100
AcDbLine
 10
52.37739695283597
 20
48.90000000000005
 30
0.0
 11
51.47739695283599
 21
48.98592231616074
 31
0.0
  0
LINE
  5
265A
330
2600
100
AcDbEntity
  8
L-1
  6
CONTINUOUS
 62
     2
100
AcDbLine
 10
52.37739695283607
 20
51.40000000000002
 30
0.0
 11
51.97739695283599
 21
51.39999999999999
 31
0.0
  0
POINT
  5
265B
330
2600
100
AcDbEntity
  8
DEFPOINTS
  6
BYBLOCK
 62
     2
100
AcDbPoint
 10
51.47739695283599
 20
51.40000000000002
 30
0.0
  0
ARC
  5
265C
330
2600
100
AcDbEntity
  8
L-1
  6
CONTINUOUS
 62
     2
100
AcDbCircle
 10
51.97739695283599
 20
50.89999999999999
 30
0.0
 40
0.5
100
AcDbArc
 50
90.0
 51
180.0
  0
POINT
  5
265D
330
2600
100
AcDbEntity
  8
DEFPOINTS
  6
BYBLOCK
 62
     2
100
AcDbPoint
 10
55.27739695283514
 20
48.90000000000002
 30
0.0
  0
ARC
  5
265E
330
2600
100
AcDbEntity
  8
L-1
  6
CONTINUOUS
 62
     2
100
AcDbCircle
 10
60.5051656300435
 20
48.41813783416839
 30
0.0
 40
1.682091389993235
100
AcDbArc
 50
6.206762783406682
 51
90.94590596658679
  0
POINT
  5
265F
330
2600
100
AcDbEntity
  8
DEFPOINTS
  6
BYBLOCK
 62
     2
100
AcDbPoint
 10
59.47739695283599
 20
50.10000000000004
 30
0.0
  0
ENDBLK
  5
2661
330
2600
100
AcDbEntity
  8
0
100
AcDbBlockEnd
  0
BLOCK
  5
266E
330
2664
100
AcDbEntity
  8
0
100
AcDbBlockBegin
  2
*D60
 70
     1
 10
0.0
 20
0.0
 30
0.0
  3
*D60
  1

  0
LINE
  5
272A
330
2664
100
AcDbEntity
  8
L-2
  6
CONTINUOUS
 62
     4
100
AcDbLine
 10
114.1453578418599
 20
181.469468251532
 30
0.0
 11
147.1280711920781
 21
181.469468251532
 31
0.0
  0
LINE
  5
272B
330
2664
100
AcDbEntity
  8
L-2
  6
CONTINUOUS
 62
     4
100
AcDbLine
 10
114.1453578418599
 20
78.66946825153195
 30
0.0
 11
147.1280711920781
 21
78.66946825153195
 31
0.0
  0
LINE
  5
272C
330
2664
100
AcDbEntity
  8
L-2
  6
CONTINUOUS
 62
     4
100
AcDbLine
 10
146.1280711920784
 20
178.9694682515319
 30
0.0
 11
146.1280711920784
 21
81.16946825153197
 31
0.0
  0
INSERT
  5
272D
330
2664
100
AcDbEntity
  8
L-2
  6
CONTINUOUS
 62
     4
100
AcDbBlockReference
  2
_OPEN
 10
146.1280711920784
 20
181.469468251532
 30
0.0
 41
2.5
 42
2.5
 43
2.5
 50
90.0
  0
INSERT
  5
272E
330
2664
100
AcDbEntity
  8
L-2
  6
CONTINUOUS
 62
     4
100
AcDbBlockReference
  2
_OPEN
 10
146.1280711920784
 20
78.66946825153195
 30
0.0
 41
2.5
 42
2.5
 43
2.5
 50
270.0
  0
MTEXT
  5
272F
330
2664
100
AcDbEntity
  8
L-2
  6
CONTINUOUS
 62
     2
100
AcDbMText
 10
144.0280711920783
 20
130.069468251532
 30
0.0
 40
3.2
 41
0.0
 71
     5
 72
     1
  1
\A1;102.8
  7
MSゴシック
 11
0.0000000000000001
 21
1.0
 31
0.0
1001
ACAD
1000
MTEXTBEGIN
1070
    73
1070
     1
1070
    44
1040
1.0
1070
    74
1070
     0
1000
MTEXTEND
1000
MTEXTBEGIN
1070
    73
1070
     1
1070
    44
1040
1.0
1070
    74
1070
     0
1000
MTEXTEND
1000
MTEXTBEGIN
1070
    73
1070
     1
1070
    44
1040
1.0
1070
    74
1070
     0
1000
MTEXTEND
  0
POINT
  5
2730
330
2664
100
AcDbEntity
  8
DEFPOINTS
  6
CONTINUOUS
 62
     0
100
AcDbPoint
 10
113.6453578418599
 20
181.469468251532
 30
0.0
  0
POINT
  5
2731
330
2664
100
AcDbEntity
  8
DEFPOINTS
  6
CONTINUOUS
 62
     0
100
AcDbPoint
 10
113.6453578418599
 20
78.66946825153195
 30
0.0
  0
POINT
  5
2732
330
2664
100
AcDbEntity
  8
DEFPOINTS
  6
CONTINUOUS
 62
     0
100
AcDbPoint
 10
146.1280711920784
 20
78.66946825153195
 30
0.0
  0
ENDBLK
  5
266F
330
2664
100
AcDbEntity
  8
0
100
AcDbBlockEnd
  0
BLOCK
  5
267B
330
2671
100
AcDbEntity
  8
0
100
AcDbBlockBegin
  2
*D61
 70
     1
 10
0.0
 20
0.0
 30
0.0
  3
*D61
  1

  0
LINE
  5
2721
330
2671
100
AcDbEntity
  8
L-2
  6
CONTINUOUS
 62
     4
100
AcDbLine
 10
122.3008951962687
 20
180.1694682515319
 30
0.0
 11
134.6237756655459
 21
180.1694682515319
 31
0.0
  0
LINE
  5
2722
330
2671
100
AcDbEntity
  8
L-2
  6
CONTINUOUS
 62
     4
100
AcDbLine
 10
122.3008951962686
 20
79.96946825153192
 30
0.0
 11
134.6237756655459
 21
79.96946825153192
 31
0.0
  0
LINE
  5
2723
330
2671
100
AcDbEntity
  8
L-2
  6
CONTINUOUS
 62
     4
100
AcDbLine
 10
133.6237756655459
 20
177.6694682515318
 30
0.0
 11
133.6237756655459
 21
82.46946825153193
 31
0.0
  0
INSERT
  5
2724
330
2671
100
AcDbEntity
  8
L-2
  6
CONTINUOUS
 62
     4
100
AcDbBlockReference
  2
_OPEN
 10
133.6237756655459
 20
180.1694682515319
 30
0.0
 41
2.5
 42
2.5
 43
2.5
 50
90.0
  0
INSERT
  5
2725
330
2671
100
AcDbEntity
  8
L-2
  6
CONTINUOUS
 62
     4
100
AcDbBlockReference
  2
_OPEN
 10
133.6237756655459
 20
79.96946825153192
 30
0.0
 41
2.5
 42
2.5
 43
2.5
 50
270.0
  0
MTEXT
  5
2726
330
2671
100
AcDbEntity
  8
L-2
  6
CONTINUOUS
 62
     2
100
AcDbMText
 10
131.5237756655459
 20
130.069468251532
 30
0.0
 40
3.2
 41
0.0
 71
     5
 72
     1
  1
\A1;100.2
  7
MSゴシック
 11
0.0000000000000001
 21
1.0
 31
0.0
1001
ACAD
1000
MTEXTBEGIN
1070
    73
1070
     1
1070
    44
1040
1.0
1070
    74
1070
     0
1000
MTEXTEND
1000
MTEXTBEGIN
1070
    73
1070
     1
1070
    44
1040
1.0
1070
    74
1070
     0
1000
MTEXTEND
1000
MTEXTBEGIN
1070
    73
1070
     1
1070
    44
1040
1.0
1070
    74
1070
     0
1000
MTEXTEND
  0
POINT
  5
2727
330
2671
100
AcDbEntity
  8
DEFPOINTS
  6
CONTINUOUS
 62
     0
100
AcDbPoint
 10
121.8008951962689
 20
180.1694682515319
 30
0.0
  0
POINT
  5
2728
330
2671
100
AcDbEntity
  8
DEFPOINTS
  6
CONTINUOUS
 62
     0
100
AcDbPoint
 10
121.8008951962685
 20
79.96946825153192
 30
0.0
  0
POINT
  5
2729
330
2671
100
AcDbEntity
  8
DEFPOINTS
  6
CONTINUOUS
 62
     0
100
AcDbPoint
 10
133.6237756655459
 20
79.96946825153192
 30
0.0
  0
ENDBLK
  5
267C
330
2671
100
AcDbEntity
  8
0
100
AcDbBlockEnd
  0
BLOCK
  5
2688
330
267E
100
AcDbEntity
  8
0
100
AcDbBlockBegin
  2
*D62
 70
     1
 10
0.0
 20
0.0
 30
0.0
  3
*D62
  1

  0
LINE
  5
2718
330
267E
100
AcDbEntity
  8
L-2
  6
CONTINUOUS
 62
     4
100
AcDbLine
 10
62.76796088902393
 20
178.9694682515321
 30
0.0
 11
51.35262817911691
 21
178.9694682515321
 31
0.0
  0
LINE
  5
2719
330
267E
100
AcDbEntity
  8
L-2
  6
CONTINUOUS
 62
     4
100
AcDbLine
 10
62.76796088902393
 20
156.069468251532
 30
0.0
 11
51.3526281791169
 21
156.069468251532
 31
0.0
  0
LINE
  5
271A
330
267E
100
AcDbEntity
  8
L-2
  6
CONTINUOUS
 62
     4
100
AcDbLine
 10
52.3526281791169
 20
176.4694682515321
 30
0.0
 11
52.3526281791169
 21
158.5694682515321
 31
0.0
  0
INSERT
  5
271B
330
267E
100
AcDbEntity
  8
L-2
  6
CONTINUOUS
 62
     4
100
AcDbBlockReference
  2
_OPEN
 10
52.3526281791169
 20
178.9694682515321
 30
0.0
 41
2.5
 42
2.5
 43
2.5
 50
90.0
  0
INSERT
  5
271C
330
267E
100
AcDbEntity
  8
L-2
  6
CONTINUOUS
 62
     4
100
AcDbBlockReference
  2
_OPEN
 10
52.3526281791169
 20
156.069468251532
 30
0.0
 41
2.5
 42
2.5
 43
2.5
 50
270.0
  0
MTEXT
  5
271D
330
267E
100
AcDbEntity
  8
L-2
  6
CONTINUOUS
 62
     2
100
AcDbMText
 10
50.25262817911687
 20
167.519468251532
 30
0.0
 40
3.2
 41
0.0
 71
     5
 72
     1
  1
\A1;22.9
  7
MSゴシック
 11
0.0000000000000001
 21
1.0
 31
0.0
1001
ACAD
1000
MTEXTBEGIN
1070
    73
1070
     1
1070
    44
1040
1.0
1070
    74
1070
     0
1000
MTEXTEND
1000
MTEXTBEGIN
1070
    73
1070
     1
1070
    44
1040
1.0
1070
    74
1070
     0
1000
MTEXTEND
1000
MTEXTBEGIN
1070
    73
1070
     1
1070
    44
1040
1.0
1070
    74
1070
     0
1000
MTEXTEND
  0
POINT
  5
271E
330
267E
100
AcDbEntity
  8
DEFPOINTS
  6
CONTINUOUS
 62
     0
100
AcDbPoint
 10
63.26796088902392
 20
178.9694682515321
 30
0.0
  0
POINT
  5
271F
330
267E
100
AcDbEntity
  8
DEFPOINTS
  6
CONTINUOUS
 62
     0
100
AcDbPoint
 10
63.26796088902392
 20
156.069468251532
 30
0.0
  0
POINT
  5
2720
330
267E
100
AcDbEntity
  8
DEFPOINTS
  6
CONTINUOUS
 62
     0
100
AcDbPoint
 10
52.3526281791169
 20
156.069468251532
 30
0.0
  0
ENDBLK
  5
2689
330
267E
100
AcDbEntity
  8
0
100
AcDbBlockEnd
  0
BLOCK
  5
2695
330
268B
100
AcDbEntity
  8
0
100
AcDbBlockBegin
  2
*D63
 70
     1
 10
0.0
 20
0.0
 30
0.0
  3
*D63
  1

  0
LINE
  5
26EB
330
268B
100
AcDbEntity
  8
L-2
  6
CONTINUOUS
 62
     4
100
AcDbLine
 10
63.26796088902392
 20
80.66946825153193
 30
0.0
 11
63.26796088902392
 21
69.3744561725947
 31
0.0
  0
LINE
  5
26EC
330
268B
100
AcDbEntity
  8
L-2
  6
CONTINUOUS
 62
     4
100
AcDbLine
 10
73.26796088902392
 20
80.66946825153193
 30
0.0
 11
73.26796088902392
 21
69.3744561725947
 31
0.0
  0
LINE
  5
26ED
330
268B
100
AcDbEntity
  8
L-2
  6
CONTINUOUS
 62
     4
100
AcDbLine
 10
65.76796088902392
 20
70.37445617259471
 30
0.0
 11
70.76796088902392
 21
70.37445617259471
 31
0.0
  0
INSERT
  5
26EE
330
268B
100
AcDbEntity
  8
L-2
  6
CONTINUOUS
 62
     4
100
AcDbBlockReference
  2
_OPEN
 10
63.26796088902392
 20
70.37445617259471
 30
0.0
 41
2.5
 42
2.5
 43
2.5
 50
180.0
  0
INSERT
  5
26EF
330
268B
100
AcDbEntity
  8
L-2
  6
CONTINUOUS
 62
     4
100
AcDbBlockReference
  2
_OPEN
 10
73.26796088902392
 20
70.37445617259471
 30
0.0
 41
2.5
 42
2.5
 43
2.5
  0
MTEXT
  5
26F0
330
268B
100
AcDbEntity
  8
L-2
  6
CONTINUOUS
 62
     2
100
AcDbMText
 10
68.26796088902392
 20
72.4744561725947
 30
0.0
 40
3.2
 41
0.0
 71
     5
 72
     1
  1
\A1;10
  7
MSゴシック
1001
ACAD
1000
MTEXTBEGIN
1070
    73
1070
     1
1070
    44
1040
1.0
1070
    74
1070
     0
1000
MTEXTEND
1000
MTEXTBEGIN
1070
    73
1070
     1
1070
    44
1040
1.0
1070
    74
1070
     0
1000
MTEXTEND
1000
MTEXTBEGIN
1070
    73
1070
     1
1070
    44
1040
1.0
1070
    74
1070
     0
1000
MTEXTEND
  0
POINT
  5
26F1
330
268B
100
AcDbEntity
  8
DEFPOINTS
  6
CONTINUOUS
 62
     0
100
AcDbPoint
 10
63.26796088902392
 20
81.16946825153194
 30
0.0
  0
POINT
  5
26F2
330
268B
100
AcDbEntity
  8
DEFPOINTS
  6
CONTINUOUS
 62
     0
100
AcDbPoint
 10
73.26796088902392
 20
81.16946825153194
 30
0.0
  0
POINT
  5
26F3
330
268B
100
AcDbEntity
  8
DEFPOINTS
  6
CONTINUOUS
 62
     0
100
AcDbPoint
 10
73.26796088902392
 20
70.37445617259471
 30
0.0
  0
ENDBLK
  5
2696
330
268B
100
AcDbEntity
  8
0
100
AcDbBlockEnd
  0
BLOCK
  5
26A2
330
2698
100
AcDbEntity
  8
0
100
AcDbBlockBegin
  2
*D64
 70
     1
 10
0.0
 20
0.0
 30
0.0
  3
*D64
  1

  0
LINE
  5
26E2
330
2698
100
AcDbEntity
  8
L-2
  6
CONTINUOUS
 62
     4
100
AcDbLine
 10
61.26796088902384
 20
79.96946825153206
 30
0.0
 11
61.26796088902384
 21
61.19633752301479
 31
0.0
  0
LINE
  5
26E3
330
2698
100
AcDbEntity
  8
L-2
  6
CONTINUOUS
 62
     4
100
AcDbLine
 10
75.26796088902395
 20
79.96946825153206
 30
0.0
 11
75.26796088902395
 21
61.19633752301479
 31
0.0
  0
LINE
  5
26E4
330
2698
100
AcDbEntity
  8
L-2
  6
CONTINUOUS
 62
     4
100
AcDbLine
 10
63.76796088902384
 20
62.19633752301479
 30
0.0
 11
72.76796088902395
 21
62.19633752301479
 31
0.0
  0
INSERT
  5
26E5
330
2698
100
AcDbEntity
  8
L-2
  6
CONTINUOUS
 62
     4
100
AcDbBlockReference
  2
_OPEN
 10
61.26796088902384
 20
62.19633752301479
 30
0.0
 41
2.5
 42
2.5
 43
2.5
 50
180.0
  0
INSERT
  5
26E6
330
2698
100
AcDbEntity
  8
L-2
  6
CONTINUOUS
 62
     4
100
AcDbBlockReference
  2
_OPEN
 10
75.26796088902395
 20
62.19633752301479
 30
0.0
 41
2.5
 42
2.5
 43
2.5
  0
MTEXT
  5
26E7
330
2698
100
AcDbEntity
  8
L-2
  6
CONTINUOUS
 62
     2
100
AcDbMText
 10
68.2679608890239
 20
64.29633752301478
 30
0.0
 40
3.2
 41
0.0
 71
     5
 72
     1
  1
\A1;14
  7
MSゴシック
1001
ACAD
1000
MTEXTBEGIN
1070
    73
1070
     1
1070
    44
1040
1.0
1070
    74
1070
     0
1000
MTEXTEND
1000
MTEXTBEGIN
1070
    73
1070
     1
1070
    44
1040
1.0
1070
    74
1070
     0
1000
MTEXTEND
1000
MTEXTBEGIN
1070
    73
1070
     1
1070
    44
1040
1.0
1070
    74
1070
     0
1000
MTEXTEND
  0
POINT
  5
26E8
330
2698
100
AcDbEntity
  8
DEFPOINTS
  6
CONTINUOUS
 62
     0
100
AcDbPoint
 10
61.26796088902384
 20
80.46946825153206
 30
0.0
  0
POINT
  5
26E9
330
2698
100
AcDbEntity
  8
DEFPOINTS
  6
CONTINUOUS
 62
     0
100
AcDbPoint
 10
75.26796088902395
 20
80.46946825153206
 30
0.0
  0
POINT
  5
26EA
330
2698
100
AcDbEntity
  8
DEFPOINTS
  6
CONTINUOUS
 62
     0
100
AcDbPoint
 10
75.26796088902395
 20
62.19633752301479
 30
0.0
  0
ENDBLK
  5
26A3
330
2698
100
AcDbEntity
  8
0
100
AcDbBlockEnd
  0
BLOCK
  5
26B5
330
26AB
100
AcDbEntity
  8
0
100
AcDbBlockBegin
  2
*D65
 70
     1
 10
0.0
 20
0.0
 30
0.0
  3
*D65
  1

  0
LINE
  5
26F4
330
26AB
100
AcDbEntity
  8
L-2
  6
CONTINUOUS
 62
     4
100
AcDbLine
 10
112.7453578418597
 20
78.66946825153198
 30
0.0
 11
112.7453578418597
 21
61.19633752301479
 31
0.0
  0
LINE
  5
26F5
330
26AB
100
AcDbEntity
  8
L-2
  6
CONTINUOUS
 62
     4
100
AcDbLine
 10
123.4453578418598
 20
80.96946825153198
 30
0.0
 11
123.4453578418598
 21
61.19633752301479
 31
0.0
  0
LINE
  5
26F6
330
26AB
100
AcDbEntity
  8
L-2
  6
CONTINUOUS
 62
     4
100
AcDbLine
 10
115.2453578418598
 20
62.19633752301479
 30
0.0
 11
120.9453578418598
 21
62.19633752301479
 31
0.0
  0
INSERT
  5
26F7
330
26AB
100
AcDbEntity
  8
L-2
  6
CONTINUOUS
 62
     4
100
AcDbBlockReference
  2
_OPEN
 10
112.7453578418597
 20
62.19633752301479
 30
0.0
 41
2.5
 42
2.5
 43
2.5
 50
180.0
  0
INSERT
  5
26F8
330
26AB
100
AcDbEntity
  8
L-2
  6
CONTINUOUS
 62
     4
100
AcDbBlockReference
  2
_OPEN
 10
123.4453578418598
 20
62.19633752301479
 30
0.0
 41
2.5
 42
2.5
 43
2.5
  0
MTEXT
  5
26F9
330
26AB
100
AcDbEntity
  8
L-2
  6
CONTINUOUS
 62
     2
100
AcDbMText
 10
118.0953578418598
 20
64.29633752301478
 30
0.0
 40
3.2
 41
0.0
 71
     5
 72
     1
  1
\A1;10.7
  7
MSゴシック
1001
ACAD
1000
MTEXTBEGIN
1070
    73
1070
     1
1070
    44
1040
1.0
1070
    74
1070
     0
1000
MTEXTEND
1000
MTEXTBEGIN
1070
    73
1070
     1
1070
    44
1040
1.0
1070
    74
1070
     0
1000
MTEXTEND
1000
MTEXTBEGIN
1070
    73
1070
     1
1070
    44
1040
1.0
1070
    74
1070
     0
1000
MTEXTEND
  0
POINT
  5
26FA
330
26AB
100
AcDbEntity
  8
DEFPOINTS
  6
CONTINUOUS
 62
     0
100
AcDbPoint
 10
112.7453578418597
 20
79.169468251532
 30
0.0
  0
POINT
  5
26FB
330
26AB
100
AcDbEntity
  8
DEFPOINTS
  6
CONTINUOUS
 62
     0
100
AcDbPoint
 10
123.4453578418598
 20
81.46946825153198
 30
0.0
  0
POINT
  5
26FC
330
26AB
100
AcDbEntity
  8
DEFPOINTS
  6
CONTINUOUS
 62
     0
100
AcDbPoint
 10
123.4453578418598
 20
62.19633752301479
 30
0.0
  0
ENDBLK
  5
26B6
330
26AB
100
AcDbEntity
  8
0
100
AcDbBlockEnd
  0
BLOCK
  5
26C6
330
26BC
100
AcDbEntity
  8
0
100
AcDbBlockBegin
  2
*D66
 70
     1
 10
0.0
 20
0.0
 30
0.0
  3
*D66
  1

  0
LINE
  5
26FD
330
26BC
100
AcDbEntity
  8
L-2
  6
CONTINUOUS
 62
     4
100
AcDbLine
 10
62.7679608890239
 20
154.069468251532
 30
0.0
 11
51.3526281791169
 21
154.069468251532
 31
0.0
  0
LINE
  5
26FE
330
26BC
100
AcDbEntity
  8
L-2
  6
CONTINUOUS
 62
     4
100
AcDbLine
 10
62.76796088902337
 20
131.0694682515322
 30
0.0
 11
51.35262817911689
 21
131.0694682515322
 31
0.0
  0
LINE
  5
26FF
330
26BC
100
AcDbEntity
  8
L-2
  6
CONTINUOUS
 62
     4
100
AcDbLine
 10
52.3526281791169
 20
151.5694682515321
 30
0.0
 11
52.35262817911689
 21
133.5694682515322
 31
0.0
  0
INSERT
  5
2700
330
26BC
100
AcDbEntity
  8
L-2
  6
CONTINUOUS
 62
     4
100
AcDbBlockReference
  2
_OPEN
 10
52.3526281791169
 20
154.069468251532
 30
0.0
 41
2.5
 42
2.5
 43
2.5
 50
90.0
  0
INSERT
  5
2701
330
26BC
100
AcDbEntity
  8
L-2
  6
CONTINUOUS
 62
     4
100
AcDbBlockReference
  2
_OPEN
 10
52.35262817911689
 20
131.0694682515322
 30
0.0
 41
2.5
 42
2.5
 43
2.5
 50
270.0
  0
MTEXT
  5
2702
330
26BC
100
AcDbEntity
  8
L-2
  6
CONTINUOUS
 62
     2
100
AcDbMText
 10
50.25262817911687
 20
142.569468251532
 30
0.0
 40
3.2
 41
0.0
 71
     5
 72
     1
  1
\A1;23
  7
MSゴシック
 11
0.0000000000000001
 21
1.0
 31
0.0
1001
ACAD
1000
MTEXTBEGIN
1070
    73
1070
     1
1070
    44
1040
1.0
1070
    74
1070
     0
1000
MTEXTEND
1000
MTEXTBEGIN
1070
    73
1070
     1
1070
    44
1040
1.0
1070
    74
1070
     0
1000
MTEXTEND
1000
MTEXTBEGIN
1070
    73
1070
     1
1070
    44
1040
1.0
1070
    74
1070
     0
1000
MTEXTEND
  0
POINT
  5
2703
330
26BC
100
AcDbEntity
  8
DEFPOINTS
  6
CONTINUOUS
 62
     0
100
AcDbPoint
 10
63.2679608890239
 20
154.069468251532
 30
0.0
  0
POINT
  5
2704
330
26BC
100
AcDbEntity
  8
DEFPOINTS
  6
CONTINUOUS
 62
     0
100
AcDbPoint
 10
63.26796088902337
 20
131.0694682515322
 30
0.0
  0
POINT
  5
2705
330
26BC
100
AcDbEntity
  8
DEFPOINTS
  6
CONTINUOUS
 62
     0
100
AcDbPoint
 10
52.35262817911689
 20
131.0694682515322
 30
0.0
  0
ENDBLK
  5
26C7
330
26BC
100
AcDbEntity
  8
0
100
AcDbBlockEnd
  0
BLOCK
  5
26D3
330
26C9
100
AcDbEntity
  8
0
100
AcDbBlockBegin
  2
*D67
 70
     1
 10
0.0
 20
0.0
 30
0.0
  3
*D67
  1

  0
LINE
  5
270F
330
26C9
100
AcDbEntity
  8
L-2
  6
CONTINUOUS
 62
     4
100
AcDbLine
 10
62.7679608890239
 20
129.069468251532
 30
0.0
 11
51.35262817911689
 21
129.069468251532
 31
0.0
  0
LINE
  5
2710
330
26C9
100
AcDbEntity
  8
L-2
  6
CONTINUOUS
 62
     4
100
AcDbLine
 10
62.76796088902415
 20
106.0694682515316
 30
0.0
 11
51.35262817911687
 21
106.0694682515316
 31
0.0
  0
LINE
  5
2711
330
26C9
100
AcDbEntity
  8
L-2
  6
CONTINUOUS
 62
     4
100
AcDbLine
 10
52.35262817911689
 20
126.5694682515321
 30
0.0
 11
52.35262817911689
 21
108.5694682515317
 31
0.0
  0
INSERT
  5
2712
330
26C9
100
AcDbEntity
  8
L-2
  6
CONTINUOUS
 62
     4
100
AcDbBlockReference
  2
_OPEN
 10
52.35262817911689
 20
129.069468251532
 30
0.0
 41
2.5
 42
2.5
 43
2.5
 50
90.0
  0
INSERT
  5
2713
330
26C9
100
AcDbEntity
  8
L-2
  6
CONTINUOUS
 62
     4
100
AcDbBlockReference
  2
_OPEN
 10
52.35262817911689
 20
106.0694682515316
 30
0.0
 41
2.5
 42
2.5
 43
2.5
 50
270.0
  0
MTEXT
  5
2714
330
26C9
100
AcDbEntity
  8
L-2
  6
CONTINUOUS
 62
     2
100
AcDbMText
 10
50.25262817911687
 20
117.569468251532
 30
0.0
 40
3.2
 41
0.0
 71
     5
 72
     1
  1
\A1;23
  7
MSゴシック
 11
0.0000000000000001
 21
1.0
 31
0.0
1001
ACAD
1000
MTEXTBEGIN
1070
    73
1070
     1
1070
    44
1040
1.0
1070
    74
1070
     0
1000
MTEXTEND
1000
MTEXTBEGIN
1070
    73
1070
     1
1070
    44
1040
1.0
1070
    74
1070
     0
1000
MTEXTEND
1000
MTEXTBEGIN
1070
    73
1070
     1
1070
    44
1040
1.0
1070
    74
1070
     0
1000
MTEXTEND
  0
POINT
  5
2715
330
26C9
100
AcDbEntity
  8
DEFPOINTS
  6
CONTINUOUS
 62
     0
100
AcDbPoint
 10
63.2679608890239
 20
129.069468251532
 30
0.0
  0
POINT
  5
2716
330
26C9
100
AcDbEntity
  8
DEFPOINTS
  6
CONTINUOUS
 62
     0
100
AcDbPoint
 10
63.26796088902415
 20
106.0694682515316
 30
0.0
  0
POINT
  5
2717
330
26C9
100
AcDbEntity
  8
DEFPOINTS
  6
CONTINUOUS
 62
     0
100
AcDbPoint
 10
52.35262817911689
 20
106.0694682515316
 30
0.0
  0
ENDBLK
  5
26D4
330
26C9
100
AcDbEntity
  8
0
100
AcDbBlockEnd
  0
BLOCK
  5
26E0
330
26D6
100
AcDbEntity
  8
0
100
AcDbBlockBegin
  2
*D68
 70
     1
 10
0.0
 20
0.0
 30
0.0
  3
*D68
  1

  0
LINE
  5
2706
330
26D6
100
AcDbEntity
  8
L-2
  6
CONTINUOUS
 62
     4
100
AcDbLine
 10
62.7679608890239
 20
104.0694682515316
 30
0.0
 11
51.35262817911687
 21
104.0694682515316
 31
0.0
  0
LINE
  5
2707
330
26D6
100
AcDbEntity
  8
L-2
  6
CONTINUOUS
 62
     4
100
AcDbLine
 10
62.76796088902401
 20
81.16946825153194
 30
0.0
 11
51.35262817911687
 21
81.16946825153194
 31
0.0
  0
LINE
  5
2708
330
26D6
100
AcDbEntity
  8
L-2
  6
CONTINUOUS
 62
     4
100
AcDbLine
 10
52.35262817911689
 20
101.5694682515317
 30
0.0
 11
52.35262817911689
 21
83.66946825153194
 31
0.0
  0
INSERT
  5
2709
330
26D6
100
AcDbEntity
  8
L-2
  6
CONTINUOUS
 62
     4
100
AcDbBlockReference
  2
_OPEN
 10
52.35262817911689
 20
104.0694682515316
 30
0.0
 41
2.5
 42
2.5
 43
2.5
 50
90.0
  0
INSERT
  5
270A
330
26D6
100
AcDbEntity
  8
L-2
  6
CONTINUOUS
 62
     4
100
AcDbBlockReference
  2
_OPEN
 10
52.35262817911689
 20
81.16946825153194
 30
0.0
 41
2.5
 42
2.5
 43
2.5
 50
270.0
  0
MTEXT
  5
270B
330
26D6
100
AcDbEntity
  8
L-2
  6
CONTINUOUS
 62
     2
100
AcDbMText
 10
50.25262817911687
 20
92.61946825153193
 30
0.0
 40
3.2
 41
0.0
 71
     5
 72
     1
  1
\A1;22.9
  7
MSゴシック
 11
0.0000000000000001
 21
1.0
 31
0.0
1001
ACAD
1000
MTEXTBEGIN
1070
    73
1070
     1
1070
    44
1040
1.0
1070
    74
1070
     0
1000
MTEXTEND
1000
MTEXTBEGIN
1070
    73
1070
     1
1070
    44
1040
1.0
1070
    74
1070
     0
1000
MTEXTEND
1000
MTEXTBEGIN
1070
    73
1070
     1
1070
    44
1040
1.0
1070
    74
1070
     0
1000
MTEXTEND
  0
POINT
  5
270C
330
26D6
100
AcDbEntity
  8
DEFPOINTS
  6
CONTINUOUS
 62
     0
100
AcDbPoint
 10
63.2679608890239
 20
104.0694682515316
 30
0.0
  0
POINT
  5
270D
330
26D6
100
AcDbEntity
  8
DEFPOINTS
  6
CONTINUOUS
 62
     0
100
AcDbPoint
 10
63.26796088902401
 20
81.16946825153194
 30
0.0
  0
POINT
  5
270E
330
26D6
100
AcDbEntity
  8
DEFPOINTS
  6
CONTINUOUS
 62
     0
100
AcDbPoint
 10
52.35262817911689
 20
81.16946825153194
 30
0.0
  0
ENDBLK
  5
26E1
330
26D6
100
AcDbEntity
  8
0
100
AcDbBlockEnd
  0
BLOCK
  5
2756
330
2740
100
AcDbEntity
  8
0
100
AcDbBlockBegin
  2
*X69
 70
     1
 10
0.0
 20
0.0
 30
0.0
  3
*X69
  1

  0
LINE
  5
2741
330
2740
100
AcDbEntity
  8
0
  6
CONTINUOUS
 62
     0
100
AcDbLine
 10
113.2116842613497
 20
105.8506851188203
 30
0.0
 11
113.2548076256225
 21
105.8075617545475
 31
0.0
  0
LINE
  5
2742
330
2740
100
AcDbEntity
  8
0
  6
CONTINUOUS
 62
     0
100
AcDbLine
 10
113.2116842613497
 20
106.2996979248737
 30
0.0
 11
113.9803634650444
 21
105.531018721179
 31
0.0
  0
LINE
  5
2743
330
2740
100
AcDbEntity
  8
0
  6
CONTINUOUS
 62
     0
100
AcDbLine
 10
113.2116842613497
 20
106.748710730927
 30
0.0
 11
114.3815948812985
 21
105.5788001109782
 31
0.0
  0
LINE
  5
2744
330
2740
100
AcDbEntity
  8
0
  6
CONTINUOUS
 62
     0
100
AcDbLine
 10
113.2116842613499
 20
107.1977235369804
 30
0.0
 11
114.6116842613496
 21
105.7977235369807
 31
0.0
  0
LINE
  5
2745
330
2740
100
AcDbEntity
  8
0
  6
CONTINUOUS
 62
     0
100
AcDbLine
 10
113.2116842613497
 20
107.646736343034
 30
0.0
 11
114.6116842613496
 21
106.246736343034
 31
0.0
  0
LINE
  5
2746
330
2740
100
AcDbEntity
  8
0
  6
CONTINUOUS
 62
     0
100
AcDbLine
 10
113.2116842613497
 20
108.0957491490875
 30
0.0
 11
114.6116842613496
 21
106.6957491490876
 31
0.0
  0
LINE
  5
2747
330
2740
100
AcDbEntity
  8
0
  6
CONTINUOUS
 62
     0
100
AcDbLine
 10
113.2116842613497
 20
108.5447619551409
 30
0.0
 11
114.6116842613496
 21
107.1447619551409
 31
0.0
  0
LINE
  5
2748
330
2740
100
AcDbEntity
  8
0
  6
CONTINUOUS
 62
     0
100
AcDbLine
 10
113.2116842613497
 20
108.9937747611944
 30
0.0
 11
114.6116842613496
 21
107.5937747611944
 31
0.0
  0
LINE
  5
2749
330
2740
100
AcDbEntity
  8
0
  6
CONTINUOUS
 62
     0
100
AcDbLine
 10
113.2116842613497
 20
109.4427875672479
 30
0.0
 11
114.6116842613496
 21
108.0427875672477
 31
0.0
  0
LINE
  5
274A
330
2740
100
AcDbEntity
  8
0
  6
CONTINUOUS
 62
     0
100
AcDbLine
 10
113.2116842613497
 20
109.8918003733014
 30
0.0
 11
114.6116842613496
 21
108.4918003733014
 31
0.0
  0
LINE
  5
274B
330
2740
100
AcDbEntity
  8
0
  6
CONTINUOUS
 62
     0
100
AcDbLine
 10
113.2116842613499
 20
110.3408131793548
 30
0.0
 11
114.6116842613496
 21
108.9408131793549
 31
0.0
  0
LINE
  5
274C
330
2740
100
AcDbEntity
  8
0
  6
CONTINUOUS
 62
     0
100
AcDbLine
 10
113.2116842613497
 20
110.7898259854082
 30
0.0
 11
114.6116842613496
 21
109.3898259854083
 31
0.0
  0
LINE
  5
274D
330
2740
100
AcDbEntity
  8
0
  6
CONTINUOUS
 62
     0
100
AcDbLine
 10
113.2116842613497
 20
111.2388387914617
 30
0.0
 11
114.6116842613496
 21
109.8388387914617
 31
0.0
  0
LINE
  5
274E
330
2740
100
AcDbEntity
  8
0
  6
CONTINUOUS
 62
     0
100
AcDbLine
 10
111.9116842613497
 20
112.5388387914616
 30
0.0
 11
112.0552846857844
 21
112.3952383670269
 31
0.0
  0
LINE
  5
274F
330
2740
100
AcDbEntity
  8
0
  6
CONTINUOUS
 62
     0
100
AcDbLine
 10
113.2116842613497
 20
111.687851597515
 30
0.0
 11
114.6116842613496
 21
110.287851597515
 31
0.0
  0
LINE
  5
2750
330
2740
100
AcDbEntity
  8
0
  6
CONTINUOUS
 62
     0
100
AcDbLine
 10
111.9116842613496
 20
112.9878515975152
 30
0.0
 11
112.504297491838
 21
112.3952383670269
 31
0.0
  0
LINE
  5
2751
330
2740
100
AcDbEntity
  8
0
  6
CONTINUOUS
 62
     0
100
AcDbLine
 10
111.9116842613497
 20
113.4368644035687
 30
0.0
 11
114.6116842613496
 21
110.7368644035688
 31
0.0
  0
LINE
  5
2752
330
2740
100
AcDbEntity
  8
0
  6
CONTINUOUS
 62
     0
100
AcDbLine
 10
112.202323103945
 20
113.595238367027
 30
0.0
 11
114.6116842613496
 21
111.185877209622
 31
0.0
  0
LINE
  5
2753
330
2740
100
AcDbEntity
  8
0
  6
CONTINUOUS
 62
     0
100
AcDbLine
 10
112.6513359099984
 20
113.595238367027
 30
0.0
 11
114.6116842613496
 21
111.6348900156756
 31
0.0
  0
LINE
  5
2754
330
2740
100
AcDbEntity
  8
0
  6
CONTINUOUS
 62
     0
100
AcDbLine
 10
113.1086507400745
 20
113.5869363430042
 30
0.0
 11
114.6116842613496
 21
112.0839028217289
 31
0.0
  0
LINE
  5
2755
330
2740
100
AcDbEntity
  8
0
  6
CONTINUOUS
 62
     0
100
AcDbLine
 10
113.7664928487712
 20
113.3781070403611
 30
0.0
 11
114.4041837777231
 21
112.7404161114093
 31
0.0
  0
ENDBLK
  5
2757
330
2740
100
AcDbEntity
  8
0
100
AcDbBlockEnd
  0
BLOCK
  5
2783
330
2779
100
AcDbEntity
  8
0
100
AcDbBlockBegin
  2
*D70
 70
     1
 10
0.0
 20
0.0
 30
0.0
  3
*D70
  1

  0
LINE
  5
277A
330
2779
100
AcDbEntity
  8
L-2
  6
CONTINUOUS
 62
     4
100
AcDbLine
 10
68.45043888558712
 20
233.6083172260221
 30
0.0
 11
68.45043888558712
 21
241.8334145147222
 31
0.0
  0
LINE
  5
277B
330
2779
100
AcDbEntity
  8
L-2
  6
CONTINUOUS
 62
     4
100
AcDbLine
 10
82.45043888558711
 20
233.6083172260222
 30
0.0
 11
82.45043888558711
 21
241.8334145147222
 31
0.0
  0
LINE
  5
277C
330
2779
100
AcDbEntity
  8
L-2
  6
CONTINUOUS
 62
     4
100
AcDbLine
 10
70.95043888558712
 20
240.8334145147222
 30
0.0
 11
79.95043888558711
 21
240.8334145147222
 31
0.0
  0
INSERT
  5
277D
330
2779
100
AcDbEntity
  8
L-2
  6
CONTINUOUS
 62
     4
100
AcDbBlockReference
  2
_OPEN
 10
68.45043888558712
 20
240.8334145147222
 30
0.0
 41
2.5
 42
2.5
 43
2.5
 50
180.0
  0
INSERT
  5
277E
330
2779
100
AcDbEntity
  8
L-2
  6
CONTINUOUS
 62
     4
100
AcDbBlockReference
  2
_OPEN
 10
82.45043888558711
 20
240.8334145147222
 30
0.0
 41
2.5
 42
2.5
 43
2.5
  0
MTEXT
  5
277F
330
2779
100
AcDbEntity
  8
L-2
  6
CONTINUOUS
 62
     2
100
AcDbMText
 10
75.45043888558712
 20
242.9334145147222
 30
0.0
 40
3.2
 41
0.0
 71
     5
 72
     1
  1
\A1;14
  7
BGS
1001
ACAD
1000
MTEXTBEGIN
1070
    73
1070
     1
1070
    44
1040
1.0
1070
    74
1070
     0
1000
MTEXTEND
  0
POINT
  5
2780
330
2779
100
AcDbEntity
  8
DEFPOINTS
  6
CONTINUOUS
 62
     0
100
AcDbPoint
 10
68.45043888558712
 20
233.1083172260222
 30
0.0
  0
POINT
  5
2781
330
2779
100
AcDbEntity
  8
DEFPOINTS
  6
CONTINUOUS
 62
     0
100
AcDbPoint
 10
82.45043888558711
 20
233.1083172260222
 30
0.0
  0
POINT
  5
2782
330
2779
100
AcDbEntity
  8
DEFPOINTS
  6
CONTINUOUS
 62
     0
100
AcDbPoint
 10
82.45043888558711
 20
240.8334145147222
 30
0.0
  0
ENDBLK
  5
2784
330
2779
100
AcDbEntity
  8
0
100
AcDbBlockEnd
  0
BLOCK
  5
278F
330
2785
100
AcDbEntity
  8
0
100
AcDbBlockBegin
  2
*D71
 70
     1
 10
0.0
 20
0.0
 30
0.0
  3
*D71
  1

  0
LINE
  5
2786
330
2785
100
AcDbEntity
  8
L-2
  6
CONTINUOUS
 62
     4
100
AcDbLine
 10
129.4278358384301
 20
207.4140985947233
 30
0.0
 11
141.9582932882929
 21
207.4140985947233
 31
0.0
  0
LINE
  5
2787
330
2785
100
AcDbEntity
  8
L-2
  6
CONTINUOUS
 62
     4
100
AcDbLine
 10
129.6278358384228
 20
107.2140985947231
 30
0.0
 11
141.9582932882929
 21
107.2140985947231
 31
0.0
  0
LINE
  5
2788
330
2785
100
AcDbEntity
  8
L-2
  6
CONTINUOUS
 62
     4
100
AcDbLine
 10
140.9582932882929
 20
204.9140985947233
 30
0.0
 11
140.9582932882929
 21
109.7140985947232
 31
0.0
  0
INSERT
  5
2789
330
2785
100
AcDbEntity
  8
L-2
  6
CONTINUOUS
 62
     4
100
AcDbBlockReference
  2
_OPEN
 10
140.9582932882929
 20
207.4140985947233
 30
0.0
 41
2.5
 42
2.5
 43
2.5
 50
90.0
  0
INSERT
  5
278A
330
2785
100
AcDbEntity
  8
L-2
  6
CONTINUOUS
 62
     4
100
AcDbBlockReference
  2
_OPEN
 10
140.9582932882929
 20
107.2140985947231
 30
0.0
 41
2.5
 42
2.5
 43
2.5
 50
270.0
  0
MTEXT
  5
278B
330
2785
100
AcDbEntity
  8
L-2
  6
CONTINUOUS
 62
     2
100
AcDbMText
 10
138.8582932882928
 20
157.3140985947233
 30
0.0
 40
3.2
 41
0.0
 71
     5
 72
     1
  1
\A1;100.2
  7
BGS
 11
0.0000000000000001
 21
1.0
 31
0.0
1001
ACAD
1000
MTEXTBEGIN
1070
    73
1070
     1
1070
    44
1040
1.0
1070
    74
1070
     0
1000
MTEXTEND
  0
POINT
  5
278C
330
2785
100
AcDbEntity
  8
DEFPOINTS
  6
CONTINUOUS
 62
     0
100
AcDbPoint
 10
128.9278358384301
 20
207.4140985947233
 30
0.0
  0
POINT
  5
278D
330
2785
100
AcDbEntity
  8
DEFPOINTS
  6
CONTINUOUS
 62
     0
100
AcDbPoint
 10
129.1278358384228
 20
107.2140985947231
 30
0.0
  0
POINT
  5
278E
330
2785
100
AcDbEntity
  8
DEFPOINTS
  6
CONTINUOUS
 62
     0
100
AcDbPoint
 10
140.9582932882929
 20
107.2140985947231
 30
0.0
  0
ENDBLK
  5
2790
330
2785
100
AcDbEntity
  8
0
100
AcDbBlockEnd
  0
BLOCK
  5
279B
330
2791
100
AcDbEntity
  8
0
100
AcDbBlockBegin
  2
*D72
 70
     1
 10
0.0
 20
0.0
 30
0.0
  3
*D72
  1

  0
LINE
  5
2792
330
2791
100
AcDbEntity
  8
L-2
  6
CONTINUOUS
 62
     4
100
AcDbLine
 10
130.6278358384229
 20
206.4140985947243
 30
0.0
 11
130.6278358384229
 21
216.8395997708155
 31
0.0
  0
LINE
  5
2793
330
2791
100
AcDbEntity
  8
L-2
  6
CONTINUOUS
 62
     4
100
AcDbLine
 10
119.9278358384229
 20
208.7140985947232
 30
0.0
 11
119.9278358384229
 21
216.8395997708155
 31
0.0
  0
LINE
  5
2794
330
2791
100
AcDbEntity
  8
L-2
  6
CONTINUOUS
 62
     4
100
AcDbLine
 10
128.1278358384229
 20
215.8395997708155
 30
0.0
 11
122.4278358384229
 21
215.8395997708155
 31
0.0
  0
INSERT
  5
2795
330
2791
100
AcDbEntity
  8
L-2
  6
CONTINUOUS
 62
     4
100
AcDbBlockReference
  2
_OPEN
 10
130.6278358384229
 20
215.8395997708155
 30
0.0
 41
2.5
 42
2.5
 43
2.5
  0
INSERT
  5
2796
330
2791
100
AcDbEntity
  8
L-2
  6
CONTINUOUS
 62
     4
100
AcDbBlockReference
  2
_OPEN
 10
119.9278358384229
 20
215.8395997708155
 30
0.0
 41
2.5
 42
2.5
 43
2.5
 50
180.0
  0
MTEXT
  5
2797
330
2791
100
AcDbEntity
  8
L-2
  6
CONTINUOUS
 62
     2
100
AcDbMText
 10
125.2778358384229
 20
217.9395997708155
 30
0.0
 40
3.2
 41
0.0
 71
     5
 72
     1
  1
\A1;10.7
  7
BGS
1001
ACAD
1000
MTEXTBEGIN
1070
    73
1070
     1
1070
    44
1040
1.0
1070
    74
1070
     0
1000
MTEXTEND
  0
POINT
  5
2798
330
2791
100
AcDbEntity
  8
DEFPOINTS
  6
CONTINUOUS
 62
     0
100
AcDbPoint
 10
130.6278358384229
 20
205.9140985947243
 30
0.0
  0
POINT
  5
2799
330
2791
100
AcDbEntity
  8
DEFPOINTS
  6
CONTINUOUS
 62
     0
100
AcDbPoint
 10
119.9278358384229
 20
208.2140985947232
 30
0.0
  0
POINT
  5
279A
330
2791
100
AcDbEntity
  8
DEFPOINTS
  6
CONTINUOUS
 62
     0
100
AcDbPoint
 10
119.9278358384229
 20
215.8395997708155
 30
0.0
  0
ENDBLK
  5
279C
330
2791
100
AcDbEntity
  8
0
100
AcDbBlockEnd
  0
BLOCK
  5
27A9
330
279D
100
AcDbEntity
  8
0
100
AcDbBlockBegin
  2
*D73
 70
     1
 10
0.0
 20
0.0
 30
0.0
  3
*D73
  1

  0
LINE
  5
279E
330
279D
100
AcDbEntity
  8
L-2
  6
CONTINUOUS
 62
     4
100
AcDbLine
 10
73.95043888558712
 20
223.1083172260222
 30
0.0
 11
73.95043888558712
 21
216.5526424319494
 31
0.0
  0
LINE
  5
279F
330
279D
100
AcDbEntity
  8
L-2
  6
CONTINUOUS
 62
     4
100
AcDbLine
 10
76.95043888558712
 20
223.1083172260222
 30
0.0
 11
76.95043888558712
 21
216.5526424319494
 31
0.0
  0
LINE
  5
27A0
330
279D
100
AcDbEntity
  8
L-2
  6
CONTINUOUS
 62
     4
100
AcDbLine
 10
71.45043888558712
 20
217.5526424319495
 30
0.0
 11
68.95043888558712
 21
217.5526424319495
 31
0.0
  0
LINE
  5
27A1
330
279D
100
AcDbEntity
  8
L-2
  6
CONTINUOUS
 62
     4
100
AcDbLine
 10
79.45043888558712
 20
217.5526424319495
 30
0.0
 11
85.08377221892045
 21
217.5526424319495
 31
0.0
  0
LINE
  5
27A2
330
279D
100
AcDbEntity
  8
L-2
  6
CONTINUOUS
 62
     4
100
AcDbLine
 10
73.95043888558712
 20
217.5526424319495
 30
0.0
 11
76.95043888558712
 21
217.5526424319495
 31
0.0
  0
INSERT
  5
27A3
330
279D
100
AcDbEntity
  8
L-2
  6
CONTINUOUS
 62
     4
100
AcDbBlockReference
  2
_OPEN
 10
73.95043888558712
 20
217.5526424319495
 30
0.0
 41
2.5
 42
2.5
 43
2.5
  0
INSERT
  5
27A4
330
279D
100
AcDbEntity
  8
L-2
  6
CONTINUOUS
 62
     4
100
AcDbBlockReference
  2
_OPEN
 10
76.95043888558712
 20
217.5526424319495
 30
0.0
 41
2.5
 42
2.5
 43
2.5
 50
180.0
  0
MTEXT
  5
27A5
330
279D
100
AcDbEntity
  8
L-2
  6
CONTINUOUS
 62
     2
100
AcDbMText
 10
83.51710555225379
 20
219.6526424319495
 30
0.0
 40
3.2
 41
0.0
 71
     5
 72
     1
  1
\A1;3
  7
BGS
1001
ACAD
1000
MTEXTBEGIN
1070
    73
1070
     1
1070
    44
1040
1.0
1070
    74
1070
     0
1000
MTEXTEND
  0
POINT
  5
27A6
330
279D
100
AcDbEntity
  8
DEFPOINTS
  6
CONTINUOUS
 62
     0
100
AcDbPoint
 10
73.95043888558712
 20
223.6083172260222
 30
0.0
  0
POINT
  5
27A7
330
279D
100
AcDbEntity
  8
DEFPOINTS
  6
CONTINUOUS
 62
     0
100
AcDbPoint
 10
76.95043888558712
 20
223.6083172260222
 30
0.0
  0
POINT
  5
27A8
330
279D
100
AcDbEntity
  8
DEFPOINTS
  6
CONTINUOUS
 62
     0
100
AcDbPoint
 10
76.95043888558712
 20
217.5526424319495
 30
0.0
  0
ENDBLK
  5
27AA
330
279D
100
AcDbEntity
  8
0
100
AcDbBlockEnd
  0
BLOCK
  5
28BD
330
28B1
100
AcDbEntity
  8
0
100
AcDbBlockBegin
  2
*D75
 70
     1
 10
0.0
 20
0.0
 30
0.0
  3
*D75
  1

  0
LINE
  5
2946
330
28B1
100
AcDbEntity
  8
L-2
  6
CONTINUOUS
 62
     4
100
AcDbLine
 10
62.89122915200664
 20
192.9360426341397
 30
0.0
 11
62.89122915200664
 21
186.380367840067
 31
0.0
  0
LINE
  5
2947
330
28B1
100
AcDbEntity
  8
L-2
  6
CONTINUOUS
 62
     4
100
AcDbLine
 10
65.89122915200665
 20
192.9360426341398
 30
0.0
 11
65.89122915200665
 21
186.380367840067
 31
0.0
  0
LINE
  5
2948
330
28B1
100
AcDbEntity
  8
L-2
  6
CONTINUOUS
 62
     4
100
AcDbLine
 10
60.39122915200664
 20
187.380367840067
 30
0.0
 11
57.89122915200664
 21
187.380367840067
 31
0.0
  0
LINE
  5
2949
330
28B1
100
AcDbEntity
  8
L-2
  6
CONTINUOUS
 62
     4
100
AcDbLine
 10
68.39122915200665
 20
187.380367840067
 30
0.0
 11
70.89122915200665
 21
187.380367840067
 31
0.0
  0
LINE
  5
294A
330
28B1
100
AcDbEntity
  8
L-2
  6
CONTINUOUS
 62
     4
100
AcDbLine
 10
62.89122915200664
 20
187.380367840067
 30
0.0
 11
65.89122915200665
 21
187.380367840067
 31
0.0
  0
INSERT
  5
294B
330
28B1
100
AcDbEntity
  8
L-2
  6
CONTINUOUS
 62
     4
100
AcDbBlockReference
  2
_OPEN
 10
62.89122915200664
 20
187.380367840067
 30
0.0
 41
2.5
 42
2.5
 43
2.5
  0
INSERT
  5
294C
330
28B1
100
AcDbEntity
  8
L-2
  6
CONTINUOUS
 62
     4
100
AcDbBlockReference
  2
_OPEN
 10
65.89122915200665
 20
187.380367840067
 30
0.0
 41
2.5
 42
2.5
 43
2.5
 50
180.0
  0
MTEXT
  5
294D
330
28B1
100
AcDbEntity
  8
L-2
  6
CONTINUOUS
 62
     2
100
AcDbMText
 10
64.39122915200664
 20
189.480367840067
 30
0.0
 40
3.2
 41
0.0
 71
     5
 72
     1
  1
\A1;3
  7
MSゴシック
1001
ACAD
1000
MTEXTBEGIN
1070
    73
1070
     1
1070
    44
1040
1.0
1070
    74
1070
     0
1000
MTEXTEND
  0
POINT
  5
294E
330
28B1
100
AcDbEntity
  8
DEFPOINTS
  6
CONTINUOUS
 62
     0
100
AcDbPoint
 10
62.89122915200664
 20
193.4360426341397
 30
0.0
  0
POINT
  5
294F
330
28B1
100
AcDbEntity
  8
DEFPOINTS
  6
CONTINUOUS
 62
     0
100
AcDbPoint
 10
65.89122915200665
 20
193.4360426341398
 30
0.0
  0
POINT
  5
2950
330
28B1
100
AcDbEntity
  8
DEFPOINTS
  6
CONTINUOUS
 62
     0
100
AcDbPoint
 10
65.89122915200665
 20
187.380367840067
 30
0.0
  0
ENDBLK
  5
28BE
330
28B1
100
AcDbEntity
  8
0
100
AcDbBlockEnd
  0
BLOCK
  5
28C9
330
28BF
100
AcDbEntity
  8
0
100
AcDbBlockBegin
  2
*D76
 70
     1
 10
0.0
 20
0.0
 30
0.0
  3
*D76
  1

  0
LINE
  5
293D
330
28BF
100
AcDbEntity
  8
L-2
  6
CONTINUOUS
 62
     4
100
AcDbLine
 10
57.39122915200664
 20
203.4360426341397
 30
0.0
 11
57.39122915200664
 21
211.6611399228397
 31
0.0
  0
LINE
  5
293E
330
28BF
100
AcDbEntity
  8
L-2
  6
CONTINUOUS
 62
     4
100
AcDbLine
 10
71.39122915200664
 20
203.4360426341397
 30
0.0
 11
71.39122915200664
 21
211.6611399228397
 31
0.0
  0
LINE
  5
293F
330
28BF
100
AcDbEntity
  8
L-2
  6
CONTINUOUS
 62
     4
100
AcDbLine
 10
59.89122915200664
 20
210.6611399228397
 30
0.0
 11
68.89122915200664
 21
210.6611399228397
 31
0.0
  0
INSERT
  5
2940
330
28BF
100
AcDbEntity
  8
L-2
  6
CONTINUOUS
 62
     4
100
AcDbBlockReference
  2
_OPEN
 10
57.39122915200664
 20
210.6611399228397
 30
0.0
 41
2.5
 42
2.5
 43
2.5
 50
180.0
  0
INSERT
  5
2941
330
28BF
100
AcDbEntity
  8
L-2
  6
CONTINUOUS
 62
     4
100
AcDbBlockReference
  2
_OPEN
 10
71.39122915200664
 20
210.6611399228397
 30
0.0
 41
2.5
 42
2.5
 43
2.5
  0
MTEXT
  5
2942
330
28BF
100
AcDbEntity
  8
L-2
  6
CONTINUOUS
 62
     2
100
AcDbMText
 10
64.39122915200664
 20
212.7611399228397
 30
0.0
 40
3.2
 41
0.0
 71
     5
 72
     1
  1
\A1;14
  7
MSゴシック
1001
ACAD
1000
MTEXTBEGIN
1070
    73
1070
     1
1070
    44
1040
1.0
1070
    74
1070
     0
1000
MTEXTEND
  0
POINT
  5
2943
330
28BF
100
AcDbEntity
  8
DEFPOINTS
  6
CONTINUOUS
 62
     0
100
AcDbPoint
 10
57.39122915200664
 20
202.9360426341397
 30
0.0
  0
POINT
  5
2944
330
28BF
100
AcDbEntity
  8
DEFPOINTS
  6
CONTINUOUS
 62
     0
100
AcDbPoint
 10
71.39122915200664
 20
202.9360426341397
 30
0.0
  0
POINT
  5
2945
330
28BF
100
AcDbEntity
  8
DEFPOINTS
  6
CONTINUOUS
 62
     0
100
AcDbPoint
 10
71.39122915200664
 20
210.6611399228397
 30
0.0
  0
ENDBLK
  5
28CA
330
28BF
100
AcDbEntity
  8
0
100
AcDbBlockEnd
  0
BLOCK
  5
28D5
330
28CB
100
AcDbEntity
  8
0
100
AcDbBlockBegin
  2
*D77
 70
     1
 10
0.0
 20
0.0
 30
0.0
  3
*D77
  1

  0
LINE
  5
2951
330
28CB
100
AcDbEntity
  8
L-2
  6
CONTINUOUS
 62
     4
100
AcDbLine
 10
119.5686261048424
 20
176.2418240028418
 30
0.0
 11
119.5686261048424
 21
186.6673251789331
 31
0.0
  0
LINE
  5
2952
330
28CB
100
AcDbEntity
  8
L-2
  6
CONTINUOUS
 62
     4
100
AcDbLine
 10
108.8686261048425
 20
178.5418240028407
 30
0.0
 11
108.8686261048425
 21
186.6673251789331
 31
0.0
  0
LINE
  5
2953
330
28CB
100
AcDbEntity
  8
L-2
  6
CONTINUOUS
 62
     4
100
AcDbLine
 10
117.0686261048424
 20
185.6673251789331
 30
0.0
 11
111.3686261048425
 21
185.6673251789331
 31
0.0
  0
INSERT
  5
2954
330
28CB
100
AcDbEntity
  8
L-2
  6
CONTINUOUS
 62
     4
100
AcDbBlockReference
  2
_OPEN
 10
119.5686261048424
 20
185.6673251789331
 30
0.0
 41
2.5
 42
2.5
 43
2.5
  0
INSERT
  5
2955
330
28CB
100
AcDbEntity
  8
L-2
  6
CONTINUOUS
 62
     4
100
AcDbBlockReference
  2
_OPEN
 10
108.8686261048425
 20
185.6673251789331
 30
0.0
 41
2.5
 42
2.5
 43
2.5
 50
180.0
  0
MTEXT
  5
2956
330
28CB
100
AcDbEntity
  8
L-2
  6
CONTINUOUS
 62
     2
100
AcDbMText
 10
114.2186261048424
 20
187.767325178933
 30
0.0
 40
3.2
 41
0.0
 71
     5
 72
     1
  1
\A1;10.7
  7
MSゴシック
1001
ACAD
1000
MTEXTBEGIN
1070
    73
1070
     1
1070
    44
1040
1.0
1070
    74
1070
     0
1000
MTEXTEND
  0
POINT
  5
2957
330
28CB
100
AcDbEntity
  8
DEFPOINTS
  6
CONTINUOUS
 62
     0
100
AcDbPoint
 10
119.5686261048424
 20
175.7418240028418
 30
0.0
  0
POINT
  5
2958
330
28CB
100
AcDbEntity
  8
DEFPOINTS
  6
CONTINUOUS
 62
     0
100
AcDbPoint
 10
108.8686261048425
 20
178.0418240028408
 30
0.0
  0
POINT
  5
2959
330
28CB
100
AcDbEntity
  8
DEFPOINTS
  6
CONTINUOUS
 62
     0
100
AcDbPoint
 10
108.8686261048425
 20
185.6673251789331
 30
0.0
  0
ENDBLK
  5
28D6
330
28CB
100
AcDbEntity
  8
0
100
AcDbBlockEnd
  0
BLOCK
  5
28E1
330
28D7
100
AcDbEntity
  8
0
100
AcDbBlockBegin
  2
*D78
 70
     1
 10
0.0
 20
0.0
 30
0.0
  3
*D78
  1

  0
LINE
  5
2934
330
28D7
100
AcDbEntity
  8
L-2
  6
CONTINUOUS
 62
     4
100
AcDbLine
 10
118.3686261048496
 20
177.2418240028408
 30
0.0
 11
130.8990835547124
 21
177.2418240028408
 31
0.0
  0
LINE
  5
2935
330
28D7
100
AcDbEntity
  8
L-2
  6
CONTINUOUS
 62
     4
100
AcDbLine
 10
118.5686261048424
 20
77.04182400284074
 30
0.0
 11
130.8990835547124
 21
77.04182400284074
 31
0.0
  0
LINE
  5
2936
330
28D7
100
AcDbEntity
  8
L-2
  6
CONTINUOUS
 62
     4
100
AcDbLine
 10
129.8990835547124
 20
174.7418240028408
 30
0.0
 11
129.8990835547124
 21
79.54182400284074
 31
0.0
  0
INSERT
  5
2937
330
28D7
100
AcDbEntity
  8
L-2
  6
CONTINUOUS
 62
     4
100
AcDbBlockReference
  2
_OPEN
 10
129.8990835547124
 20
177.2418240028408
 30
0.0
 41
2.5
 42
2.5
 43
2.5
 50
90.0
  0
INSERT
  5
2938
330
28D7
100
AcDbEntity
  8
L-2
  6
CONTINUOUS
 62
     4
100
AcDbBlockReference
  2
_OPEN
 10
129.8990835547124
 20
77.04182400284074
 30
0.0
 41
2.5
 42
2.5
 43
2.5
 50
270.0
  0
MTEXT
  5
2939
330
28D7
100
AcDbEntity
  8
L-2
  6
CONTINUOUS
 62
     2
100
AcDbMText
 10
127.7990835547124
 20
127.1418240028408
 30
0.0
 40
3.2
 41
0.0
 71
     5
 72
     1
  1
\A1;100.2
  7
MSゴシック
 11
0.0000000000000001
 21
1.0
 31
0.0
1001
ACAD
1000
MTEXTBEGIN
1070
    73
1070
     1
1070
    44
1040
1.0
1070
    74
1070
     0
1000
MTEXTEND
  0
POINT
  5
293A
330
28D7
100
AcDbEntity
  8
DEFPOINTS
  6
CONTINUOUS
 62
     0
100
AcDbPoint
 10
117.8686261048496
 20
177.2418240028408
 30
0.0
  0
POINT
  5
293B
330
28D7
100
AcDbEntity
  8
DEFPOINTS
  6
CONTINUOUS
 62
     0
100
AcDbPoint
 10
118.0686261048423
 20
77.04182400284074
 30
0.0
  0
POINT
  5
293C
330
28D7
100
AcDbEntity
  8
DEFPOINTS
  6
CONTINUOUS
 62
     0
100
AcDbPoint
 10
129.8990835547124
 20
77.04182400284074
 30
0.0
  0
ENDBLK
  5
28E2
330
28D7
100
AcDbEntity
  8
0
100
AcDbBlockEnd
  0
ENDSEC
  0
SECTION
  2
ENTITIES
  0
LINE
  5
1CAE
330
18
100
AcDbEntity
  8
L-1
  6
CONTINUOUS
 62
     5
100
AcDbLine
 10
0.0000001503934755
 20
0.0000000878506512
 30
0.0
 11
170.0000001503935
 21
0.0000000878506512
 31
0.0
  0
LINE
  5
1CAF
330
18
100
AcDbEntity
  8
L-1
  6
CONTINUOUS
 62
     5
100
AcDbLine
 10
0.0000001503934755
 20
271.0000000878506
 30
0.0
 11
171.0000001503935
 21
271.0000000878506
 31
0.0
  0
LINE
  5
1CBA
330
18
100
AcDbEntity
  8
L-1
  6
CONTINUOUS
 62
     5
100
AcDbLine
 10
0.0000001503934755
 20
0.0000000878506512
 30
0.0
 11
0.0000001503934755
 21
271.0000000878506
 31
0.0
  0
LINE
  5
1DE4
330
18
100
AcDbEntity
  8
L-1
  6
CONTINUOUS
 62
     5
100
AcDbLine
 10
171.0000001503935
 20
271.0000000878506
 30
0.0
 11
171.0000001503935
 21
0.0000000878506512
 31
0.0
  0
TEXT
  5
1DEC
330
18
100
AcDbEntity
  8
L-2
  6
CONTINUOUS
 62
     2
100
AcDbText
 10
101.7378651858019
 20
16.06067974659367
 30
0.0
 40
4.5
  1
ＭＴ２０　示名条片８
  7
MSゴシック
100
AcDbText
  0
TEXT
  5
1DED
330
18
100
AcDbEntity
  8
L-1
  6
CONTINUOUS
 62
     2
100
AcDbText
 10
105.733638462985
 20
1.873740570892234
 30
0.0
 40
4.4
  1
東京通信機工業株式会社
  7
MSゴシック
100
AcDbText
  0
TEXT
  5
1DEE
330
18
100
AcDbEntity
  8
L-2
  6
CONTINUOUS
 62
     2
100
AcDbText
 10
135.615737666848
 20
31.86276842016654
 30
0.0
 40
4.0
  1
（単位：ｍｍ）
  7
MSゴシック
100
AcDbText
  0
LINE
  5
1DEF
330
18
100
AcDbEntity
  8
L-1
  6
CONTINUOUS
 62
     5
100
AcDbLine
 10
91.00000015039348
 20
30.00000008785065
 30
0.0
 11
171.0000001503935
 21
30.00000008785065
 31
0.0
  0
LINE
  5
1DF0
330
18
100
AcDbEntity
  8
L-1
  6
CONTINUOUS
 62
     5
100
AcDbLine
 10
91.00000015039348
 20
8.000000087850651
 30
0.0
 11
171.0000001503935
 21
8.000000087850651
 31
0.0
  0
LINE
  5
1DF6
330
18
100
AcDbEntity
  8
L-1
  6
CONTINUOUS
 62
     5
100
AcDbLine
 10
91.00000015039348
 20
30.00000008785065
 30
0.0
 11
91.00000015039348
 21
0.0000000878506512
 31
0.0
  0
INSERT
  5
1DF7
330
18
100
AcDbEntity
  8
L-1
100
AcDbBlockReference
  2
TK
 10
103.7082289504495
 20
3.776842462510515
 30
0.0
  0
LINE
  5
1E08
330
18
100
AcDbEntity
  8
L-1
  6
CONTINUOUS
 62
     5
100
AcDbLine
 10
170.0000001503935
 20
0.0000000878506512
 30
0.0
 11
171.0000001503935
 21
0.0000000878506512
 31
0.0
  0
DIMENSION
  5
2830
330
18
100
AcDbEntity
  8
L-2
  6
CONTINUOUS
100
AcDbDimension
  2
*D78
 10
129.8990835547124
 20
77.04182400284074
 30
0.0
 11
127.7990835547124
 21
127.1418240028408
 31
0.0
 70
    32
  3
CAD-STD
100
AcDbAlignedDimension
 13
117.8686261048496
 23
177.2418240028408
 33
0.0
 14
118.0686261048423
 24
77.04182400284074
 34
0.0
 50
90.0
100
AcDbRotatedDimension
1001
ACAD
1000
DSTYLE
1002
{
1070
   340
1005
DF3
1002
}
  0
LINE
  5
2831
330
18
100
AcDbEntity
  8
L-1
  6
DASHED2
 62
     3
 48
0.2
100
AcDbLine
 10
118.1686261048424
 20
103.1418240028407
 30
0.0
 11
118.1686261048424
 21
126.1418240028407
 31
0.0
  0
LINE
  5
2832
330
18
100
AcDbEntity
  8
L-1
  6
CONTINUOUS
 62
     7
100
AcDbLine
 10
119.5686261048424
 20
78.54182400284074
 30
0.0
 11
119.5686261048424
 21
175.7418240028413
 31
0.0
  0
LINE
  5
2833
330
18
100
AcDbEntity
  8
L-1
  6
CONTINUOUS
 62
     7
100
AcDbLine
 10
116.8686261048425
 20
77.04182400284074
 30
0.0
 11
116.8686261048425
 21
177.2418240028407
 31
0.0
  0
LINE
  5
2834
330
18
100
AcDbEntity
  8
L-1
  6
CONTINUOUS
 62
     7
100
AcDbLine
 10
69.39122915200653
 20
126.1418240028407
 30
0.0
 11
69.39122915200653
 21
103.1418240028407
 31
0.0
  0
LINE
  5
2835
330
18
100
AcDbEntity
  8
L-1
  6
CONTINUOUS
 62
     7
100
AcDbLine
 10
59.39122915200653
 20
126.1418240028409
 30
0.0
 11
59.39122915200653
 21
103.1418240028406
 31
0.0
  0
LINE
  5
2836
330
18
100
AcDbEntity
  8
L-1
  6
CONTINUOUS
 62
     7
100
AcDbLine
 10
57.39122915200653
 20
176.7418240028407
 30
0.0
 11
57.39122915200647
 21
77.54182400284083
 31
0.0
  0
LINE
  5
2837
330
18
100
AcDbEntity
  8
L-1
  6
CONTINUOUS
 62
     7
100
AcDbLine
 10
71.39122915200653
 20
176.7418240028408
 30
0.0
 11
71.39122915200653
 21
77.54182400284071
 31
0.0
  0
TEXT
  5
2839
330
18
100
AcDbEntity
  8
L-2
  6
CONTINUOUS
 62
     2
100
AcDbText
 10
68.5728701052401
 20
83.83462032928454
 30
0.0
 40
3.0
  1
>PC<
 50
90.0
  7
MSゴシック
 72
     4
 11
67.0728701052401
 21
87.73309748664493
 31
0.0
100
AcDbText
  0
LINE
  5
283A
330
18
100
AcDbEntity
  8
L-1
  6
CONTINUOUS
 62
     7
100
AcDbLine
 10
70.89122915200653
 20
77.04182400284071
 30
0.0
 11
65.89122915200653
 21
77.04182400284077
 31
0.0
  0
LINE
  5
283B
330
18
100
AcDbEntity
  8
L-1
  6
CONTINUOUS
 62
     7
100
AcDbLine
 10
69.39122915200653
 20
78.24182400284076
 30
0.0
 11
59.39122915200653
 21
78.2418240028407
 31
0.0
  0
LINE
  5
283C
330
18
100
AcDbEntity
  8
L-1
  6
CONTINUOUS
 62
     7
100
AcDbLine
 10
69.39122915200653
 20
101.1418240028407
 30
0.0
 11
59.39122915200653
 21
101.1418240028406
 31
0.0
  0
LINE
  5
283D
330
18
100
AcDbEntity
  8
L-1
  6
CONTINUOUS
 62
     7
100
AcDbLine
 10
69.39122915200653
 20
103.1418240028407
 30
0.0
 11
59.39122915200653
 21
103.1418240028406
 31
0.0
  0
TEXT
  5
283E
330
18
100
AcDbEntity
  8
L-2
  6
CONTINUOUS
 62
     2
100
AcDbText
 10
19.2435182458978
 20
99.12469981818913
 30
0.0
 40
3.2
  1
材料名表示
  7
MSゴシック
100
AcDbText
  0
LINE
  5
283F
330
18
100
AcDbEntity
  8
L-1
  6
CONTINUOUS
 62
     4
100
AcDbLine
 10
43.56760343814045
 20
98.40940453817848
 30
0.0
 11
15.59981005633494
 21
98.40940453817848
 31
0.0
  0
LEADER
  5
2840
330
18
100
AcDbEntity
  8
L-2
  6
CONTINUOUS
 62
     4
100
AcDbLeader
  3
CAD-STD
 40
3.629148174659983
 41
32.24658008658009
 76
     2
 10
64.88171416616729
 20
88.1867269597725
 30
0.0
 10
43.56760343814045
 20
98.40940453817848
 30
0.0
1001
ACAD
1000
DSTYLE
1002
{
1070
     6
1000
OPEN
1002
}
1000
LEANOF
1010
0.0
1020
0.0
1030
0.0
  0
LINE
  5
2841
330
18
100
AcDbEntity
  8
L-1
  6
CONTINUOUS
 62
     7
100
AcDbLine
 10
59.39122915200653
 20
101.1418240028406
 30
0.0
 11
59.39122915200653
 21
78.2418240028407
 31
0.0
  0
LINE
  5
2842
330
18
100
AcDbEntity
  8
L-1
  6
CONTINUOUS
 62
     7
100
AcDbLine
 10
62.89122915200653
 20
77.04182400284082
 30
0.0
 11
57.89122915200647
 21
77.04182400284082
 31
0.0
  0
ARC
  5
2843
330
18
100
AcDbEntity
  8
L-1
  6
CONTINUOUS
 62
     7
100
AcDbCircle
 10
57.89122915200647
 20
77.54182400284077
 30
0.0
 40
0.5
100
AcDbArc
 50
180.0
 51
270.0
  0
LINE
  5
2844
330
18
100
AcDbEntity
  8
L-1
  6
CONTINUOUS
 62
     7
100
AcDbLine
 10
61.89122915200631
 20
77.04182400284082
 30
0.0
 11
61.89122915200624
 21
78.24182400284072
 31
0.0
  0
LINE
  5
2845
330
18
100
AcDbEntity
  8
L-1
  6
CONTINUOUS
 62
     7
100
AcDbLine
 10
66.89122915200624
 20
77.04182400284079
 30
0.0
 11
66.89122915200624
 21
78.24182400284076
 31
0.0
  0
LINE
  5
2846
330
18
100
AcDbEntity
  8
L-1
  6
CONTINUOUS
 62
     7
100
AcDbLine
 10
65.89122915200653
 20
77.04182400284071
 30
0.0
 11
65.89122915200653
 21
78.74182400284076
 31
0.0
  0
LINE
  5
2847
330
18
100
AcDbEntity
  8
L-1
  6
CONTINUOUS
 62
     7
100
AcDbLine
 10
62.89122915200653
 20
77.04182400284082
 30
0.0
 11
62.89122915200653
 21
78.74182400284076
 31
0.0
  0
LINE
  5
2848
330
18
100
AcDbEntity
  8
L-1
  6
CONTINUOUS
 62
     7
100
AcDbLine
 10
65.39122915200653
 20
75.74182400284069
 30
0.0
 11
63.39122915200653
 21
75.74182400284074
 31
0.0
  0
LINE
  5
2849
330
18
100
AcDbEntity
  8
L-1
  6
DASHED2
 62
     3
 48
0.2
100
AcDbLine
 10
65.89122915200653
 20
77.04182400284077
 30
0.0
 11
62.89122915200653
 21
77.04182400284082
 31
0.0
  0
ARC
  5
284A
330
18
100
AcDbEntity
  8
L-1
  6
CONTINUOUS
 62
     7
100
AcDbCircle
 10
63.39122915200647
 20
76.24182400284069
 30
0.0
 40
0.5
100
AcDbArc
 50
180.0
 51
270.0
  0
LINE
  5
284B
330
18
100
AcDbEntity
  8
L-1
  6
CONTINUOUS
 62
     7
100
AcDbLine
 10
62.89122915200653
 20
77.04182400284082
 30
0.0
 11
62.89122915200653
 21
76.24182400284069
 31
0.0
  0
ARC
  5
284C
330
18
100
AcDbEntity
  8
L-1
  6
CONTINUOUS
 62
     7
100
AcDbCircle
 10
65.39122915200647
 20
76.24182400284069
 30
0.0
 40
0.5
100
AcDbArc
 50
270.0
 51
0.0
  0
LINE
  5
284D
330
18
100
AcDbEntity
  8
L-1
  6
CONTINUOUS
 62
     7
100
AcDbLine
 10
65.89122915200653
 20
77.04182400284077
 30
0.0
 11
65.89122915200653
 21
76.24182400284069
 31
0.0
  0
LINE
  5
284E
330
18
100
AcDbEntity
  8
L-1
  6
CONTINUOUS
 62
     7
100
AcDbLine
 10
69.39122915200653
 20
101.1418240028407
 30
0.0
 11
69.39122915200653
 21
78.24182400284076
 31
0.0
  0
ARC
  5
284F
330
18
100
AcDbEntity
  8
L-1
  6
CONTINUOUS
 62
     7
100
AcDbCircle
 10
70.89122915200647
 20
77.54182400284071
 30
0.0
 40
0.5
100
AcDbArc
 50
270.0
 51
0.0
  0
LINE
  5
2850
330
18
100
AcDbEntity
  8
L-1
  6
DASHED2
 62
     3
 48
0.2
100
AcDbLine
 10
118.1686261048424
 20
79.24182400284078
 30
0.0
 11
118.1686261048424
 21
101.1418240028407
 31
0.0
  0
LINE
  5
2851
330
18
100
AcDbEntity
  8
L-1
  6
DASHED2
 62
     3
 48
0.2
100
AcDbLine
 10
116.8686261048425
 20
78.24182400284079
 30
0.0
 11
117.6686261048424
 21
78.24182400284079
 31
0.0
  0
LINE
  5
2852
330
18
100
AcDbEntity
  8
L-1
  6
CONTINUOUS
 62
     7
100
AcDbLine
 10
118.0686261048425
 20
77.04182400284068
 30
0.0
 11
109.7686261048425
 21
77.04182400284071
 31
0.0
  0
LINE
  5
2853
330
18
100
AcDbEntity
  8
L-1
  6
CONTINUOUS
 62
     7
100
AcDbLine
 10
117.6686261048424
 20
78.24182400284072
 30
0.0
 11
109.7686261048419
 21
78.24182400284067
 31
0.0
  0
LINE
  5
2854
330
18
100
AcDbEntity
  8
L-1
  6
CONTINUOUS
 62
     7
100
AcDbLine
 10
108.8686261048424
 20
76.24182400284076
 30
0.0
 11
108.8686261048424
 21
78.15590168668001
 31
0.0
  0
POINT
  5
2855
330
18
100
AcDbEntity
  8
DEFPOINTS
  6
BYBLOCK
 62
     0
100
AcDbPoint
 10
108.8686261048424
 20
75.74182400284072
 30
0.0
  0
LINE
  5
2856
330
18
100
AcDbEntity
  8
L-1
  6
CONTINUOUS
 62
     7
100
AcDbLine
 10
109.7686261048425
 20
75.74182400284072
 30
0.0
 11
109.3686261048424
 21
75.74182400284076
 31
0.0
  0
POINT
  5
2857
330
18
100
AcDbEntity
  8
DEFPOINTS
  6
BYBLOCK
 62
     0
100
AcDbPoint
 10
109.7686261048425
 20
77.04182400284074
 30
0.0
  0
LINE
  5
2858
330
18
100
AcDbEntity
  8
L-1
  6
CONTINUOUS
 62
     7
100
AcDbLine
 10
109.7686261048425
 20
77.04182400284077
 30
0.0
 11
109.7686261048425
 21
75.74182400284072
 31
0.0
  0
ARC
  5
2859
330
18
100
AcDbEntity
  8
L-1
  6
CONTINUOUS
 62
     7
100
AcDbCircle
 10
109.3686261048424
 20
76.24182400284076
 30
0.0
 40
0.5
100
AcDbArc
 50
180.0
 51
270.0
  0
POINT
  5
285A
330
18
100
AcDbEntity
  8
DEFPOINTS
  6
BYBLOCK
 62
     0
100
AcDbPoint
 10
109.7686261048424
 20
78.2418240028407
 30
0.0
  0
LINE
  5
285B
330
18
100
AcDbEntity
  8
L-1
  6
CONTINUOUS
 62
     7
100
AcDbLine
 10
109.7686261048424
 20
78.2418240028407
 30
0.0
 11
108.8686261048424
 21
78.15590168668001
 31
0.0
  0
LINE
  5
285C
330
18
100
AcDbEntity
  8
L-1
  6
DASHED2
 62
     3
100
AcDbLine
 10
117.5686261048424
 20
77.04182400284074
 30
0.0
 11
117.5686261048424
 21
78.24182400284079
 31
0.0
  0
ARC
  5
285D
330
18
100
AcDbEntity
  8
L-1
  6
CONTINUOUS
 62
     7
100
AcDbCircle
 10
118.0686261048423
 20
78.54182400284074
 30
0.0
 40
1.5
100
AcDbArc
 50
270.0
 51
0.0
  0
ARC
  5
285E
330
18
100
AcDbEntity
  8
L-1
  6
DASHED2
 62
     3
 48
0.2
100
AcDbCircle
 10
117.6686261048424
 20
78.74182400284084
 30
0.0
 40
0.5
100
AcDbArc
 50
270.0
 51
0.0
  0
LINE
  5
285F
330
18
100
AcDbEntity
  8
L-1
  6
DASHED2
 62
     3
 48
0.2
100
AcDbLine
 10
116.8686261048425
 20
101.1418240028407
 30
0.0
 11
118.1686261048424
 21
101.1418240028407
 31
0.0
  0
LINE
  5
2860
330
18
100
AcDbEntity
  8
L-1
  6
DASHED2
 62
     3
 48
0.2
100
AcDbLine
 10
116.8686261048425
 20
103.1418240028407
 30
0.0
 11
118.1686261048424
 21
103.1418240028407
 31
0.0
  0
DIMENSION
  5
2861
330
18
100
AcDbEntity
  8
L-2
  6
CONTINUOUS
100
AcDbDimension
  2
*D75
 10
65.89122915200665
 20
187.380367840067
 30
0.0
 11
64.39122915200664
 21
189.480367840067
 31
0.0
 70
    32
  3
CAD-STD
100
AcDbAlignedDimension
 13
62.89122915200664
 23
193.4360426341397
 33
0.0
 14
65.89122915200665
 24
193.4360426341398
 34
0.0
100
AcDbRotatedDimension
1001
ACAD
1000
DSTYLE
1002
{
1070
   340
1005
DF3
1002
}
  0
DIMENSION
  5
2862
330
18
100
AcDbEntity
  8
L-2
  6
CONTINUOUS
100
AcDbDimension
  2
*D76
 10
71.39122915200664
 20
210.6611399228397
 30
0.0
 11
64.39122915200664
 21
212.7611399228397
 31
0.0
 70
    32
  3
CAD-STD
100
AcDbAlignedDimension
 13
57.39122915200664
 23
202.9360426341397
 33
0.0
 14
71.39122915200664
 24
202.9360426341397
 34
0.0
100
AcDbRotatedDimension
1001
ACAD
1000
DSTYLE
1002
{
1070
   340
1005
DF3
1002
}
  0
LINE
  5
2863
330
18
100
AcDbEntity
  8
L-1
  6
DASHED2
 62
     3
 48
0.2
100
AcDbLine
 10
59.39122915200664
 20
203.0360426341398
 30
0.0
 11
69.39122915200659
 21
203.0360426341398
 31
0.0
  0
LINE
  5
2864
330
18
100
AcDbEntity
  8
L-1
  6
CONTINUOUS
 62
     7
100
AcDbLine
 10
58.89122915200664
 20
204.4360426341397
 30
0.0
 11
69.89122915200664
 21
204.4360426341397
 31
0.0
  0
LINE
  5
2865
330
18
100
AcDbEntity
  8
L-1
  6
CONTINUOUS
 62
     7
100
AcDbLine
 10
65.89122915200665
 20
201.7360426341397
 30
0.0
 11
71.39122915200664
 21
201.7360426341398
 31
0.0
  0
LINE
  5
2866
330
18
100
AcDbEntity
  8
L-1
  6
CONTINUOUS
 62
     7
100
AcDbLine
 10
69.39122915200653
 20
126.1418240028407
 30
0.0
 11
59.39122915200653
 21
126.1418240028409
 31
0.0
  0
LINE
  5
2867
330
18
100
AcDbEntity
  8
L-1
  6
CONTINUOUS
 62
     7
100
AcDbLine
 10
69.39122915200653
 20
128.1418240028407
 30
0.0
 11
59.39122915200653
 21
128.1418240028409
 31
0.0
  0
LINE
  5
2868
330
18
100
AcDbEntity
  8
L-1
  6
CONTINUOUS
 62
     7
100
AcDbLine
 10
69.39122915200653
 20
151.1418240028407
 30
0.0
 11
59.39122915200653
 21
151.1418240028409
 31
0.0
  0
LINE
  5
2869
330
18
100
AcDbEntity
  8
L-1
  6
CONTINUOUS
 62
     7
100
AcDbLine
 10
69.39122915200653
 20
153.1418240028407
 30
0.0
 11
59.39122915200653
 21
153.1418240028409
 31
0.0
  0
LINE
  5
286A
330
18
100
AcDbEntity
  8
L-1
  6
CONTINUOUS
 62
     7
100
AcDbLine
 10
70.89122915200653
 20
177.2418240028408
 30
0.0
 11
65.89122915200653
 21
177.2418240028407
 31
0.0
  0
LINE
  5
286B
330
18
100
AcDbEntity
  8
L-1
  6
CONTINUOUS
 62
     7
100
AcDbLine
 10
69.39122915200653
 20
176.0418240028408
 30
0.0
 11
59.39122915200653
 21
176.0418240028409
 31
0.0
  0
LINE
  5
286D
330
18
100
AcDbEntity
  8
L-1
  6
CONTINUOUS
 62
     7
100
AcDbLine
 10
59.39122915200653
 20
176.0418240028409
 30
0.0
 11
59.39122915200653
 21
153.1418240028409
 31
0.0
  0
LINE
  5
286E
330
18
100
AcDbEntity
  8
L-1
  6
CONTINUOUS
 62
     7
100
AcDbLine
 10
59.39122915200653
 20
151.1418240028409
 30
0.0
 11
59.39122915200653
 21
128.1418240028409
 31
0.0
  0
LINE
  5
2870
330
18
100
AcDbEntity
  8
L-1
  6
CONTINUOUS
 62
     7
100
AcDbLine
 10
66.89122915200624
 20
177.2418240028407
 30
0.0
 11
66.89122915200624
 21
176.0418240028408
 31
0.0
  0
LINE
  5
2871
330
18
100
AcDbEntity
  8
L-1
  6
CONTINUOUS
 62
     7
100
AcDbLine
 10
61.89122915200631
 20
177.2418240028407
 30
0.0
 11
61.89122915200624
 21
176.0418240028408
 31
0.0
  0
LINE
  5
2872
330
18
100
AcDbEntity
  8
L-1
  6
CONTINUOUS
 62
     7
100
AcDbLine
 10
65.89122915200653
 20
178.0418240028408
 30
0.0
 11
65.89122915200653
 21
176.0418240028408
 31
0.0
  0
LINE
  5
2873
330
18
100
AcDbEntity
  8
L-1
  6
CONTINUOUS
 62
     7
100
AcDbLine
 10
62.89122915200653
 20
178.0418240028408
 30
0.0
 11
62.89122915200653
 21
176.0418240028408
 31
0.0
  0
LINE
  5
2874
330
18
100
AcDbEntity
  8
L-1
  6
CONTINUOUS
 62
     7
100
AcDbLine
 10
62.89122915200653
 20
176.0418240028409
 30
0.0
 11
62.89122915200653
 21
175.5418240028408
 31
0.0
  0
LINE
  5
2875
330
18
100
AcDbEntity
  8
L-1
  6
CONTINUOUS
 62
     7
100
AcDbLine
 10
65.89122915200653
 20
176.0418240028408
 30
0.0
 11
65.89122915200653
 21
175.5418240028408
 31
0.0
  0
LINE
  5
2876
330
18
100
AcDbEntity
  8
L-1
  6
CONTINUOUS
 62
     7
100
AcDbLine
 10
62.89122915200653
 20
177.2418240028407
 30
0.0
 11
57.89122915200647
 21
177.2418240028407
 31
0.0
  0
ARC
  5
2877
330
18
100
AcDbEntity
  8
L-1
  6
CONTINUOUS
 62
     7
100
AcDbCircle
 10
57.89122915200653
 20
176.7418240028407
 30
0.0
 40
0.5
100
AcDbArc
 50
90.0
 51
180.0
  0
LINE
  5
2878
330
18
100
AcDbEntity
  8
L-1
  6
DASHED2
 62
     3
 48
0.2
100
AcDbLine
 10
65.89122915200653
 20
177.2418240028407
 30
0.0
 11
62.89122915200653
 21
177.2418240028407
 31
0.0
  0
LINE
  5
2879
330
18
100
AcDbEntity
  8
L-1
  6
CONTINUOUS
 62
     7
100
AcDbLine
 10
65.39122915200653
 20
178.5418240028408
 30
0.0
 11
63.39122915200653
 21
178.5418240028408
 31
0.0
  0
ARC
  5
287A
330
18
100
AcDbEntity
  8
L-1
  6
CONTINUOUS
 62
     7
100
AcDbCircle
 10
63.39122915200653
 20
178.0418240028408
 30
0.0
 40
0.5
100
AcDbArc
 50
90.0
 51
180.0
  0
LINE
  5
287B
330
18
100
AcDbEntity
  8
L-1
  6
CONTINUOUS
 62
     7
100
AcDbLine
 10
65.89122915200653
 20
177.2418240028407
 30
0.0
 11
65.89122915200653
 21
177.5418240028408
 31
0.0
  0
ARC
  5
287C
330
18
100
AcDbEntity
  8
L-1
  6
CONTINUOUS
 62
     7
100
AcDbCircle
 10
65.39122915200653
 20
178.0418240028408
 30
0.0
 40
0.5
100
AcDbArc
 50
0.0
 51
90.0
  0
LINE
  5
287D
330
18
100
AcDbEntity
  8
L-1
  6
CONTINUOUS
 62
     7
100
AcDbLine
 10
65.89122915200665
 20
202.4360426341397
 30
0.0
 11
65.89122915200665
 21
193.4360426341398
 31
0.0
  0
LINE
  5
287E
330
18
100
AcDbEntity
  8
L-1
  6
CONTINUOUS
 62
     7
100
AcDbLine
 10
62.89122915200664
 20
202.4360426341397
 30
0.0
 11
62.89122915200664
 21
193.4360426341397
 31
0.0
  0
LINE
  5
287F
330
18
100
AcDbEntity
  8
L-1
  6
CONTINUOUS
 62
     7
100
AcDbLine
 10
63.39122915200665
 20
192.9360426341397
 30
0.0
 11
65.3912291520067
 21
192.9360426341398
 31
0.0
  0
POINT
  5
2880
330
18
100
AcDbEntity
  8
DEFPOINTS
  6
BYBLOCK
 62
     0
100
AcDbPoint
 10
62.89122915200664
 20
193.4360426341397
 30
0.0
  0
POINT
  5
2881
330
18
100
AcDbEntity
  8
DEFPOINTS
  6
BYBLOCK
 62
     0
100
AcDbPoint
 10
62.89122915200664
 20
193.4360426341397
 30
0.0
  0
ARC
  5
2882
330
18
100
AcDbEntity
  8
L-1
  6
CONTINUOUS
 62
     7
100
AcDbCircle
 10
63.39122915200665
 20
193.4360426341397
 30
0.0
 40
0.5
100
AcDbArc
 50
180.0
 51
270.0000000000016
  0
POINT
  5
2883
330
18
100
AcDbEntity
  8
DEFPOINTS
  6
BYBLOCK
 62
     0
100
AcDbPoint
 10
65.89122915200665
 20
193.4360426341398
 30
0.0
  0
POINT
  5
2884
330
18
100
AcDbEntity
  8
DEFPOINTS
  6
BYBLOCK
 62
     0
100
AcDbPoint
 10
65.89122915200665
 20
193.4360426341398
 30
0.0
  0
ARC
  5
2885
330
18
100
AcDbEntity
  8
L-1
  6
CONTINUOUS
 62
     7
100
AcDbCircle
 10
65.39122915200664
 20
193.4360426341398
 30
0.0
 40
0.5
100
AcDbArc
 50
270.0000000000016
 51
0.0
  0
LINE
  5
2886
330
18
100
AcDbEntity
  8
L-1
  6
CONTINUOUS
 62
     7
100
AcDbLine
 10
62.89122915200664
 20
193.8360426341396
 30
0.0
 11
65.89122915200665
 21
193.8360426341398
 31
0.0
  0
LINE
  5
2887
330
18
100
AcDbEntity
  8
L-1
  6
CONTINUOUS
 62
     7
100
AcDbLine
 10
57.39122915200664
 20
201.7360426341397
 30
0.0
 11
62.89122915200664
 21
201.7360426341397
 31
0.0
  0
ARC
  5
2888
330
18
100
AcDbEntity
  8
L-1
  6
CONTINUOUS
 62
     7
100
AcDbCircle
 10
58.89122915200664
 20
202.9360426341397
 30
0.0
 40
1.5
100
AcDbArc
 50
90.0
 51
180.0000000000024
  0
LINE
  5
2889
330
18
100
AcDbEntity
  8
L-1
  6
DASHED2
 62
     3
 48
0.2
100
AcDbLine
 10
59.39122915200664
 20
201.7360426341397
 30
0.0
 11
59.39122915200664
 21
203.0360426341398
 31
0.0
  0
LINE
  5
288A
330
18
100
AcDbEntity
  8
L-1
  6
CONTINUOUS
 62
     7
100
AcDbLine
 10
57.39122915200664
 20
201.7360426341397
 30
0.0
 11
57.39122915200664
 21
202.9360426341397
 31
0.0
  0
POINT
  5
288B
330
18
100
AcDbEntity
  8
DEFPOINTS
  6
BYBLOCK
 62
     0
100
AcDbPoint
 10
61.89122915200664
 20
201.7360426341397
 30
0.0
  0
LINE
  5
288C
330
18
100
AcDbEntity
  8
L-1
  6
CONTINUOUS
 62
     7
100
AcDbLine
 10
61.89122915200664
 20
202.4360426341397
 30
0.0
 11
61.89122915200664
 21
201.7360426341397
 31
0.0
  0
LINE
  5
288D
330
18
100
AcDbEntity
  8
L-1
  6
CONTINUOUS
 62
     7
100
AcDbLine
 10
61.89122915200664
 20
202.4360426341397
 30
0.0
 11
62.89122915200664
 21
202.4360426341397
 31
0.0
  0
LINE
  5
288E
330
18
100
AcDbEntity
  8
L-1
  6
DASHED2
 62
     3
 48
0.2
100
AcDbLine
 10
62.89122915200664
 20
202.4360426341397
 30
0.0
 11
62.89122915200664
 21
203.0360426341398
 31
0.0
  0
POINT
  5
288F
330
18
100
AcDbEntity
  8
DEFPOINTS
  6
BYBLOCK
 62
     0
100
AcDbPoint
 10
66.89122915200664
 20
201.7360426341397
 30
0.0
  0
LINE
  5
2890
330
18
100
AcDbEntity
  8
L-1
  6
CONTINUOUS
 62
     7
100
AcDbLine
 10
66.89122915200664
 20
202.4360426341397
 30
0.0
 11
66.89122915200664
 21
201.7360426341398
 31
0.0
  0
LINE
  5
2891
330
18
100
AcDbEntity
  8
L-1
  6
CONTINUOUS
 62
     7
100
AcDbLine
 10
65.89122915200665
 20
202.4360426341398
 30
0.0
 11
66.89122915200664
 21
202.4360426341397
 31
0.0
  0
LINE
  5
2892
330
18
100
AcDbEntity
  8
L-1
  6
DASHED2
 62
     3
 48
0.2
100
AcDbLine
 10
65.89122915200658
 20
202.4360426341397
 30
0.0
 11
65.89122915200653
 21
203.0360426341398
 31
0.0
  0
LINE
  5
2893
330
18
100
AcDbEntity
  8
L-1
  6
DASHED2
 62
     3
 48
0.2
100
AcDbLine
 10
118.1686261048424
 20
153.1418240028408
 30
0.0
 11
118.1686261048424
 21
175.5418240028408
 31
0.0
  0
LINE
  5
2894
330
18
100
AcDbEntity
  8
L-1
  6
CONTINUOUS
 62
     7
100
AcDbLine
 10
69.39122915200653
 20
176.0418240028407
 30
0.0
 11
69.39122915200653
 21
153.1418240028407
 31
0.0
  0
LINE
  5
2895
330
18
100
AcDbEntity
  8
L-1
  6
CONTINUOUS
 62
     7
100
AcDbLine
 10
69.39122915200653
 20
151.1418240028407
 30
0.0
 11
69.39122915200653
 21
128.1418240028407
 31
0.0
  0
LINE
  5
2896
330
18
100
AcDbEntity
  8
L-1
  6
DASHED2
 62
     3
 48
0.2
100
AcDbLine
 10
118.1686261048424
 20
128.1418240028407
 30
0.0
 11
118.1686261048424
 21
151.1418240028407
 31
0.0
  0
LINE
  5
2897
330
18
100
AcDbEntity
  8
L-1
  6
DASHED2
 62
     3
 48
0.2
100
AcDbLine
 10
116.8686261048425
 20
128.1418240028407
 30
0.0
 11
118.1686261048424
 21
128.1418240028407
 31
0.0
  0
LINE
  5
2898
330
18
100
AcDbEntity
  8
L-1
  6
DASHED2
 62
     3
 48
0.2
100
AcDbLine
 10
116.8686261048425
 20
126.1418240028407
 30
0.0
 11
118.1686261048424
 21
126.1418240028407
 31
0.0
  0
LINE
  5
2899
330
18
100
AcDbEntity
  8
L-1
  6
DASHED2
 62
     3
 48
0.2
100
AcDbLine
 10
116.8686261048425
 20
153.1418240028407
 30
0.0
 11
118.1686261048424
 21
153.1418240028407
 31
0.0
  0
LINE
  5
289A
330
18
100
AcDbEntity
  8
L-1
  6
DASHED2
 62
     3
 48
0.2
100
AcDbLine
 10
116.8686261048425
 20
151.1418240028407
 30
0.0
 11
118.1686261048424
 21
151.1418240028407
 31
0.0
  0
ARC
  5
289B
330
18
100
AcDbEntity
  8
L-1
  6
CONTINUOUS
 62
     7
100
AcDbCircle
 10
70.89122915200653
 20
176.7418240028407
 30
0.0
 40
0.5
100
AcDbArc
 50
0.0
 51
90.0
  0
ARC
  5
289C
330
18
100
AcDbEntity
  8
L-1
  6
CONTINUOUS
 62
     7
100
AcDbCircle
 10
69.89122915200664
 20
202.9360426341397
 30
0.0
 40
1.5
100
AcDbArc
 50
0.0
 51
90.0
  0
LINE
  5
289D
330
18
100
AcDbEntity
  8
L-1
  6
CONTINUOUS
 62
     7
100
AcDbLine
 10
71.39122915200664
 20
201.7360426341398
 30
0.0
 11
71.39122915200664
 21
202.9360426341397
 31
0.0
  0
LINE
  5
289E
330
18
100
AcDbEntity
  8
L-1
  6
DASHED2
 62
     3
 48
0.2
100
AcDbLine
 10
69.3912291520067
 20
201.7360426341398
 30
0.0
 11
69.39122915200659
 21
203.0360426341398
 31
0.0
  0
DIMENSION
  5
289F
330
18
100
AcDbEntity
  8
L-2
  6
CONTINUOUS
100
AcDbDimension
  2
*D77
 10
108.8686261048425
 20
185.6673251789331
 30
0.0
 11
114.2186261048424
 21
187.767325178933
 31
0.0
 70
    32
  3
CAD-STD
100
AcDbAlignedDimension
 13
119.5686261048424
 23
175.7418240028418
 33
0.0
 14
108.8686261048425
 24
178.0418240028408
 34
0.0
100
AcDbRotatedDimension
1001
ACAD
1000
DSTYLE
1002
{
1070
   340
1005
DF3
1002
}
  0
LINE
  5
28A1
330
18
100
AcDbEntity
  8
L-1
  6
DASHED2
 62
     3
100
AcDbLine
 10
116.8686261048425
 20
176.0418240028408
 30
0.0
 11
117.6686261048424
 21
176.0418240028408
 31
0.0
  0
LINE
  5
28A2
330
18
100
AcDbEntity
  8
L-1
  6
CONTINUOUS
 62
     7
100
AcDbLine
 10
117.9241634592515
 20
177.2418240028408
 30
0.0
 11
109.7686261048425
 21
177.2418240028408
 31
0.0
  0
LINE
  5
28A3
330
18
100
AcDbEntity
  8
L-1
  6
CONTINUOUS
 62
     7
100
AcDbLine
 10
108.8686261048425
 20
178.0418240028408
 30
0.0
 11
108.8686261048425
 21
176.1277463190015
 31
0.0
  0
LINE
  5
28A4
330
18
100
AcDbEntity
  8
L-1
  6
CONTINUOUS
 62
     7
100
AcDbLine
 10
116.8686261048425
 20
176.0418240028408
 30
0.0
 11
109.7686261048419
 21
176.0418240028408
 31
0.0
  0
LINE
  5
28A5
330
18
100
AcDbEntity
  8
L-1
  6
CONTINUOUS
 62
     7
100
AcDbLine
 10
109.7686261048425
 20
176.0418240028408
 30
0.0
 11
108.8686261048425
 21
176.1277463190015
 31
0.0
  0
POINT
  5
28A6
330
18
100
AcDbEntity
  8
DEFPOINTS
  6
BYBLOCK
 62
     0
100
AcDbPoint
 10
109.7686261048425
 20
176.0418240028408
 30
0.0
  0
POINT
  5
28A7
330
18
100
AcDbEntity
  8
DEFPOINTS
  6
BYBLOCK
 62
     0
100
AcDbPoint
 10
112.6686261048416
 20
176.0418240028408
 30
0.0
  0
ARC
  5
28A8
330
18
100
AcDbEntity
  8
L-1
  6
CONTINUOUS
 62
     7
100
AcDbCircle
 10
109.3686261048425
 20
178.0418240028408
 30
0.0
 40
0.5
100
AcDbArc
 50
90.0
 51
180.0
  0
POINT
  5
28A9
330
18
100
AcDbEntity
  8
DEFPOINTS
  6
BYBLOCK
 62
     0
100
AcDbPoint
 10
108.8686261048425
 20
178.5418240028408
 30
0.0
  0
POINT
  5
28AA
330
18
100
AcDbEntity
  8
DEFPOINTS
  6
BYBLOCK
 62
     0
100
AcDbPoint
 10
109.7686261048426
 20
177.2418240028408
 30
0.0
  0
LINE
  5
28AB
330
18
100
AcDbEntity
  8
L-1
  6
CONTINUOUS
 62
     7
100
AcDbLine
 10
109.7686261048426
 20
177.2418240028407
 30
0.0
 11
109.7686261048426
 21
178.5418240028408
 31
0.0
  0
LINE
  5
28AC
330
18
100
AcDbEntity
  8
L-1
  6
CONTINUOUS
 62
     7
100
AcDbLine
 10
109.7686261048426
 20
178.5418240028408
 30
0.0
 11
109.3686261048425
 21
178.5418240028407
 31
0.0
  0
POINT
  5
28AD
330
18
100
AcDbEntity
  8
DEFPOINTS
  6
BYBLOCK
 62
     0
100
AcDbPoint
 10
116.8686261048425
 20
177.2418240028408
 30
0.0
  0
ARC
  5
28AE
330
18
100
AcDbEntity
  8
L-1
  6
CONTINUOUS
 62
     7
100
AcDbCircle
 10
117.89639478205
 20
175.5599618370092
 30
0.0
 40
1.682091389993235
100
AcDbArc
 50
6.206762783406862
 51
90.94590596658681
  0
ARC
  5
28AF
330
18
100
AcDbEntity
  8
L-1
  6
DASHED2
 62
     3
100
AcDbCircle
 10
117.6686261048424
 20
175.5418240028408
 30
0.0
 40
0.5
100
AcDbArc
 50
0.0
 51
90.0
  0
POINT
  5
28B0
330
18
100
AcDbEntity
  8
DEFPOINTS
  6
BYBLOCK
 62
     0
100
AcDbPoint
 10
119.5686261048424
 20
183.7292096820283
 30
0.0
  0
ENDSEC
  0
SECTION
  2
OBJECTS
  0
DICTIONARY
  5
C
330
0
100
AcDbDictionary
  3
ACAD_GROUP
350
D
  3
ACAD_LAYOUT
350
4B
  3
ACAD_MLINESTYLE
350
E
  3
ACAD_PLOTSETTINGS
350
4C
1001
ACAD
1000
TREAT_AS_HARD
1070
     0
1000
TREAT_AS_HARD
1070
     0
1000
TREAT_AS_HARD
1070
     0
1000
TREAT_AS_HARD
1070
     0
1000
TREAT_AS_HARD
1070
     0
  0
DICTIONARY
  5
ED0
330
18
100
AcDbDictionary
  3
ACAD_LAYOUTSELFREF
350
295E
1001
ACAD
1000
TREAT_AS_HARD
1070
     1
1000
TREAT_AS_HARD
1070
     1
1000
TREAT_AS_HARD
1070
     0
1000
TREAT_AS_HARD
1070
     1
  0
DICTIONARY
  5
ECE
330
15
100
AcDbDictionary
  3
ACAD_LAYOUTSELFREF
350
295D
1001
ACAD
1000
TREAT_AS_HARD
1070
     1
1000
TREAT_AS_HARD
1070
     1
1000
TREAT_AS_HARD
1070
     0
1000
TREAT_AS_HARD
1070
     1
  0
DICTIONARY
  5
D
102
{ACAD_REACTORS
330
C
102
}
330
C
100
AcDbDictionary
1001
ACAD
1000
TREAT_AS_HARD
1070
     0
1000
TREAT_AS_HARD
1070
     0
1000
TREAT_AS_HARD
1070
     0
1000
TREAT_AS_HARD
1070
     0
1000
TREAT_AS_HARD
1070
     0
  0
DICTIONARY
  5
4B
102
{ACAD_REACTORS
330
C
102
}
330
C
100
AcDbDictionary
1001
ACAD
1000
TREAT_AS_HARD
1070
     0
1000
TREAT_AS_HARD
1070
     0
1000
TREAT_AS_HARD
1070
     0
1000
TREAT_AS_HARD
1070
     0
1000
TREAT_AS_HARD
1070
     0
  0
DICTIONARY
  5
E
102
{ACAD_REACTORS
330
C
102
}
330
C
100
AcDbDictionary
  3
STANDARD
350
1B
1001
ACAD
1000
TREAT_AS_HARD
1070
     0
1000
TREAT_AS_HARD
1070
     0
1000
TREAT_AS_HARD
1070
     0
1000
TREAT_AS_HARD
1070
     0
1000
TREAT_AS_HARD
1070
     0
  0
DICTIONARY
  5
4C
102
{ACAD_REACTORS
330
C
102
}
330
C
100
AcDbDictionary
  3
A2
350
5E
  3
A3
350
5F
  3
A4
350
60
1001
ACAD
1000
TREAT_AS_HARD
1070
     0
1000
TREAT_AS_HARD
1070
     0
1000
TREAT_AS_HARD
1070
     0
1000
TREAT_AS_HARD
1070
     0
1000
TREAT_AS_HARD
1070
     0
  0
XRECORD
  5
295E
102
{ACAD_REACTORS
330
ED0
102
}
330
ED0
100
AcDbXrecord
340
18
  0
XRECORD
  5
295D
102
{ACAD_REACTORS
330
ECE
102
}
330
ECE
100
AcDbXrecord
340
15
  0
MLINESTYLE
  5
1B
102
{ACAD_REACTORS
330
E
102
}
330
E
100
AcDbMlineStyle
  2
STANDARD
 70
     0
  3

 62
     0
 51
90.0
 52
90.0
 71
     2
 49
0.5
 62
   256
  6
BYLAYER
 49
-0.5
 62
   256
  6
BYLAYER
  0
PLOTSETTINGS
  5
5E
102
{ACAD_REACTORS
330
4C
102
}
330
4C
100
AcDbPlotSettings
  1
A2
  2
Graphtec JC8100-A2.pc3
  4
User260
  6

 40
21.67819404602048
 41
6.649852275848387
 42
6.57928466796875
 43
6.649871826171875
 44
593.9366455078125
 45
419.9466552734373
 46
0.0
 47
-3.0
 48
0.0
 49
0.0
140
0.0
141
0.0
142
1.0
143
1.0
 70
  1712
 72
     1
 73
     0
 74
     0
  7
JC8100.ctb
 75
    16
147
1.0
148
0.0
149
0.0
  0
PLOTSETTINGS
  5
5F
102
{ACAD_REACTORS
330
4C
102
}
330
4C
100
AcDbPlotSettings
  1
A3
  2
Graphtec JC8100-A3.pc3
  4
User261
  6

 40
21.67819404602048
 41
6.649852275848387
 42
6.649871826171875
 43
6.649871826171875
 44
419.9466552734373
 45
296.9683227539062
 46
0.0
 47
0.0
 48
0.0
 49
0.0
140
0.0
141
0.0
142
1.0
143
1.0
 70
  1712
 72
     1
 73
     0
 74
     0
  7
JC8100.ctb
 75
    16
147
1.0
148
0.0
149
0.0
  0
PLOTSETTINGS
  5
60
102
{ACAD_REACTORS
330
4C
102
}
330
4C
100
AcDbPlotSettings
  1
A4
  2
Graphtec JC8100-A4.pc3
  4
User262
  6

 40
21.67819404602048
 41
6.649852275848387
 42
6.649856567382812
 43
6.649871826171875
 44
209.9733276367186
 45
296.9683227539062
 46
0.0
 47
0.0
 48
0.0
 49
0.0
140
0.0
141
0.0
142
1.0
143
1.0
 70
  1712
 72
     1
 73
     1
 74
     0
  7
JC8100.ctb
 75
    16
147
1.0
148
0.0
149
0.0
  0
ENDSEC
  0
EOF
