  0
SECTION
  2
HEADER
  9
$ACADVER
  1
AC1012
  9
$DWGCODEPAGE
  3
dos932
  9
$INSBASE
 10
0.0
 20
0.0
 30
0.0
  9
$EXTMIN
 10
5.97401928428178
 20
5.992407396309545
 30
-0.0000000000000153
  9
$EXTMAX
 10
386.5007081280534
 20
275.0002747883915
 30
0.0
  9
$LIMMIN
 10
0.0
 20
0.0
  9
$LIMMAX
 10
385.0
 20
275.0
  9
$ORTHOMODE
 70
     1
  9
$REGENMODE
 70
     1
  9
$FILLMODE
 70
     1
  9
$QTEXTMODE
 70
     0
  9
$MIRRTEXT
 70
     1
  9
$DRAGMODE
 70
     2
  9
$LTSCALE
 40
1.0
  9
$OSMODE
 70
  3071
  9
$ATTMODE
 70
     1
  9
$TEXTSIZE
 40
4.0
  9
$TRACEWID
 40
1.0
  9
$TEXTSTYLE
  7
MSゴシック
  9
$CLAYER
  8
L-1
  9
$CELTYPE
  6
CONTINUOUS
  9
$CECOLOR
 62
     7
  9
$CELTSCALE
 40
1.0
  9
$DELOBJ
 70
     1
  9
$DISPSILH
 70
     0
  9
$DIMSCALE
 40
1.0
  9
$DIMASZ
 40
2.5
  9
$DIMEXO
 40
0.5
  9
$DIMDLI
 40
8.0
  9
$DIMRND
 40
0.0
  9
$DIMDLE
 40
0.0
  9
$DIMEXE
 40
1.0
  9
$DIMTP
 40
0.0
  9
$DIMTM
 40
0.0
  9
$DIMTXT
 40
3.2
  9
$DIMCEN
 40
-0.5
  9
$DIMTSZ
 40
0.0
  9
$DIMTOL
 70
     0
  9
$DIMLIM
 70
     0
  9
$DIMTIH
 70
     0
  9
$DIMTOH
 70
     0
  9
$DIMSE1
 70
     0
  9
$DIMSE2
 70
     0
  9
$DIMTAD
 70
     1
  9
$DIMZIN
 70
     8
  9
$DIMBLK
  1

  9
$DIMASO
 70
     1
  9
$DIMSHO
 70
     1
  9
$DIMPOST
  1

  9
$DIMAPOST
  1

  9
$DIMALT
 70
     0
  9
$DIMALTD
 70
     2
  9
$DIMALTF
 40
0.0394
  9
$DIMLFAC
 40
1.0
  9
$DIMTOFL
 70
     1
  9
$DIMTVP
 40
0.0
  9
$DIMTIX
 70
     0
  9
$DIMSOXD
 70
     0
  9
$DIMSAH
 70
     1
  9
$DIMBLK1
  1
OPEN
  9
$DIMBLK2
  1
OPEN
  9
$DIMSTYLE
  2
CAD-STD
  9
$DIMCLRD
 70
     4
  9
$DIMCLRE
 70
     4
  9
$DIMCLRT
 70
     2
  9
$DIMTFAC
 40
0.625
  9
$DIMGAP
 40
0.7
  9
$DIMJUST
 70
     0
  9
$DIMSD1
 70
     0
  9
$DIMSD2
 70
     0
  9
$DIMTOLJ
 70
     1
  9
$DIMTZIN
 70
     8
  9
$DIMALTZ
 70
     0
  9
$DIMALTTZ
 70
     0
  9
$DIMFIT
 70
     3
  9
$DIMUPT
 70
     0
  9
$DIMUNIT
 70
     2
  9
$DIMDEC
 70
     4
  9
$DIMTDEC
 70
     4
  9
$DIMALTU
 70
     2
  9
$DIMALTTD
 70
     2
  9
$DIMTXSTY
  7
MSゴシック
  9
$DIMAUNIT
 70
     0
  9
$LUNITS
 70
     2
  9
$LUPREC
 70
     4
  9
$SKETCHINC
 40
1.0
  9
$FILLETRAD
 40
2.0
  9
$AUNITS
 70
     0
  9
$AUPREC
 70
     0
  9
$MENU
  1
acad
  9
$ELEVATION
 40
0.0
  9
$PELEVATION
 40
0.0
  9
$THICKNESS
 40
0.0
  9
$LIMCHECK
 70
     0
  9
$BLIPMODE
 70
     0
  9
$CHAMFERA
 40
2.0
  9
$CHAMFERB
 40
2.0
  9
$CHAMFERC
 40
0.0
  9
$CHAMFERD
 40
0.0
  9
$SKPOLY
 70
     0
  9
$TDCREATE
 40
2451957.462087615
  9
$TDUPDATE
 40
2455658.435620289
  9
$TDINDWG
 40
0.7286776968
  9
$TDUSRTIMER
 40
0.7286776968
  9
$USRTIMER
 70
     1
  9
$ANGBASE
 50
0.0
  9
$ANGDIR
 70
     0
  9
$PDMODE
 70
     0
  9
$PDSIZE
 40
0.0
  9
$PLINEWID
 40
0.0
  9
$COORDS
 70
     0
  9
$SPLFRAME
 70
     0
  9
$SPLINETYPE
 70
     6
  9
$SPLINESEGS
 70
     8
  9
$ATTDIA
 70
     0
  9
$ATTREQ
 70
     1
  9
$HANDLING
 70
     1
  9
$HANDSEED
  5
14D3
  9
$SURFTAB1
 70
     6
  9
$SURFTAB2
 70
     6
  9
$SURFTYPE
 70
     6
  9
$SURFU
 70
     6
  9
$SURFV
 70
     6
  9
$UCSNAME
  2

  9
$UCSORG
 10
0.0
 20
0.0
 30
0.0
  9
$UCSXDIR
 10
1.0
 20
0.0
 30
0.0
  9
$UCSYDIR
 10
0.0
 20
1.0
 30
0.0
  9
$PUCSNAME
  2

  9
$PUCSORG
 10
0.0
 20
0.0
 30
0.0
  9
$PUCSXDIR
 10
1.0
 20
0.0
 30
0.0
  9
$PUCSYDIR
 10
0.0
 20
1.0
 30
0.0
  9
$USERI1
 70
     0
  9
$USERI2
 70
     0
  9
$USERI3
 70
     0
  9
$USERI4
 70
     0
  9
$USERI5
 70
     0
  9
$USERR1
 40
0.0
  9
$USERR2
 40
0.0
  9
$USERR3
 40
0.0
  9
$USERR4
 40
0.0
  9
$USERR5
 40
0.0
  9
$WORLDVIEW
 70
     1
  9
$SHADEDGE
 70
     3
  9
$SHADEDIF
 70
    70
  9
$TILEMODE
 70
     1
  9
$MAXACTVP
 70
    16
  9
$PINSBASE
 10
0.0
 20
0.0
 30
0.0
  9
$PLIMCHECK
 70
     0
  9
$PEXTMIN
 10
1.000000000000000E+20
 20
1.000000000000000E+20
 30
1.000000000000000E+20
  9
$PEXTMAX
 10
-1.000000000000000E+20
 20
-1.000000000000000E+20
 30
-1.000000000000000E+20
  9
$PLIMMIN
 10
0.0
 20
0.0
  9
$PLIMMAX
 10
420.0
 20
297.0
  9
$UNITMODE
 70
     0
  9
$VISRETAIN
 70
     0
  9
$PLINEGEN
 70
     0
  9
$PSLTSCALE
 70
     1
  9
$TREEDEPTH
 70
  3020
  9
$PICKSTYLE
 70
     1
  9
$CMLSTYLE
  2
STANDARD
  9
$CMLJUST
 70
     0
  9
$CMLSCALE
 40
1.0
  9
$SAVEIMAGES
 70
     1
  0
ENDSEC
  0
SECTION
  2
CLASSES
  0
CLASS
  1
LWPOLYLINE
  2
AcDbPolyline
  3
AutoCAD 2000
 90
    32768
280
     0
281
     1
  0
CLASS
  1
ACDBDICTIONARYWDFLT
  2
AcDbDictionaryWithDefault
  3
AutoCAD 2000
 90
    32768
280
     0
281
     0
  0
CLASS
  1
ACDBPLACEHOLDER
  2
AcDbPlaceHolder
  3
AutoCAD 2000
 90
    32768
280
     0
281
     0
  0
CLASS
  1
LAYOUT
  2
AcDbLayout
  3
AutoCAD 2000
 90
    32768
280
     0
281
     0
  0
CLASS
  1
LONG_TRANSACTION
  2
AcDbLongTransaction
  3
AutoCAD 2000
 90
    32768
280
     0
281
     0
  0
CLASS
  1
LWPOLYLINE
  2
AcDbPolyline
  3
AutoCAD 2000
 90
    32768
280
     0
281
     1
  0
CLASS
  1
HATCH
  2
AcDbHatch
  3
AutoCAD 2000
 90
    32768
280
     0
281
     1
  0
CLASS
  1
XRECORD
  2
AcDbXrecord
  3
AutoCAD 2000
 90
    32768
280
     0
281
     0
  0
CLASS
  1
PLOTSETTINGS
  2
AcDbPlotSettings
  3
AutoCAD 2000
 90
    32768
280
     0
281
     0
  0
CLASS
  1
DICTIONARYVAR
  2
AcDbDictionaryVar
  3
AutoCAD 2000
 90
    32768
280
     0
281
     0
  0
CLASS
  1
LONG_TRANSACTION
  2
AcDbLongTransaction
  3
AutoCAD 2000
 90
    32768
280
     0
281
     0
  0
CLASS
  1
LWPOLYLINE
  2
AcDbPolyline
  3
AutoCAD 2000
 90
    32768
280
     0
281
     1
  0
CLASS
  1
HATCH
  2
AcDbHatch
  3
AutoCAD 2000
 90
    32768
280
     0
281
     1
  0
CLASS
  1
XRECORD
  2
AcDbXrecord
  3
AutoCAD 2000
 90
    32768
280
     0
281
     0
  0
ENDSEC
  0
SECTION
  2
TABLES
  0
TABLE
  2
VPORT
  5
8
330
0
100
AcDbSymbolTable
 70
     2
  0
VPORT
  5
14D0
330
8
100
AcDbSymbolTableRecord
100
AcDbViewportTableRecord
  2
*ACTIVE
 70
     0
 10
0.0
 20
0.0
 11
1.0
 21
1.0
 12
196.2373637061676
 22
140.4963410923505
 13
0.0
 23
0.0
 14
10.0
 24
10.0
 15
10.0
 25
10.0
 16
0.0
 26
0.0
 36
1.0
 17
0.0
 27
0.0
 37
0.0
 40
271.611169334586
 41
2.182552504038772
 42
50.0
 43
0.0
 44
0.0
 50
0.0
 51
0.0
 71
     0
 72
   100
 73
     1
 74
     0
 75
     0
 76
     0
 77
     0
 78
     0
  0
ENDTAB
  0
TABLE
  2
LTYPE
  5
5
330
0
100
AcDbSymbolTable
 70
     4
  0
LTYPE
  5
12
330
5
100
AcDbSymbolTableRecord
100
AcDbLinetypeTableRecord
  2
BYBLOCK
 70
     0
  3

 72
    65
 73
     0
 40
0.0
  0
LTYPE
  5
13
330
5
100
AcDbSymbolTableRecord
100
AcDbLinetypeTableRecord
  2
BYLAYER
 70
     0
  3

 72
    65
 73
     0
 40
0.0
  0
LTYPE
  5
14
330
5
100
AcDbSymbolTableRecord
100
AcDbLinetypeTableRecord
  2
CONTINUOUS
 70
     0
  3
Solid line
 72
    65
 73
     0
 40
0.0
  0
LTYPE
  5
1F
330
5
100
AcDbSymbolTableRecord
100
AcDbLinetypeTableRecord
  2
CENTER2
 70
     0
  3
___ _ ___ _ ___ _ ___ _ ___ _ ___ _ ___ _ ___ _
 72
    65
 73
     4
 40
28.57499999999999
 49
19.05
 74
     0
 49
-3.174999999999999
 74
     0
 49
3.174999999999999
 74
     0
 49
-3.174999999999999
 74
     0
  0
LTYPE
  5
20
330
5
100
AcDbSymbolTableRecord
100
AcDbLinetypeTableRecord
  2
DASHED2
 70
     0
  3
_ _ _ _ _ _ _ _ _ _ _ _ _ _ _ _ _ _ _ _ _ _ _ _
 72
    65
 73
     2
 40
9.524999999999998
 49
6.349999999999999
 74
     0
 49
-3.174999999999999
 74
     0
  0
LTYPE
  5
4F
330
5
100
AcDbSymbolTableRecord
100
AcDbLinetypeTableRecord
  2
PHANTOM2
 70
     0
  3
Phantom (.5x) ___ _ _ ___ _ _ ___ _ _ ___ _ _
 72
    65
 73
     6
 40
31.75
 49
15.875
 74
     0
 49
-3.174999999999999
 74
     0
 49
3.174999999999999
 74
     0
 49
-3.174999999999999
 74
     0
 49
3.174999999999999
 74
     0
 49
-3.174999999999999
 74
     0
  0
ENDTAB
  0
TABLE
  2
LAYER
  5
2
330
0
100
AcDbSymbolTable
 70
     6
  0
LAYER
  5
F
330
2
100
AcDbSymbolTableRecord
100
AcDbLayerTableRecord
  2
0
 70
     0
 62
     7
  6
CONTINUOUS
  0
LAYER
  5
24
330
2
100
AcDbSymbolTableRecord
100
AcDbLayerTableRecord
  2
L-1
 70
     0
 62
     7
  6
CONTINUOUS
  0
LAYER
  5
25
330
2
100
AcDbSymbolTableRecord
100
AcDbLayerTableRecord
  2
L-2
 70
     0
 62
     7
  6
CONTINUOUS
  0
LAYER
  5
26
330
2
100
AcDbSymbolTableRecord
100
AcDbLayerTableRecord
  2
L-3
 70
     0
 62
     7
  6
CONTINUOUS
  0
LAYER
  5
27
330
2
100
AcDbSymbolTableRecord
100
AcDbLayerTableRecord
  2
L-4
 70
     0
 62
     7
  6
CONTINUOUS
  0
LAYER
  5
28
330
2
100
AcDbSymbolTableRecord
100
AcDbLayerTableRecord
  2
DEFPOINTS
 70
     0
 62
     7
  6
CONTINUOUS
  0
ENDTAB
  0
TABLE
  2
STYLE
  5
3
330
0
100
AcDbSymbolTable
 70
     6
  0
STYLE
  5
10
330
3
100
AcDbSymbolTableRecord
100
AcDbTextStyleTableRecord
  2
STANDARD
 70
     0
 40
0.0
 41
1.0
 50
0.0
 71
     0
 42
3.5
  3
txt
  4

  0
STYLE
  5
1D
330
3
100
AcDbSymbolTableRecord
100
AcDbTextStyleTableRecord
  2
BGS
 70
     0
 40
0.0
 41
1.0
 50
0.0
 71
     0
 42
3.0
  3
SIMPLEX.SHX
  4
BGSGS.SHX
  0
STYLE
  5
1E
330
3
100
AcDbSymbolTableRecord
100
AcDbTextStyleTableRecord
  2
TATEGAKI
 70
     4
 40
0.0
 41
1.0
 50
0.0
 71
     0
 42
3.5
  3
SIMPLEX.SHX
  4
BGSGS.SHX
  0
STYLE
  5
4E
330
3
100
AcDbSymbolTableRecord
100
AcDbTextStyleTableRecord
  2

 70
     1
 40
0.0
 41
1.0
 50
0.0
 71
     0
 42
3.5
  3
ltypeshp.shx
  4

  0
STYLE
  5
6E
330
3
100
AcDbSymbolTableRecord
100
AcDbTextStyleTableRecord
  2
SIMPLEX
 70
     0
 40
0.0
 41
1.0
 50
0.0
 71
     0
 42
0.2
  3
simplex
  4
bigfont
  0
STYLE
  5
13BD
330
3
100
AcDbSymbolTableRecord
100
AcDbTextStyleTableRecord
  2
MSゴシック
 70
     0
 40
0.0
 41
1.0
 50
0.0
 71
     0
 42
4.0
  3
MS Gothic.ttf
  4

1001
ACAD
1000
MS Gothic
1071
    32817
  0
ENDTAB
  0
TABLE
  2
VIEW
  5
6
330
0
100
AcDbSymbolTable
 70
     0
  0
ENDTAB
  0
TABLE
  2
UCS
  5
7
330
0
100
AcDbSymbolTable
 70
     0
  0
ENDTAB
  0
TABLE
  2
APPID
  5
9
330
0
100
AcDbSymbolTable
 70
     1
  0
APPID
  5
11
330
9
100
AcDbSymbolTableRecord
100
AcDbRegAppTableRecord
  2
ACAD
 70
     0
  0
ENDTAB
  0
TABLE
  2
DIMSTYLE
  5
A
330
0
100
AcDbSymbolTable
 70
     1
  0
DIMSTYLE
105
23
102
{ACAD_REACTORS
330
6D7
330
6D8
330
6D9
330
6DA
330
6E5
330
6FE
330
753
330
75A
330
121B
330
1240
330
124D
330
12A3
330
12B0
330
12EF
330
12F3
102
}
330
A
100
AcDbSymbolTableRecord
100
AcDbDimStyleTableRecord
  2
CAD-STD
 70
     0
  3

  4

  5

  6
OPEN
  7
OPEN
 40
1.0
 41
2.5
 42
0.5
 43
8.0
 44
1.0
 45
0.0
 46
0.0
 47
0.0
 48
0.0
140
3.2
141
-0.5
142
0.0
143
0.0394
144
1.0
145
0.0
146
0.625
147
0.7
 71
     0
 72
     0
 73
     0
 74
     0
 75
     0
 76
     0
 77
     1
 78
     8
170
     0
171
     2
172
     1
173
     1
174
     0
175
     0
176
     4
177
     4
178
     2
270
     2
271
     4
272
     4
273
     2
274
     2
340
13BD
275
     0
280
     0
281
     0
282
     0
283
     1
284
     8
285
     0
286
     0
287
     3
288
     0
  0
ENDTAB
  0
TABLE
  2
BLOCK_RECORD
  5
1
330
0
100
AcDbSymbolTable
 70
    20
  0
BLOCK_RECORD
  5
18
102
{ACAD_XDICTIONARY
360
138F
102
}
330
1
100
AcDbSymbolTableRecord
100
AcDbBlockTableRecord
  2
*MODEL_SPACE
  0
BLOCK_RECORD
  5
15
102
{ACAD_XDICTIONARY
360
138D
102
}
330
1
100
AcDbSymbolTableRecord
100
AcDbBlockTableRecord
  2
*PAPER_SPACE
  0
BLOCK_RECORD
  5
1C
330
1
100
AcDbSymbolTableRecord
100
AcDbBlockTableRecord
  2
ADARROW
  0
BLOCK_RECORD
  5
35
330
1
100
AcDbSymbolTableRecord
100
AcDbBlockTableRecord
  2
_OPEN
  0
BLOCK_RECORD
  5
66
330
1
100
AcDbSymbolTableRecord
100
AcDbBlockTableRecord
  2
TK
  0
BLOCK_RECORD
  5
6F
330
1
100
AcDbSymbolTableRecord
100
AcDbBlockTableRecord
  2
A3-WAKU
  0
BLOCK_RECORD
  5
51A
330
1
100
AcDbSymbolTableRecord
100
AcDbBlockTableRecord
  2
A$C3A8D0999
  0
BLOCK_RECORD
  5
676
330
1
100
AcDbSymbolTableRecord
100
AcDbBlockTableRecord
  2
*D5
  0
BLOCK_RECORD
  5
682
330
1
100
AcDbSymbolTableRecord
100
AcDbBlockTableRecord
  2
*D6
  0
BLOCK_RECORD
  5
68E
330
1
100
AcDbSymbolTableRecord
100
AcDbBlockTableRecord
  2
*D7
  0
BLOCK_RECORD
  5
69A
330
1
100
AcDbSymbolTableRecord
100
AcDbBlockTableRecord
  2
*D8
  0
BLOCK_RECORD
  5
6A6
330
1
100
AcDbSymbolTableRecord
100
AcDbBlockTableRecord
  2
*D9
  0
BLOCK_RECORD
  5
6B2
330
1
100
AcDbSymbolTableRecord
100
AcDbBlockTableRecord
  2
*D10
  0
BLOCK_RECORD
  5
6BE
330
1
100
AcDbSymbolTableRecord
100
AcDbBlockTableRecord
  2
*D11
  0
BLOCK_RECORD
  5
6CA
330
1
100
AcDbSymbolTableRecord
100
AcDbBlockTableRecord
  2
*D12
  0
BLOCK_RECORD
  5
6D6
330
1
100
AcDbSymbolTableRecord
100
AcDbBlockTableRecord
  2
A$C49F21E15
  0
BLOCK_RECORD
  5
121C
330
1
100
AcDbSymbolTableRecord
100
AcDbBlockTableRecord
  2
*D14
  0
BLOCK_RECORD
  5
1241
330
1
100
AcDbSymbolTableRecord
100
AcDbBlockTableRecord
  2
*D15
  0
BLOCK_RECORD
  5
124E
330
1
100
AcDbSymbolTableRecord
100
AcDbBlockTableRecord
  2
*D16
  0
BLOCK_RECORD
  5
12A4
330
1
100
AcDbSymbolTableRecord
100
AcDbBlockTableRecord
  2
*D17
  0
BLOCK_RECORD
  5
12B1
330
1
100
AcDbSymbolTableRecord
100
AcDbBlockTableRecord
  2
*D18
  0
BLOCK_RECORD
  5
13A0
330
1
100
AcDbSymbolTableRecord
100
AcDbBlockTableRecord
  2
WAKU-A3
  0
ENDTAB
  0
ENDSEC
  0
SECTION
  2
BLOCKS
  0
BLOCK
  5
2B
330
18
100
AcDbEntity
  8
0
100
AcDbBlockBegin
  2
*MODEL_SPACE
 70
     0
 10
0.0
 20
0.0
 30
0.0
  3
*MODEL_SPACE
  1

  0
ENDBLK
  5
2C
330
18
100
AcDbEntity
  8
0
100
AcDbBlockEnd
  0
BLOCK
  5
29
330
15
100
AcDbEntity
 67
     1
  8
0
100
AcDbBlockBegin
  2
*PAPER_SPACE
 70
     0
 10
0.0
 20
0.0
 30
0.0
  3
*PAPER_SPACE
  1

  0
ENDBLK
  5
2A
330
15
100
AcDbEntity
 67
     1
  8
0
100
AcDbBlockEnd
  0
BLOCK
  5
2D
330
1C
100
AcDbEntity
  8
0
100
AcDbBlockBegin
  2
ADARROW
 70
     0
 10
0.0
 20
0.0
 30
0.0
  3
ADARROW
  1

  0
LINE
  5
2E
330
1C
100
AcDbEntity
  8
0
  6
BYBLOCK
 62
     0
100
AcDbLine
 10
0.0
 20
0.0
 30
0.0
 11
-0.9659258262890659
 21
-0.2588190451025127
 31
0.0
  0
LINE
  5
2F
330
1C
100
AcDbEntity
  8
0
  6
BYBLOCK
 62
     0
100
AcDbLine
 10
-1.0
 20
0.0
 30
0.0
 11
0.0
 21
0.0
 31
0.0
  0
LINE
  5
30
330
1C
100
AcDbEntity
  8
0
  6
BYBLOCK
 62
     0
100
AcDbLine
 10
0.0
 20
0.0
 30
0.0
 11
-0.9659258262890659
 21
0.2588190451025127
 31
0.0
  0
ENDBLK
  5
31
330
1C
100
AcDbEntity
  8
0
100
AcDbBlockEnd
  0
BLOCK
  5
36
330
35
100
AcDbEntity
  8
0
100
AcDbBlockBegin
  2
_OPEN
 70
     0
 10
0.0
 20
0.0
 30
0.0
  3
_OPEN
  1

  0
LINE
  5
37
330
35
100
AcDbEntity
  8
0
  6
BYBLOCK
 62
     0
100
AcDbLine
 10
-1.0
 20
0.1666666666666666
 30
0.0
 11
0.0
 21
0.0
 31
0.0
  0
LINE
  5
38
330
35
100
AcDbEntity
  8
0
  6
BYBLOCK
 62
     0
100
AcDbLine
 10
0.0
 20
0.0
 30
0.0
 11
-1.0
 21
-0.1666666666666666
 31
0.0
  0
LINE
  5
39
330
35
100
AcDbEntity
  8
0
  6
BYBLOCK
 62
     0
100
AcDbLine
 10
0.0
 20
0.0
 30
0.0
 11
-1.0
 21
0.0
 31
0.0
  0
ENDBLK
  5
3A
330
35
100
AcDbEntity
  8
0
100
AcDbBlockEnd
  0
BLOCK
  5
6C
330
66
100
AcDbEntity
  8
0
100
AcDbBlockBegin
  2
TK
 70
     0
 10
0.0
 20
0.0
 30
0.0
  3
TK
  1

  0
TEXT
  5
67
330
66
100
AcDbEntity
  8
0
  6
CONTINUOUS
 62
     2
100
AcDbText
 10
-8.056255308109314
 20
-1.428396170613346
 30
0.0
 40
2.7
  1
ＴＫ
  7
BGS
100
AcDbText
  0
LINE
  5
68
330
66
100
AcDbEntity
  8
0
  6
CONTINUOUS
 62
     2
100
AcDbLine
 10
-10.09705202413073
 20
0.1332646889774125
 30
0.0
 11
-5.095052024130723
 21
3.133264688977412
 31
0.0
  0
LINE
  5
69
330
66
100
AcDbEntity
  8
0
  6
CONTINUOUS
 62
     2
100
AcDbLine
 10
-10.09705202413073
 20
0.1332646889774125
 30
0.0
 11
-5.095052024130723
 21
-2.866735311022587
 31
0.0
  0
LINE
  5
6A
330
66
100
AcDbEntity
  8
0
  6
CONTINUOUS
 62
     2
100
AcDbLine
 10
-5.095052024130723
 20
3.133264688977412
 30
0.0
 11
-0.0970520241307327
 21
0.1332646889774125
 31
0.0
  0
LINE
  5
6B
330
66
100
AcDbEntity
  8
0
  6
CONTINUOUS
 62
     2
100
AcDbLine
 10
-5.095052024130723
 20
-2.866735311022587
 30
0.0
 11
-0.0970520241307327
 21
0.1332646889774125
 31
0.0
  0
ENDBLK
  5
6D
330
66
100
AcDbEntity
  8
0
100
AcDbBlockEnd
  0
BLOCK
  5
D9
330
6F
100
AcDbEntity
  8
0
100
AcDbBlockBegin
  2
A3-WAKU
 70
     0
 10
0.0
 20
0.0
 30
0.0
  3
A3-WAKU
  1

  0
INSERT
  5
70
330
6F
100
AcDbEntity
  8
0
100
AcDbBlockReference
  2
TK
 10
317.0726460431471
 20
9.776842374659864
 30
0.0
  0
TEXT
  5
71
330
6F
100
AcDbEntity
  8
L-1
  6
CONTINUOUS
 62
     2
100
AcDbText
 10
221.7734457438838
 20
41.38067661600113
 30
0.0
 40
4.0
  1
日
  7
BGS
100
AcDbText
  0
TEXT
  5
72
330
6F
100
AcDbEntity
  8
L-1
  6
CONTINUOUS
 62
     2
100
AcDbText
 10
217.9265709142159
 20
41.24471250686361
 30
0.0
 40
4.0
  1
月
  7
BGS
100
AcDbText
  0
TEXT
  5
73
330
6F
100
AcDbEntity
  8
L-1
  6
CONTINUOUS
 62
     2
100
AcDbText
 10
214.3020587914652
 20
41.4214658487424
 30
0.0
 40
4.0
  1
年
  7
BGS
100
AcDbText
  0
LINE
  5
74
330
6F
100
AcDbEntity
  8
L-1
  6
CONTINUOUS
 62
     5
100
AcDbLine
 10
305.0
 20
46.0
 30
0.0
 11
305.0
 21
6.0
 31
0.0
  0
LINE
  5
75
330
6F
100
AcDbEntity
  8
L-1
  6
CONTINUOUS
 62
     4
100
AcDbLine
 10
209.0
 20
11.0
 30
0.0
 11
210.4999999999999
 21
11.0
 31
0.0
  0
LINE
  5
76
330
6F
100
AcDbEntity
  8
L-1
  6
CONTINUOUS
 62
     4
100
AcDbLine
 10
209.0
 20
16.0
 30
0.0
 11
210.4999999999999
 21
16.0
 31
0.0
  0
LINE
  5
77
330
6F
100
AcDbEntity
  8
L-1
  6
CONTINUOUS
 62
     4
100
AcDbLine
 10
214.0
 20
46.0
 30
0.0
 11
214.0
 21
6.0
 31
0.0
  0
LINE
  5
78
330
6F
100
AcDbEntity
  8
L-1
  6
CONTINUOUS
 62
     5
100
AcDbLine
 10
6.0
 20
225.0
 30
0.0
 11
6.0
 21
215.0
 31
0.0
  0
LINE
  5
79
330
6F
100
AcDbEntity
  8
L-1
  6
CONTINUOUS
 62
     5
100
AcDbLine
 10
6.0
 20
215.0
 30
0.0
 11
16.0
 21
215.0
 31
0.0
  0
LINE
  5
7A
330
6F
100
AcDbEntity
  8
L-1
  6
CONTINUOUS
 62
     5
100
AcDbLine
 10
6.0
 20
275.0
 30
0.0
 11
6.0
 21
225.0
 31
0.0
  0
LINE
  5
7B
330
6F
100
AcDbEntity
  8
L-1
  6
CONTINUOUS
 62
     5
100
AcDbLine
 10
16.0
 20
275.0
 30
0.0
 11
16.0
 21
228.0
 31
0.0
  0
LINE
  5
7C
330
6F
100
AcDbEntity
  8
L-1
  6
CONTINUOUS
 62
     5
100
AcDbLine
 10
16.0
 20
228.0
 30
0.0
 11
16.0
 21
228.0
 31
0.0
  0
LINE
  5
7D
330
6F
100
AcDbEntity
  8
L-1
  6
CONTINUOUS
 62
     5
100
AcDbLine
 10
16.0
 20
228.0
 30
0.0
 11
16.0
 21
228.0
 31
0.0
  0
LINE
  5
7E
330
6F
100
AcDbEntity
  8
L-1
  6
CONTINUOUS
 62
     5
100
AcDbLine
 10
16.0
 20
228.0
 30
0.0
 11
16.0
 21
225.0
 31
0.0
  0
TEXT
  5
7F
330
6F
100
AcDbEntity
  8
L-1
  6
CONTINUOUS
 62
     2
100
AcDbText
 10
3.14847458495825
 20
248.9633550277341
 30
0.0
 40
2.5
  1
Ａ
  7
SIMPLEX
100
AcDbText
  0
LINE
  5
80
330
6F
100
AcDbEntity
  8
L-1
  6
CONTINUOUS
 62
     5
100
AcDbLine
 10
378.0
 20
24.0
 30
0.0
 11
378.0
 21
6.0
 31
0.0
  0
LINE
  5
81
330
6F
100
AcDbEntity
  8
L-1
  6
CONTINUOUS
 62
     4
100
AcDbLine
 10
357.0
 20
275.0
 30
0.0
 11
357.0
 21
273.4999999999999
 31
0.0
  0
LINE
  5
82
330
6F
100
AcDbEntity
  8
L-1
  6
CONTINUOUS
 62
     4
100
AcDbLine
 10
345.0
 20
275.0
 30
0.0
 11
345.0
 21
273.4999999999999
 31
0.0
  0
LINE
  5
83
330
6F
100
AcDbEntity
  8
L-1
  6
CONTINUOUS
 62
     4
100
AcDbLine
 10
310.0
 20
275.0
 30
0.0
 11
310.0
 21
273.4999999999999
 31
0.0
  0
LINE
  5
84
330
6F
100
AcDbEntity
  8
L-1
  6
CONTINUOUS
 62
     4
100
AcDbLine
 10
275.0
 20
275.0
 30
0.0
 11
275.0
 21
273.4999999999999
 31
0.0
  0
LINE
  5
85
330
6F
100
AcDbEntity
  8
L-1
  6
CONTINUOUS
 62
     4
100
AcDbLine
 10
227.0
 20
275.0
 30
0.0
 11
227.0
 21
273.4999999999999
 31
0.0
  0
LINE
  5
86
330
6F
100
AcDbEntity
  8
L-1
  6
CONTINUOUS
 62
     4
100
AcDbLine
 10
215.0
 20
275.0
 30
0.0
 11
215.0
 21
273.4999999999999
 31
0.0
  0
LINE
  5
87
330
6F
100
AcDbEntity
  8
L-1
  6
CONTINUOUS
 62
     4
100
AcDbLine
 10
383.4999999999999
 20
209.0
 30
0.0
 11
385.0
 21
209.0
 31
0.0
  0
LINE
  5
88
330
6F
100
AcDbEntity
  8
L-1
  6
CONTINUOUS
 62
     4
100
AcDbLine
 10
383.4999999999999
 20
215.0
 30
0.0
 11
385.0
 21
215.0
 31
0.0
  0
LINE
  5
89
330
6F
100
AcDbEntity
  8
L-1
  6
CONTINUOUS
 62
     4
100
AcDbLine
 10
383.4999999999999
 20
221.0
 30
0.0
 11
385.0
 21
221.0
 31
0.0
  0
LINE
  5
8A
330
6F
100
AcDbEntity
  8
L-1
  6
CONTINUOUS
 62
     4
100
AcDbLine
 10
383.4999999999999
 20
227.0
 30
0.0
 11
385.0
 21
227.0
 31
0.0
  0
LINE
  5
8B
330
6F
100
AcDbEntity
  8
L-1
  6
CONTINUOUS
 62
     4
100
AcDbLine
 10
383.4999999999999
 20
233.0
 30
0.0
 11
385.0
 21
233.0
 31
0.0
  0
LINE
  5
8C
330
6F
100
AcDbEntity
  8
L-1
  6
CONTINUOUS
 62
     4
100
AcDbLine
 10
383.4999999999999
 20
239.0
 30
0.0
 11
385.0
 21
239.0
 31
0.0
  0
LINE
  5
8D
330
6F
100
AcDbEntity
  8
L-1
  6
CONTINUOUS
 62
     4
100
AcDbLine
 10
383.4999999999999
 20
245.0
 30
0.0
 11
385.0
 21
245.0
 31
0.0
  0
LINE
  5
8E
330
6F
100
AcDbEntity
  8
L-1
  6
CONTINUOUS
 62
     4
100
AcDbLine
 10
383.4999999999999
 20
251.0
 30
0.0
 11
385.0
 21
251.0
 31
0.0
  0
LINE
  5
8F
330
6F
100
AcDbEntity
  8
L-1
  6
CONTINUOUS
 62
     4
100
AcDbLine
 10
383.4999999999999
 20
257.0
 30
0.0
 11
385.0
 21
257.0
 31
0.0
  0
LINE
  5
90
330
6F
100
AcDbEntity
  8
L-1
  6
CONTINUOUS
 62
     4
100
AcDbLine
 10
383.4999999999999
 20
263.0
 30
0.0
 11
385.0
 21
263.0
 31
0.0
  0
LINE
  5
91
330
6F
100
AcDbEntity
  8
L-1
  6
CONTINUOUS
 62
     4
100
AcDbLine
 10
383.4999999999999
 20
269.0
 30
0.0
 11
385.0
 21
269.0
 31
0.0
  0
LINE
  5
92
330
6F
100
AcDbEntity
  8
L-1
  6
CONTINUOUS
 62
     5
100
AcDbLine
 10
16.0
 20
6.0
 30
0.0
 11
385.0
 21
6.0
 31
0.0
  0
LINE
  5
93
330
6F
100
AcDbEntity
  8
L-1
  6
CONTINUOUS
 62
     4
100
AcDbLine
 10
271.4999999999999
 20
31.0
 30
0.0
 11
273.0
 21
31.0
 31
0.0
  0
LINE
  5
94
330
6F
100
AcDbEntity
  8
L-1
  6
CONTINUOUS
 62
     4
100
AcDbLine
 10
271.4999999999999
 20
36.0
 30
0.0
 11
273.0
 21
36.0
 31
0.0
  0
LINE
  5
95
330
6F
100
AcDbEntity
  8
L-1
  6
CONTINUOUS
 62
     4
100
AcDbLine
 10
209.0
 20
21.0
 30
0.0
 11
210.4999999999999
 21
21.0
 31
0.0
  0
LINE
  5
96
330
6F
100
AcDbEntity
  8
L-1
  6
CONTINUOUS
 62
     4
100
AcDbLine
 10
209.0
 20
26.0
 30
0.0
 11
210.4999999999999
 21
26.0
 31
0.0
  0
LINE
  5
97
330
6F
100
AcDbEntity
  8
L-1
  6
CONTINUOUS
 62
     4
100
AcDbLine
 10
209.0
 20
31.0
 30
0.0
 11
210.4999999999999
 21
31.0
 31
0.0
  0
LINE
  5
98
330
6F
100
AcDbEntity
  8
L-1
  6
CONTINUOUS
 62
     4
100
AcDbLine
 10
209.0
 20
36.0
 30
0.0
 11
210.4999999999999
 21
36.0
 31
0.0
  0
LINE
  5
99
330
6F
100
AcDbEntity
  8
L-1
  6
CONTINUOUS
 62
     4
100
AcDbLine
 10
16.0
 20
41.0
 30
0.0
 11
17.5
 21
41.0
 31
0.0
  0
LINE
  5
9A
330
6F
100
AcDbEntity
  8
L-1
  6
CONTINUOUS
 62
     4
100
AcDbLine
 10
16.0
 20
36.0
 30
0.0
 11
17.5
 21
36.0
 31
0.0
  0
LINE
  5
9B
330
6F
100
AcDbEntity
  8
L-1
  6
CONTINUOUS
 62
     4
100
AcDbLine
 10
16.0
 20
31.0
 30
0.0
 11
17.5
 21
31.0
 31
0.0
  0
LINE
  5
9C
330
6F
100
AcDbEntity
  8
L-1
  6
CONTINUOUS
 62
     4
100
AcDbLine
 10
16.0
 20
26.0
 30
0.0
 11
17.5
 21
26.0
 31
0.0
  0
LINE
  5
9D
330
6F
100
AcDbEntity
  8
L-1
  6
CONTINUOUS
 62
     4
100
AcDbLine
 10
16.0
 20
21.0
 30
0.0
 11
17.5
 21
21.0
 31
0.0
  0
LINE
  5
9E
330
6F
100
AcDbEntity
  8
L-1
  6
CONTINUOUS
 62
     4
100
AcDbLine
 10
16.0
 20
16.0
 30
0.0
 11
17.5
 21
16.0
 31
0.0
  0
LINE
  5
9F
330
6F
100
AcDbEntity
  8
L-1
  6
CONTINUOUS
 62
     4
100
AcDbLine
 10
16.0
 20
11.0
 30
0.0
 11
17.5
 21
11.0
 31
0.0
  0
TEXT
  5
A0
330
6F
100
AcDbEntity
  8
L-1
  6
CONTINUOUS
 62
     2
100
AcDbText
 10
12.76631437922492
 20
14.65247426876108
 30
0.0
 40
2.5
  1
Ｆ
  7
SIMPLEX
100
AcDbText
  0
TEXT
  5
A1
330
6F
100
AcDbEntity
  8
L-1
  6
CONTINUOUS
 62
     2
100
AcDbText
 10
12.98891014823959
 20
49.71822326110082
 30
0.0
 40
2.5
  1
Ｅ
  7
SIMPLEX
100
AcDbText
  0
TEXT
  5
A2
330
6F
100
AcDbEntity
  8
L-1
  6
CONTINUOUS
 62
     2
100
AcDbText
 10
12.79390151665018
 20
99.7796990401785
 30
0.0
 40
2.5
  1
Ｄ
  7
SIMPLEX
100
AcDbText
  0
TEXT
  5
A3
330
6F
100
AcDbEntity
  8
L-1
  6
CONTINUOUS
 62
     2
100
AcDbText
 10
12.8389035085554
 20
149.6780080942729
 30
0.0
 40
2.5
  1
Ｃ
  7
SIMPLEX
100
AcDbText
  0
TEXT
  5
A4
330
6F
100
AcDbEntity
  8
L-1
  6
CONTINUOUS
 62
     2
100
AcDbText
 10
12.77890085268177
 20
199.7444459295554
 30
0.0
 40
2.5
  1
Ｂ
  7
SIMPLEX
100
AcDbText
  0
LINE
  5
A5
330
6F
100
AcDbEntity
  8
L-1
  6
CONTINUOUS
 62
     5
100
AcDbLine
 10
16.0
 20
225.0
 30
0.0
 11
16.0
 21
6.0
 31
0.0
  0
LINE
  5
A6
330
6F
100
AcDbEntity
  8
L-1
  6
CONTINUOUS
 62
     5
100
AcDbLine
 10
385.0
 20
275.0
 30
0.0
 11
6.0
 21
275.0
 31
0.0
  0
LINE
  5
A7
330
6F
100
AcDbEntity
  8
L-1
  6
CONTINUOUS
 62
     5
100
AcDbLine
 10
385.0
 20
275.0
 30
0.0
 11
385.0
 21
6.0
 31
0.0
  0
TEXT
  5
A8
330
6F
100
AcDbEntity
  8
L-1
  6
CONTINUOUS
 62
     2
100
AcDbText
 10
374.3530698408897
 20
275.518653884599
 30
0.0
 40
2.5
  1
８
  7
SIMPLEX
100
AcDbText
  0
TEXT
  5
A9
330
6F
100
AcDbEntity
  8
L-1
  6
CONTINUOUS
 62
     2
100
AcDbText
 10
339.8896317304588
 20
275.4702655871128
 30
0.0
 40
2.5
  1
７
  7
SIMPLEX
100
AcDbText
  0
TEXT
  5
AA
330
6F
100
AcDbEntity
  8
L-1
  6
CONTINUOUS
 62
     2
100
AcDbText
 10
289.8442613906334
 20
275.4841364783273
 30
0.0
 40
2.5
  1
６
  7
SIMPLEX
100
AcDbText
  0
TEXT
  5
AB
330
6F
100
AcDbEntity
  8
L-1
  6
CONTINUOUS
 62
     2
100
AcDbText
 10
239.7308355410698
 20
275.5018948672063
 30
0.0
 40
2.5
  1
５
  7
SIMPLEX
100
AcDbText
  0
TEXT
  5
AC
330
6F
100
AcDbEntity
  8
L-1
  6
CONTINUOUS
 62
     2
100
AcDbText
 10
189.7535207109825
 20
275.4425238046838
 30
0.0
 40
2.5
  1
４
  7
SIMPLEX
100
AcDbText
  0
TEXT
  5
AD
330
6F
100
AcDbEntity
  8
L-1
  6
CONTINUOUS
 62
     2
100
AcDbText
 10
139.8669465605461
 20
275.4841364783273
 30
0.0
 40
2.5
  1
３
  7
SIMPLEX
100
AcDbText
  0
TEXT
  5
AE
330
6F
100
AcDbEntity
  8
L-1
  6
CONTINUOUS
 62
     2
100
AcDbText
 10
89.82157622072065
 20
275.4702655871128
 30
0.0
 40
2.5
  1
２
  7
SIMPLEX
100
AcDbText
  0
TEXT
  5
AF
330
6F
100
AcDbEntity
  8
L-1
  6
CONTINUOUS
 62
     2
100
AcDbText
 10
39.84426139063344
 20
275.4880239759918
 30
0.0
 40
2.5
  1
１
  7
SIMPLEX
100
AcDbText
  0
LINE
  5
B0
330
6F
100
AcDbEntity
  8
L-1
  6
CONTINUOUS
 62
     4
100
AcDbLine
 10
366.0
 20
278.0
 30
0.0
 11
366.0
 21
275.0
 31
0.0
  0
LINE
  5
B1
330
6F
100
AcDbEntity
  8
L-1
  6
CONTINUOUS
 62
     4
100
AcDbLine
 10
316.0
 20
278.0
 30
0.0
 11
316.0
 21
275.0
 31
0.0
  0
LINE
  5
B2
330
6F
100
AcDbEntity
  8
L-1
  6
CONTINUOUS
 62
     4
100
AcDbLine
 10
266.0
 20
278.0
 30
0.0
 11
266.0
 21
275.0
 31
0.0
  0
LINE
  5
B3
330
6F
100
AcDbEntity
  8
L-1
  6
CONTINUOUS
 62
     4
100
AcDbLine
 10
216.0
 20
278.0
 30
0.0
 11
216.0
 21
275.0
 31
0.0
  0
LINE
  5
B4
330
6F
100
AcDbEntity
  8
L-1
  6
CONTINUOUS
 62
     4
100
AcDbLine
 10
166.0
 20
278.0
 30
0.0
 11
166.0
 21
275.0
 31
0.0
  0
LINE
  5
B5
330
6F
100
AcDbEntity
  8
L-1
  6
CONTINUOUS
 62
     4
100
AcDbLine
 10
116.0
 20
278.0
 30
0.0
 11
116.0
 21
275.0
 31
0.0
  0
LINE
  5
B6
330
6F
100
AcDbEntity
  8
L-1
  6
CONTINUOUS
 62
     4
100
AcDbLine
 10
66.0
 20
278.0
 30
0.0
 11
66.0
 21
275.0
 31
0.0
  0
LINE
  5
B7
330
6F
100
AcDbEntity
  8
L-1
  6
CONTINUOUS
 62
     5
100
AcDbLine
 10
209.0
 20
46.0
 30
0.0
 11
385.0
 21
46.0
 31
0.0
  0
LINE
  5
B8
330
6F
100
AcDbEntity
  8
L-1
  6
CONTINUOUS
 62
     5
100
AcDbLine
 10
209.0
 20
6.0
 30
0.0
 11
209.0
 21
46.0
 31
0.0
  0
LINE
  5
B9
330
6F
100
AcDbEntity
  8
L-1
  6
CONTINUOUS
 62
     4
100
AcDbLine
 10
312.0
 20
46.0
 30
0.0
 11
312.0
 21
14.0
 31
0.0
  0
LINE
  5
BA
330
6F
100
AcDbEntity
  8
L-1
  6
CONTINUOUS
 62
     5
100
AcDbLine
 10
305.0
 20
14.0
 30
0.0
 11
378.0
 21
14.0
 31
0.0
  0
LINE
  5
BB
330
6F
100
AcDbEntity
  8
L-1
  6
CONTINUOUS
 62
     4
100
AcDbLine
 10
289.0
 20
46.0
 30
0.0
 11
289.0
 21
31.0
 31
0.0
  0
LINE
  5
BC
330
6F
100
AcDbEntity
  8
L-1
  6
CONTINUOUS
 62
     5
100
AcDbLine
 10
273.0
 20
46.0
 30
0.0
 11
273.0
 21
31.0
 31
0.0
  0
LINE
  5
BD
330
6F
100
AcDbEntity
  8
L-1
  6
CONTINUOUS
 62
     4
100
AcDbLine
 10
209.0
 20
41.0
 30
0.0
 11
305.0
 21
41.0
 31
0.0
  0
LINE
  5
BE
330
6F
100
AcDbEntity
  8
L-1
  6
CONTINUOUS
 62
     5
100
AcDbLine
 10
273.0
 20
31.0
 30
0.0
 11
305.0
 21
31.0
 31
0.0
  0
LINE
  5
BF
330
6F
100
AcDbEntity
  8
L-1
  6
CONTINUOUS
 62
     5
100
AcDbLine
 10
273.0
 20
31.0
 30
0.0
 11
273.0
 21
6.0
 31
0.0
  0
LINE
  5
C0
330
6F
100
AcDbEntity
  8
L-1
  6
CONTINUOUS
 62
     4
100
AcDbLine
 10
271.4999999999999
 20
11.0
 30
0.0
 11
305.0
 21
11.0
 31
0.0
  0
LINE
  5
C1
330
6F
100
AcDbEntity
  8
L-1
  6
CONTINUOUS
 62
     4
100
AcDbLine
 10
271.4999999999999
 20
16.0
 30
0.0
 11
305.0
 21
16.0
 31
0.0
  0
LINE
  5
C2
330
6F
100
AcDbEntity
  8
L-1
  6
CONTINUOUS
 62
     4
100
AcDbLine
 10
271.4999999999999
 20
21.0
 30
0.0
 11
305.0
 21
21.0
 31
0.0
  0
LINE
  5
C3
330
6F
100
AcDbEntity
  8
L-1
  6
CONTINUOUS
 62
     4
100
AcDbLine
 10
271.4999999999999
 20
26.0
 30
0.0
 11
305.0
 21
26.0
 31
0.0
  0
LINE
  5
C4
330
6F
100
AcDbEntity
  8
L-1
  6
CONTINUOUS
 62
     4
100
AcDbLine
 10
226.0
 20
46.0
 30
0.0
 11
226.0
 21
6.0
 31
0.0
  0
LINE
  5
C5
330
6F
100
AcDbEntity
  8
L-1
  6
CONTINUOUS
 62
     5
100
AcDbLine
 10
305.0
 20
24.0
 30
0.0
 11
385.0
 21
24.0
 31
0.0
  0
LINE
  5
C6
330
6F
100
AcDbEntity
  8
L-1
  6
CONTINUOUS
 62
     4
100
AcDbLine
 10
285.0
 20
31.0
 30
0.0
 11
285.0
 21
6.0
 31
0.0
  0
TEXT
  5
C7
330
6F
100
AcDbEntity
  8
L-1
  6
CONTINUOUS
 62
     2
100
AcDbText
 10
209.6219833982407
 20
41.55131843984618
 30
0.0
 40
4.0
  1
版
  7
SIMPLEX
100
AcDbText
  0
TEXT
  5
C8
330
6F
100
AcDbEntity
  8
L-1
  6
CONTINUOUS
 62
     2
100
AcDbText
 10
233.2878071567374
 20
41.56491485075992
 30
0.0
 40
4.0
  1
変　更　事　項
  7
SIMPLEX
100
AcDbText
  0
TEXT
  5
C9
330
6F
100
AcDbEntity
  8
L-1
  6
CONTINUOUS
 62
     2
100
AcDbText
 10
274.310043427429
 20
41.57851126167368
 30
0.0
 40
4.0
  1
単　位
  7
SIMPLEX
100
AcDbText
  0
TEXT
  5
CA
330
6F
100
AcDbEntity
  8
L-1
  6
CONTINUOUS
 62
     2
100
AcDbText
 10
290.3100434274291
 20
41.57851126167368
 30
0.0
 40
4.0
  1
尺　度
  7
SIMPLEX
100
AcDbText
  0
TEXT
  5
CB
330
6F
100
AcDbEntity
  8
L-1
  6
CONTINUOUS
 62
     2
100
AcDbText
 10
274.0667088120751
 20
26.52412561801867
 30
0.0
 40
4.0
  1
設 計
  7
SIMPLEX
100
AcDbText
  0
TEXT
  5
CC
330
6F
100
AcDbEntity
  8
L-1
  6
CONTINUOUS
 62
     2
100
AcDbText
 10
273.9555274586165
 20
21.67368613806994
 30
0.0
 40
4.0
  1
製 図
  7
SIMPLEX
100
AcDbText
  0
TEXT
  5
CD
330
6F
100
AcDbEntity
  8
L-1
  6
CONTINUOUS
 62
     2
100
AcDbText
 10
273.8443461051579
 20
16.61930049441493
 30
0.0
 40
4.0
  1
担 当
  7
SIMPLEX
100
AcDbText
  0
TEXT
  5
CE
330
6F
100
AcDbEntity
  8
L-1
  6
CONTINUOUS
 62
     2
100
AcDbText
 10
274.0
 20
11.57851126167367
 30
0.0
 40
4.0
  1
査 閲
  7
SIMPLEX
100
AcDbText
  0
TEXT
  5
CF
330
6F
100
AcDbEntity
  8
L-1
  6
CONTINUOUS
 62
     2
100
AcDbText
 10
273.8443461051579
 20
6.46973997436366
 30
0.0
 40
4.0
  1
承 認
  7
SIMPLEX
100
AcDbText
  0
TEXT
  5
D0
330
6F
100
AcDbEntity
  8
L-1
  6
CONTINUOUS
 62
     2
100
AcDbText
 10
306.5330383154738
 20
19.41535433070865
 30
0.0
 40
4.0
  1
図
  7
SIMPLEX
100
AcDbText
  0
TEXT
  5
D1
330
6F
100
AcDbEntity
  8
L-1
  6
CONTINUOUS
 62
     2
100
AcDbText
 10
306.5330383154738
 20
14.41535433070865
 30
0.0
 40
4.0
  1
番
  7
SIMPLEX
100
AcDbText
  0
TEXT
  5
D2
330
6F
100
AcDbEntity
  8
L-1
  6
CONTINUOUS
 62
     2
100
AcDbText
 10
319.0980555556825
 20
7.873740483041579
 30
0.0
 40
4.4
  1
東京通信機工業株式会社
  7
SIMPLEX
100
AcDbText
  0
TEXT
  5
D3
330
6F
100
AcDbEntity
  8
L-1
  6
CONTINUOUS
 62
     2
100
AcDbText
 10
306.4663295033986
 20
40.94561435634498
 30
0.0
 40
4.0
  1
名
  7
SIMPLEX
100
AcDbText
  0
TEXT
  5
D4
330
6F
100
AcDbEntity
  8
L-1
  6
CONTINUOUS
 62
     2
100
AcDbText
 10
306.4663295033986
 20
25.94561435634499
 30
0.0
 40
4.0
  1
称
  7
SIMPLEX
100
AcDbText
  0
LINE
  5
D5
330
6F
100
AcDbEntity
  8
L-1
  6
CONTINUOUS
 62
     4
100
AcDbLine
 10
14.0
 20
176.0
 30
0.0
 11
16.0
 21
176.0
 31
0.0
  0
LINE
  5
D6
330
6F
100
AcDbEntity
  8
L-1
  6
CONTINUOUS
 62
     4
100
AcDbLine
 10
14.0
 20
126.0
 30
0.0
 11
16.0
 21
126.0
 31
0.0
  0
LINE
  5
D7
330
6F
100
AcDbEntity
  8
L-1
  6
CONTINUOUS
 62
     4
100
AcDbLine
 10
14.0
 20
76.0
 30
0.0
 11
16.0
 21
76.0
 31
0.0
  0
LINE
  5
D8
330
6F
100
AcDbEntity
  8
L-1
  6
CONTINUOUS
 62
     4
100
AcDbLine
 10
14.0
 20
26.0
 30
0.0
 11
16.0
 21
26.0
 31
0.0
  0
ENDBLK
  5
DA
330
6F
100
AcDbEntity
  8
0
100
AcDbBlockEnd
  0
BLOCK
  5
53D
330
51A
100
AcDbEntity
  8
0
 62
     2
100
AcDbBlockBegin
  2
A$C3A8D0999
 70
     0
 10
0.0
 20
0.0
 30
0.0
  3
A$C3A8D0999
  1

  0
LINE
  5
51B
330
51A
100
AcDbEntity
  8
L-1
  6
CONTINUOUS
 62
     2
100
AcDbLine
 10
58.24810838108184
 20
10.16680055562099
 30
0.0
 11
0.0858166595136254
 21
10.16680055562099
 31
0.0
  0
LINE
  5
51C
330
51A
100
AcDbEntity
  8
L-1
  6
CONTINUOUS
 62
     2
100
AcDbLine
 10
58.24810838108181
 20
-0.0000000311851807
 30
0.0
 11
0.0000006285846155
 21
-0.0000000311851807
 31
0.0
  0
LINE
  5
51D
330
51A
100
AcDbEntity
  8
L-1
  6
CONTINUOUS
 62
     2
100
AcDbLine
 10
58.24810838108186
 20
25.13560014920432
 30
0.0
 11
0.000000628584587
 21
25.13560014920432
 31
0.0
  0
LINE
  5
51E
330
51A
100
AcDbEntity
  8
L-1
  6
CONTINUOUS
 62
     2
100
AcDbLine
 10
58.24810838108186
 20
30.13560014920432
 30
0.0
 11
0.000000628584587
 21
30.13560014920432
 31
0.0
  0
LINE
  5
51F
330
51A
100
AcDbEntity
  8
L-1
  6
CONTINUOUS
 62
     2
100
AcDbLine
 10
58.24810838108186
 20
35.13560014920432
 30
0.0
 11
0.000000628584587
 21
35.13560014920432
 31
0.0
  0
LINE
  5
520
330
51A
100
AcDbEntity
  8
L-1
  6
CONTINUOUS
 62
     2
100
AcDbLine
 10
58.24810838108186
 20
40.13560014920432
 30
0.0
 11
0.000000628584587
 21
40.13560014920432
 31
0.0
  0
LINE
  5
521
330
51A
100
AcDbEntity
  8
L-1
  6
CONTINUOUS
 62
     2
100
AcDbLine
 10
58.24810838108186
 20
45.13560014920432
 30
0.0
 11
0.000000628584587
 21
45.13560014920432
 31
0.0
  0
LINE
  5
522
330
51A
100
AcDbEntity
  8
L-1
  6
CONTINUOUS
 62
     2
100
AcDbLine
 10
58.24810838108186
 20
50.13560014920432
 30
0.0
 11
0.000000628584587
 21
50.13560014920432
 31
0.0
  0
LINE
  5
523
330
51A
100
AcDbEntity
  8
L-1
  6
CONTINUOUS
 62
     2
100
AcDbLine
 10
58.24810838108181
 20
15.16673607978553
 30
0.0
 11
0.0000006285846297
 21
15.16673607978556
 31
0.0
  0
LINE
  5
524
330
51A
100
AcDbEntity
  8
L-1
  6
CONTINUOUS
 62
     2
100
AcDbLine
 10
58.09957965665569
 20
10.16680055562099
 30
0.0
 11
0.0000006285846013
 21
10.16680055562099
 31
0.0
  0
LINE
  5
525
330
51A
100
AcDbEntity
  8
L-1
  6
CONTINUOUS
 62
     2
100
AcDbLine
 10
58.24810838108181
 20
5.169319669135177
 30
0.0
 11
0.0000006285846013
 21
5.169319669135177
 31
0.0
  0
LINE
  5
526
330
51A
100
AcDbEntity
  8
L-1
  6
CONTINUOUS
 62
     2
100
AcDbLine
 10
58.24810838108186
 20
20.13560014920432
 30
0.0
 11
0.000000628584587
 21
20.13560014920432
 31
0.0
  0
TEXT
  5
527
330
51A
100
AcDbEntity
  8
L-1
  6
CONTINUOUS
 62
     2
100
AcDbText
 10
7.835210316420386
 20
26.11409262955672
 30
0.0
 40
3.0
  1
６をこえ１８以下
  7
SIMPLEX
100
AcDbText
  0
TEXT
  5
528
330
51A
100
AcDbEntity
  8
L-1
  6
CONTINUOUS
 62
     2
100
AcDbText
 10
7.678794451226849
 20
36.19941706151706
 30
0.0
 40
3.0
  1
０.３をこえ３以下
  7
SIMPLEX
100
AcDbText
  0
TEXT
  5
529
330
51A
100
AcDbEntity
  8
L-1
  6
CONTINUOUS
 62
     2
100
AcDbText
 10
7.641461621404175
 20
31.14867642227349
 30
0.0
 40
3.0
  1
３をこえ６以下
  7
SIMPLEX
100
AcDbText
  0
TEXT
  5
52A
330
51A
100
AcDbEntity
  8
L-1
  6
CONTINUOUS
 62
     2
100
AcDbText
 10
7.670487335659231
 20
41.20783659166917
 30
0.0
 40
3.0
  1
０.３以下
  7
SIMPLEX
100
AcDbText
  0
TEXT
  5
52B
330
51A
100
AcDbEntity
  8
L-1
  6
CONTINUOUS
 62
     2
100
AcDbText
 10
0.5883896378385316
 20
11.15624834315883
 30
0.0
 40
3.0
  1
１２０をこえ２５０以下
  7
SIMPLEX
100
AcDbText
  0
TEXT
  5
52C
330
51A
100
AcDbEntity
  8
L-1
  6
CONTINUOUS
 62
     2
100
AcDbText
 10
4.206157266239415
 20
16.05744021738746
 30
0.0
 40
3.0
  1
５０をこえ１２０以下
  7
SIMPLEX
100
AcDbText
  0
TEXT
  5
52D
330
51A
100
AcDbEntity
  8
L-1
  6
CONTINUOUS
 62
     2
100
AcDbText
 10
4.272720650119822
 20
6.262559829168424
 30
0.0
 40
3.0
  1
　曲げ半径 Ｒ２以下
  7
SIMPLEX
100
AcDbText
  0
TEXT
  5
52E
330
51A
100
AcDbEntity
  8
L-1
  6
CONTINUOUS
 62
     2
100
AcDbText
 10
2.320283929944139
 20
1.680971436112486
 30
0.0
 40
3.0
  1
　 角  度
  7
SIMPLEX
100
AcDbText
  0
TEXT
  5
52F
330
51A
100
AcDbEntity
  8
L-1
  6
CONTINUOUS
 62
     2
100
AcDbText
 10
4.109433851983965
 20
21.02904080634368
 30
0.0
 40
3.0
  1
１８をこえ５０以下
  7
SIMPLEX
100
AcDbText
  0
LINE
  5
530
330
51A
100
AcDbEntity
  8
L-1
  6
CONTINUOUS
 62
     2
100
AcDbLine
 10
0.000000628584587
 20
50.13560014920432
 30
0.0
 11
0.0000006285846013
 21
-0.0000000311851522
 31
0.0
  0
TEXT
  5
531
330
51A
100
AcDbEntity
  8
L-1
  6
CONTINUOUS
 62
     2
100
AcDbText
 10
13.69758962902511
 20
46.04655686169022
 30
0.0
 40
3.0
  1
寸 法 区 分
  7
SIMPLEX
100
AcDbText
  0
TEXT
  5
532
330
51A
100
AcDbEntity
  8
L-1
  6
CONTINUOUS
 62
     2
100
AcDbText
 10
43.85310199746498
 20
11.15680048100341
 30
0.0
 40
3.0
  1
±0.3
  7
SIMPLEX
100
AcDbText
  0
LINE
  5
533
330
51A
100
AcDbEntity
  8
L-1
  6
CONTINUOUS
 62
     2
100
AcDbLine
 10
58.24810838108186
 20
50.13560014920432
 30
0.0
 11
58.24810838108181
 21
-0.0000000311851807
 31
0.0
  0
LINE
  5
534
330
51A
100
AcDbEntity
  8
L-1
  6
CONTINUOUS
 62
     2
100
AcDbLine
 10
42.64110993631516
 20
50.13560014920432
 30
0.0
 11
42.64110993631504
 21
-0.0000000311851807
 31
0.0
  0
TEXT
  5
535
330
51A
100
AcDbEntity
  8
L-1
  6
CONTINUOUS
 62
     2
100
AcDbText
 10
43.95170050326856
 20
6.251265392650054
 30
0.0
 40
3.0
  1
±0.1
  7
SIMPLEX
100
AcDbText
  0
TEXT
  5
536
330
51A
100
AcDbEntity
  8
L-1
  6
CONTINUOUS
 62
     2
100
AcDbText
 10
47.12437995041063
 20
46.06407305487031
 30
0.0
 40
3.0
  1
公 差
  7
SIMPLEX
100
AcDbText
  0
TEXT
  5
537
330
51A
100
AcDbEntity
  8
L-1
  6
CONTINUOUS
 62
     2
100
AcDbText
 10
43.95170050326856
 20
41.13259841673524
 30
0.0
 40
3.0
  1
±0.05
  7
SIMPLEX
100
AcDbText
  0
TEXT
  5
538
330
51A
100
AcDbEntity
  8
L-1
  6
CONTINUOUS
 62
     2
100
AcDbText
 10
43.95170050326856
 20
31.16365155317186
 30
0.0
 40
3.0
  1
±0.12
  7
SIMPLEX
100
AcDbText
  0
TEXT
  5
539
330
51A
100
AcDbEntity
  8
L-1
  6
CONTINUOUS
 62
     2
100
AcDbText
 10
43.95170050326856
 20
26.19206973812612
 30
0.0
 40
3.0
  1
±0.15
  7
SIMPLEX
100
AcDbText
  0
TEXT
  5
53A
330
51A
100
AcDbEntity
  8
L-1
  6
CONTINUOUS
 62
     2
100
AcDbText
 10
43.95170050326856
 20
16.00667817536799
 30
0.0
 40
3.0
  1
±0.25
  7
SIMPLEX
100
AcDbText
  0
TEXT
  5
53B
330
51A
100
AcDbEntity
  8
L-1
  6
CONTINUOUS
 62
     2
100
AcDbText
 10
43.95170050326856
 20
20.96384734269801
 30
0.0
 40
3.0
  1
±0.2
  7
SIMPLEX
100
AcDbText
  0
TEXT
  5
53C
330
51A
100
AcDbEntity
  8
L-1
  6
CONTINUOUS
 62
     2
100
AcDbText
 10
43.95170050326856
 20
36.12357468965913
 30
0.0
 40
3.0
  1
±0.1
  7
SIMPLEX
100
AcDbText
  0
ENDBLK
  5
53E
330
51A
100
AcDbEntity
  8
0
 62
     2
100
AcDbBlockEnd
  0
BLOCK
  5
680
330
676
100
AcDbEntity
  8
0
100
AcDbBlockBegin
  2
*D5
 70
     1
 10
0.0
 20
0.0
 30
0.0
  3
*D5
  1

  0
LINE
  5
677
330
676
100
AcDbEntity
  8
0
  6
BYBLOCK
 62
     4
100
AcDbLine
 10
272.3660686281551
 20
100.5862379836367
 30
0.0
 11
266.0026489482143
 21
100.5862379836367
 31
0.0
  0
LINE
  5
678
330
676
100
AcDbEntity
  8
0
  6
BYBLOCK
 62
     4
100
AcDbLine
 10
272.3660686281549
 20
86.58623798363672
 30
0.0
 11
266.0026489482143
 21
86.58623798363672
 31
0.0
  0
LINE
  5
679
330
676
100
AcDbEntity
  8
0
  6
BYBLOCK
 62
     4
100
AcDbLine
 10
267.0026489482143
 20
98.08623798363676
 30
0.0
 11
267.0026489482143
 21
89.08623798363672
 31
0.0
  0
INSERT
  5
67A
330
676
100
AcDbEntity
  8
0
  6
BYBLOCK
 62
     4
100
AcDbBlockReference
  2
_OPEN
 10
267.0026489482143
 20
100.5862379836367
 30
0.0
 41
2.5
 42
2.5
 43
2.5
 50
90.0
  0
INSERT
  5
67B
330
676
100
AcDbEntity
  8
0
  6
BYBLOCK
 62
     4
100
AcDbBlockReference
  2
_OPEN
 10
267.0026489482143
 20
86.58623798363672
 30
0.0
 41
2.5
 42
2.5
 43
2.5
 50
270.0
  0
MTEXT
  5
67C
330
676
100
AcDbEntity
  8
0
  6
BYBLOCK
 62
     2
100
AcDbMText
 10
265.2026489482143
 20
93.58623798363673
 30
0.0
 40
3.2
 41
0.0
 71
     5
 72
     1
  1
\A1;14
  7
BGS
 11
0.0000000000000001
 21
1.0
 31
0.0
1001
ACAD
1000
MTEXTBEGIN
1070
    73
1070
     1
1070
    44
1040
1.0
1070
    74
1070
     0
1000
MTEXTEND
  0
POINT
  5
67D
330
676
100
AcDbEntity
  8
DEFPOINTS
  6
BYBLOCK
 62
     0
100
AcDbPoint
 10
272.5660686281551
 20
100.5862379836367
 30
0.0
  0
POINT
  5
67E
330
676
100
AcDbEntity
  8
DEFPOINTS
  6
BYBLOCK
 62
     0
100
AcDbPoint
 10
272.5660686281549
 20
86.58623798363672
 30
0.0
  0
POINT
  5
67F
330
676
100
AcDbEntity
  8
DEFPOINTS
  6
BYBLOCK
 62
     0
100
AcDbPoint
 10
267.0026489482143
 20
86.58623798363672
 30
0.0
  0
ENDBLK
  5
681
330
676
100
AcDbEntity
  8
0
100
AcDbBlockEnd
  0
BLOCK
  5
68C
330
682
100
AcDbEntity
  8
0
100
AcDbBlockBegin
  2
*D6
 70
     1
 10
0.0
 20
0.0
 30
0.0
  3
*D6
  1

  0
LINE
  5
683
330
682
100
AcDbEntity
  8
0
  6
BYBLOCK
 62
     4
100
AcDbLine
 10
272.066068628155
 20
100.2862379836367
 30
0.0
 11
272.066068628155
 21
111.7375413933599
 31
0.0
  0
LINE
  5
684
330
682
100
AcDbEntity
  8
0
  6
BYBLOCK
 62
     4
100
AcDbLine
 10
324.0660346767908
 20
102.2862379836367
 30
0.0
 11
324.0660346767908
 21
111.7375413933599
 31
0.0
  0
LINE
  5
685
330
682
100
AcDbEntity
  8
0
  6
BYBLOCK
 62
     4
100
AcDbLine
 10
274.566068628155
 20
110.7375413933599
 30
0.0
 11
321.5660346767908
 21
110.7375413933599
 31
0.0
  0
INSERT
  5
686
330
682
100
AcDbEntity
  8
0
  6
BYBLOCK
 62
     4
100
AcDbBlockReference
  2
_OPEN
 10
272.066068628155
 20
110.7375413933599
 30
0.0
 41
2.5
 42
2.5
 43
2.5
 50
180.0
  0
INSERT
  5
687
330
682
100
AcDbEntity
  8
0
  6
BYBLOCK
 62
     4
100
AcDbBlockReference
  2
_OPEN
 10
324.0660346767908
 20
110.7375413933599
 30
0.0
 41
2.5
 42
2.5
 43
2.5
  0
MTEXT
  5
688
330
682
100
AcDbEntity
  8
0
  6
BYBLOCK
 62
     2
100
AcDbMText
 10
298.0660516524729
 20
112.5375413933599
 30
0.0
 40
3.2
 41
0.0
 71
     5
 72
     1
  1
\A1;52
  7
BGS
1001
ACAD
1000
MTEXTBEGIN
1070
    73
1070
     1
1070
    44
1040
1.0
1070
    74
1070
     0
1000
MTEXTEND
  0
POINT
  5
689
330
682
100
AcDbEntity
  8
DEFPOINTS
  6
BYBLOCK
 62
     0
100
AcDbPoint
 10
272.066068628155
 20
100.0862379836367
 30
0.0
  0
POINT
  5
68A
330
682
100
AcDbEntity
  8
DEFPOINTS
  6
BYBLOCK
 62
     0
100
AcDbPoint
 10
324.0660346767908
 20
102.0862379836367
 30
0.0
  0
POINT
  5
68B
330
682
100
AcDbEntity
  8
DEFPOINTS
  6
BYBLOCK
 62
     0
100
AcDbPoint
 10
324.0660346767908
 20
110.7375413933599
 30
0.0
  0
ENDBLK
  5
68D
330
682
100
AcDbEntity
  8
0
100
AcDbBlockEnd
  0
BLOCK
  5
698
330
68E
100
AcDbEntity
  8
0
100
AcDbBlockBegin
  2
*D7
 70
     1
 10
0.0
 20
0.0
 30
0.0
  3
*D7
  1

  0
LINE
  5
68F
330
68E
100
AcDbEntity
  8
0
  6
BYBLOCK
 62
     4
100
AcDbLine
 10
272.0660686281549
 20
86.88623798363671
 30
0.0
 11
272.0660686281549
 21
73.47374583870896
 31
0.0
  0
LINE
  5
690
330
68E
100
AcDbEntity
  8
0
  6
BYBLOCK
 62
     4
100
AcDbLine
 10
291.0660686281546
 20
81.38623798363683
 30
0.0
 11
291.0660686281546
 21
73.47374583870896
 31
0.0
  0
LINE
  5
691
330
68E
100
AcDbEntity
  8
0
  6
BYBLOCK
 62
     4
100
AcDbLine
 10
274.5660686281549
 20
74.47374583870896
 30
0.0
 11
288.5660686281546
 21
74.47374583870896
 31
0.0
  0
INSERT
  5
692
330
68E
100
AcDbEntity
  8
0
  6
BYBLOCK
 62
     4
100
AcDbBlockReference
  2
_OPEN
 10
272.0660686281549
 20
74.47374583870896
 30
0.0
 41
2.5
 42
2.5
 43
2.5
 50
180.0
  0
INSERT
  5
693
330
68E
100
AcDbEntity
  8
0
  6
BYBLOCK
 62
     4
100
AcDbBlockReference
  2
_OPEN
 10
291.0660686281546
 20
74.47374583870896
 30
0.0
 41
2.5
 42
2.5
 43
2.5
  0
MTEXT
  5
694
330
68E
100
AcDbEntity
  8
0
  6
BYBLOCK
 62
     2
100
AcDbMText
 10
281.5660686281548
 20
76.27374583870896
 30
0.0
 40
3.2
 41
0.0
 71
     5
 72
     1
  1
\A1;19
  7
BGS
1001
ACAD
1000
MTEXTBEGIN
1070
    73
1070
     1
1070
    44
1040
1.0
1070
    74
1070
     0
1000
MTEXTEND
  0
POINT
  5
695
330
68E
100
AcDbEntity
  8
DEFPOINTS
  6
BYBLOCK
 62
     0
100
AcDbPoint
 10
272.0660686281549
 20
87.08623798363673
 30
0.0
  0
POINT
  5
696
330
68E
100
AcDbEntity
  8
DEFPOINTS
  6
BYBLOCK
 62
     0
100
AcDbPoint
 10
291.0660686281546
 20
81.58623798363683
 30
0.0
  0
POINT
  5
697
330
68E
100
AcDbEntity
  8
DEFPOINTS
  6
BYBLOCK
 62
     0
100
AcDbPoint
 10
291.0660686281546
 20
74.47374583870896
 30
0.0
  0
ENDBLK
  5
699
330
68E
100
AcDbEntity
  8
0
100
AcDbBlockEnd
  0
BLOCK
  5
6A4
330
69A
100
AcDbEntity
  8
0
100
AcDbBlockBegin
  2
*D8
 70
     1
 10
0.0
 20
0.0
 30
0.0
  3
*D8
  1

  0
LINE
  5
69B
330
69A
100
AcDbEntity
  8
0
  6
BYBLOCK
 62
     4
100
AcDbLine
 10
272.0660686281549
 20
74.27374583870896
 30
0.0
 11
272.0660686281549
 21
67.76006723145838
 31
0.0
  0
LINE
  5
69C
330
69A
100
AcDbEntity
  8
0
  6
BYBLOCK
 62
     4
100
AcDbLine
 10
310.0659686281546
 20
81.38623798363687
 30
0.0
 11
310.0659686281546
 21
67.76006723145838
 31
0.0
  0
LINE
  5
69D
330
69A
100
AcDbEntity
  8
0
  6
BYBLOCK
 62
     4
100
AcDbLine
 10
274.5660686281549
 20
68.76006723145838
 30
0.0
 11
307.5659686281547
 21
68.76006723145838
 31
0.0
  0
INSERT
  5
69E
330
69A
100
AcDbEntity
  8
0
  6
BYBLOCK
 62
     4
100
AcDbBlockReference
  2
_OPEN
 10
272.0660686281549
 20
68.76006723145838
 30
0.0
 41
2.5
 42
2.5
 43
2.5
 50
180.0
  0
INSERT
  5
69F
330
69A
100
AcDbEntity
  8
0
  6
BYBLOCK
 62
     4
100
AcDbBlockReference
  2
_OPEN
 10
310.0659686281546
 20
68.76006723145838
 30
0.0
 41
2.5
 42
2.5
 43
2.5
  0
MTEXT
  5
6A0
330
69A
100
AcDbEntity
  8
0
  6
BYBLOCK
 62
     2
100
AcDbMText
 10
291.0660186281548
 20
70.56006723145838
 30
0.0
 40
3.2
 41
0.0
 71
     5
 72
     1
  1
\A1;38
  7
BGS
1001
ACAD
1000
MTEXTBEGIN
1070
    73
1070
     1
1070
    44
1040
1.0
1070
    74
1070
     0
1000
MTEXTEND
  0
POINT
  5
6A1
330
69A
100
AcDbEntity
  8
DEFPOINTS
  6
BYBLOCK
 62
     0
100
AcDbPoint
 10
272.0660686281549
 20
74.47374583870896
 30
0.0
  0
POINT
  5
6A2
330
69A
100
AcDbEntity
  8
DEFPOINTS
  6
BYBLOCK
 62
     0
100
AcDbPoint
 10
310.0659686281546
 20
81.58623798363686
 30
0.0
  0
POINT
  5
6A3
330
69A
100
AcDbEntity
  8
DEFPOINTS
  6
BYBLOCK
 62
     0
100
AcDbPoint
 10
310.0659686281546
 20
68.76006723145838
 30
0.0
  0
ENDBLK
  5
6A5
330
69A
100
AcDbEntity
  8
0
100
AcDbBlockEnd
  0
BLOCK
  5
6B0
330
6A6
100
AcDbEntity
  8
0
100
AcDbBlockBegin
  2
*D9
 70
     1
 10
0.0
 20
0.0
 30
0.0
  3
*D9
  1

  0
LINE
  5
6A7
330
6A6
100
AcDbEntity
  8
0
  6
BYBLOCK
 62
     4
100
AcDbLine
 10
309.7659686281545
 20
104.3862379836369
 30
0.0
 11
346.0762802799774
 21
104.3862379836369
 31
0.0
  0
LINE
  5
6A8
330
6A6
100
AcDbEntity
  8
0
  6
BYBLOCK
 62
     4
100
AcDbLine
 10
310.2659686281546
 20
81.58623798363686
 30
0.0
 11
346.0762802799774
 21
81.58623798363686
 31
0.0
  0
LINE
  5
6A9
330
6A6
100
AcDbEntity
  8
0
  6
BYBLOCK
 62
     4
100
AcDbLine
 10
345.0762802799774
 20
101.8862379836369
 30
0.0
 11
345.0762802799774
 21
84.08623798363686
 31
0.0
  0
INSERT
  5
6AA
330
6A6
100
AcDbEntity
  8
0
  6
BYBLOCK
 62
     4
100
AcDbBlockReference
  2
_OPEN
 10
345.0762802799774
 20
104.3862379836369
 30
0.0
 41
2.5
 42
2.5
 43
2.5
 50
90.0
  0
INSERT
  5
6AB
330
6A6
100
AcDbEntity
  8
0
  6
BYBLOCK
 62
     4
100
AcDbBlockReference
  2
_OPEN
 10
345.0762802799774
 20
81.58623798363686
 30
0.0
 41
2.5
 42
2.5
 43
2.5
 50
270.0
  0
MTEXT
  5
6AC
330
6A6
100
AcDbEntity
  8
0
  6
BYBLOCK
 62
     2
100
AcDbMText
 10
343.2762802799774
 20
92.98623798363689
 30
0.0
 40
3.2
 41
0.0
 71
     5
 72
     1
  1
\A1;22.8
  7
BGS
 11
0.0000000000000001
 21
1.0
 31
0.0
1001
ACAD
1000
MTEXTBEGIN
1070
    73
1070
     1
1070
    44
1040
1.0
1070
    74
1070
     0
1000
MTEXTEND
  0
POINT
  5
6AD
330
6A6
100
AcDbEntity
  8
DEFPOINTS
  6
BYBLOCK
 62
     0
100
AcDbPoint
 10
309.5659686281546
 20
104.3862379836369
 30
0.0
  0
POINT
  5
6AE
330
6A6
100
AcDbEntity
  8
DEFPOINTS
  6
BYBLOCK
 62
     0
100
AcDbPoint
 10
310.0659686281546
 20
81.58623798363686
 30
0.0
  0
POINT
  5
6AF
330
6A6
100
AcDbEntity
  8
DEFPOINTS
  6
BYBLOCK
 62
     0
100
AcDbPoint
 10
345.0762802799774
 20
81.58623798363686
 30
0.0
  0
ENDBLK
  5
6B1
330
6A6
100
AcDbEntity
  8
0
100
AcDbBlockEnd
  0
BLOCK
  5
6BC
330
6B2
100
AcDbEntity
  8
0
100
AcDbBlockBegin
  2
*D10
 70
     1
 10
0.0
 20
0.0
 30
0.0
  3
*D10
  1

  0
LINE
  5
6B3
330
6B2
100
AcDbEntity
  8
0
  6
BYBLOCK
 62
     4
100
AcDbLine
 10
278.466068628155
 20
103.0862379836368
 30
0.0
 11
261.4434738332533
 21
103.0862379836368
 31
0.0
  0
LINE
  5
6B4
330
6B2
100
AcDbEntity
  8
0
  6
BYBLOCK
 62
     4
100
AcDbLine
 10
278.466068628155
 20
84.08623798363676
 30
0.0
 11
261.4434738332533
 21
84.08623798363676
 31
0.0
  0
LINE
  5
6B5
330
6B2
100
AcDbEntity
  8
0
  6
BYBLOCK
 62
     4
100
AcDbLine
 10
262.4434738332534
 20
100.5862379836368
 30
0.0
 11
262.4434738332534
 21
86.58623798363676
 31
0.0
  0
INSERT
  5
6B6
330
6B2
100
AcDbEntity
  8
0
  6
BYBLOCK
 62
     4
100
AcDbBlockReference
  2
_OPEN
 10
262.4434738332534
 20
103.0862379836368
 30
0.0
 41
2.5
 42
2.5
 43
2.5
 50
90.0
  0
INSERT
  5
6B7
330
6B2
100
AcDbEntity
  8
0
  6
BYBLOCK
 62
     4
100
AcDbBlockReference
  2
_OPEN
 10
262.4434738332534
 20
84.08623798363676
 30
0.0
 41
2.5
 42
2.5
 43
2.5
 50
270.0
  0
MTEXT
  5
6B8
330
6B2
100
AcDbEntity
  8
0
  6
BYBLOCK
 62
     2
100
AcDbMText
 10
260.6434738332533
 20
93.58623798363678
 30
0.0
 40
3.2
 41
0.0
 71
     5
 72
     1
  1
\A1;19
  7
BGS
 11
0.0000000000000001
 21
1.0
 31
0.0
1001
ACAD
1000
MTEXTBEGIN
1070
    73
1070
     1
1070
    44
1040
1.0
1070
    74
1070
     0
1000
MTEXTEND
  0
POINT
  5
6B9
330
6B2
100
AcDbEntity
  8
DEFPOINTS
  6
BYBLOCK
 62
     0
100
AcDbPoint
 10
278.666068628155
 20
103.0862379836368
 30
0.0
  0
POINT
  5
6BA
330
6B2
100
AcDbEntity
  8
DEFPOINTS
  6
BYBLOCK
 62
     0
100
AcDbPoint
 10
278.666068628155
 20
84.08623798363676
 30
0.0
  0
POINT
  5
6BB
330
6B2
100
AcDbEntity
  8
DEFPOINTS
  6
BYBLOCK
 62
     0
100
AcDbPoint
 10
262.4434738332534
 20
84.08623798363676
 30
0.0
  0
ENDBLK
  5
6BD
330
6B2
100
AcDbEntity
  8
0
100
AcDbBlockEnd
  0
BLOCK
  5
6C8
330
6BE
100
AcDbEntity
  8
0
100
AcDbBlockBegin
  2
*D11
 70
     1
 10
0.0
 20
0.0
 30
0.0
  3
*D11
  1

  0
LINE
  5
6BF
330
6BE
100
AcDbEntity
  8
0
  6
BYBLOCK
 62
     4
100
AcDbLine
 10
336.3593030558455
 20
93.5862379836368
 30
0.0
 11
335.3780905882838
 21
93.5862379836368
 31
0.0
  0
LINE
  5
6C0
330
6BE
100
AcDbEntity
  8
0
  6
BYBLOCK
 62
     4
100
AcDbLine
 10
336.3593030558455
 20
104.3862379836369
 30
0.0
 11
335.3780905882838
 21
104.3862379836369
 31
0.0
  0
LINE
  5
6C1
330
6BE
100
AcDbEntity
  8
0
  6
BYBLOCK
 62
     4
100
AcDbLine
 10
336.3780905882838
 20
96.0862379836368
 30
0.0
 11
336.3780905882838
 21
101.8862379836369
 31
0.0
  0
INSERT
  5
6C2
330
6BE
100
AcDbEntity
  8
0
  6
BYBLOCK
 62
     4
100
AcDbBlockReference
  2
_OPEN
 10
336.3780905882838
 20
93.5862379836368
 30
0.0
 41
2.5
 42
2.5
 43
2.5
 50
270.0
  0
INSERT
  5
6C3
330
6BE
100
AcDbEntity
  8
0
  6
BYBLOCK
 62
     4
100
AcDbBlockReference
  2
_OPEN
 10
336.3780905882838
 20
104.3862379836369
 30
0.0
 41
2.5
 42
2.5
 43
2.5
 50
90.0
  0
MTEXT
  5
6C4
330
6BE
100
AcDbEntity
  8
0
  6
BYBLOCK
 62
     2
100
AcDbMText
 10
334.5780905882838
 20
98.98623798363686
 30
0.0
 40
3.2
 41
0.0
 71
     5
 72
     1
  1
\A1;10.8
  7
BGS
 11
0.0000000000000001
 21
1.0
 31
0.0
1001
ACAD
1000
MTEXTBEGIN
1070
    73
1070
     1
1070
    44
1040
1.0
1070
    74
1070
     0
1000
MTEXTEND
  0
POINT
  5
6C5
330
6BE
100
AcDbEntity
  8
DEFPOINTS
  6
BYBLOCK
 62
     0
100
AcDbPoint
 10
336.5593030558454
 20
93.5862379836368
 30
0.0
  0
POINT
  5
6C6
330
6BE
100
AcDbEntity
  8
DEFPOINTS
  6
BYBLOCK
 62
     0
100
AcDbPoint
 10
336.5593030558454
 20
104.3862379836369
 30
0.0
  0
POINT
  5
6C7
330
6BE
100
AcDbEntity
  8
DEFPOINTS
  6
BYBLOCK
 62
     0
100
AcDbPoint
 10
336.3780905882838
 20
104.3862379836369
 30
0.0
  0
ENDBLK
  5
6C9
330
6BE
100
AcDbEntity
  8
0
100
AcDbBlockEnd
  0
BLOCK
  5
6D4
330
6CA
100
AcDbEntity
  8
0
100
AcDbBlockBegin
  2
*D12
 70
     1
 10
0.0
 20
0.0
 30
0.0
  3
*D12
  1

  0
LINE
  5
6CB
330
6CA
100
AcDbEntity
  8
0
  6
BYBLOCK
 62
     4
100
AcDbLine
 10
336.1780905882838
 20
93.5862379836368
 30
0.0
 11
335.3780905882838
 21
93.5862379836368
 31
0.0
  0
LINE
  5
6CC
330
6CA
100
AcDbEntity
  8
0
  6
BYBLOCK
 62
     4
100
AcDbLine
 10
336.1780905882838
 20
81.58623798363686
 30
0.0
 11
335.3780905882838
 21
81.58623798363686
 31
0.0
  0
LINE
  5
6CD
330
6CA
100
AcDbEntity
  8
0
  6
BYBLOCK
 62
     4
100
AcDbLine
 10
336.3780905882838
 20
91.0862379836368
 30
0.0
 11
336.3780905882838
 21
84.08623798363686
 31
0.0
  0
INSERT
  5
6CE
330
6CA
100
AcDbEntity
  8
0
  6
BYBLOCK
 62
     4
100
AcDbBlockReference
  2
_OPEN
 10
336.3780905882838
 20
93.5862379836368
 30
0.0
 41
2.5
 42
2.5
 43
2.5
 50
90.0
  0
INSERT
  5
6CF
330
6CA
100
AcDbEntity
  8
0
  6
BYBLOCK
 62
     4
100
AcDbBlockReference
  2
_OPEN
 10
336.3780905882838
 20
81.58623798363686
 30
0.0
 41
2.5
 42
2.5
 43
2.5
 50
270.0
  0
MTEXT
  5
6D0
330
6CA
100
AcDbEntity
  8
0
  6
BYBLOCK
 62
     2
100
AcDbMText
 10
334.5780905882838
 20
87.58623798363684
 30
0.0
 40
3.2
 41
0.0
 71
     5
 72
     1
  1
\A1;12
  7
BGS
 11
0.0000000000000001
 21
1.0
 31
0.0
1001
ACAD
1000
MTEXTBEGIN
1070
    73
1070
     1
1070
    44
1040
1.0
1070
    74
1070
     0
1000
MTEXTEND
  0
POINT
  5
6D1
330
6CA
100
AcDbEntity
  8
DEFPOINTS
  6
BYBLOCK
 62
     0
100
AcDbPoint
 10
336.3780905882838
 20
93.5862379836368
 30
0.0
  0
POINT
  5
6D2
330
6CA
100
AcDbEntity
  8
DEFPOINTS
  6
BYBLOCK
 62
     0
100
AcDbPoint
 10
336.3780905882838
 20
81.58623798363686
 30
0.0
  0
POINT
  5
6D3
330
6CA
100
AcDbEntity
  8
DEFPOINTS
  6
BYBLOCK
 62
     0
100
AcDbPoint
 10
336.3780905882838
 20
81.58623798363686
 30
0.0
  0
ENDBLK
  5
6D5
330
6CA
100
AcDbEntity
  8
0
100
AcDbBlockEnd
  0
BLOCK
  5
75B
330
6D6
100
AcDbEntity
  8
0
 62
     2
100
AcDbBlockBegin
  2
A$C49F21E15
 70
     0
 10
0.0
 20
0.0
 30
0.0
  3
A$C49F21E15
  1

  0
DIMENSION
  5
6D7
330
6D6
100
AcDbEntity
  8
L-2
  6
CONTINUOUS
100
AcDbDimension
  2
*D10
 10
3.399999662628488
 20
16.32617043762655
 30
0.0
 11
1.599999662628476
 21
25.82617043762658
 31
0.0
 12
-259.0434741706248
 22
-67.76006754601019
 32
0.0
  3
CAD-STD
100
AcDbAlignedDimension
 13
19.62259445753011
 23
35.32617043762661
 33
0.0
 14
19.62259445753011
 24
16.32617043762655
 34
0.0
 50
90.0
100
AcDbRotatedDimension
  0
DIMENSION
  5
6D8
330
6D6
100
AcDbEntity
  8
L-2
  6
CONTINUOUS
100
AcDbDimension
  2
*D8
 10
51.02249445752978
 20
0.9999996854481878
 30
0.0
 11
32.02254445752993
 21
2.799999685448185
 31
0.0
 12
-259.0434741706248
 22
-67.76006754601019
 32
0.0
  1
38
  3
CAD-STD
100
AcDbAlignedDimension
 13
13.02259445753009
 23
6.713678292698773
 33
0.0
 14
51.02249445752978
 24
13.82617043762667
 34
0.0
100
AcDbRotatedDimension
  0
DIMENSION
  5
6D9
330
6D6
100
AcDbEntity
  8
L-2
  6
CONTINUOUS
100
AcDbDimension
  2
*D7
 10
32.02259445752975
 20
6.713678292698773
 30
0.0
 11
22.52259445752991
 21
8.51367829269877
 31
0.0
 12
-259.0434741706248
 22
-67.76006754601019
 32
0.0
  3
CAD-STD
100
AcDbAlignedDimension
 13
13.02259445753009
 23
19.32617043762652
 33
0.0
 14
32.02259445752975
 24
13.82617043762664
 34
0.0
100
AcDbRotatedDimension
  0
DIMENSION
  5
6DA
330
6D6
100
AcDbEntity
  8
L-2
  6
CONTINUOUS
100
AcDbDimension
  2
*D6
 10
65.02256050616598
 20
42.97747384734975
 30
0.0
 11
39.02257748184808
 21
44.77747384734975
 31
0.0
 12
-259.0434741706248
 22
-67.76006754601019
 32
0.0
  3
CAD-STD
100
AcDbAlignedDimension
 13
13.02259445753014
 23
32.32617043762658
 33
0.0
 14
65.02256050616598
 24
34.32617043762656
 34
0.0
100
AcDbRotatedDimension
  0
LINE
  5
6DB
330
6D6
100
AcDbEntity
  8
L-1
  6
CONTINUOUS
 62
     7
100
AcDbLine
 10
16.02259445753009
 20
23.07617043762658
 30
0.0
 11
21.02259445753009
 21
23.07617043762658
 31
0.0
  0
LINE
  5
6DC
330
6D6
100
AcDbEntity
  8
L-1
  6
CONTINUOUS
 62
     7
100
AcDbLine
 10
16.02259445753014
 20
28.57617043762658
 30
0.0
 11
21.02259445753009
 21
28.57617043762656
 31
0.0
  0
LINE
  5
6DD
330
6D6
100
AcDbEntity
  8
L-1
  6
CONTINUOUS
 62
     7
100
AcDbLine
 10
13.52259445753009
 20
18.82617043762652
 30
0.0
 11
19.12259445753005
 21
18.82617043762655
 31
0.0
  0
LINE
  5
6DE
330
6D6
100
AcDbEntity
  8
L-1
  6
CONTINUOUS
 62
     7
100
AcDbLine
 10
13.52259445753003
 20
18.82617043762652
 30
0.0
 11
19.12259445753005
 21
18.82617043762655
 31
0.0
  0
LINE
  5
6DF
330
6D6
100
AcDbEntity
  8
L-1
  6
CONTINUOUS
 62
     7
100
AcDbLine
 10
13.52259445753014
 20
32.82617043762658
 30
0.0
 11
19.12259445753017
 21
32.82617043762655
 31
0.0
  0
LINE
  5
6E0
330
6D6
100
AcDbEntity
  8
L-1
  6
CENTER2
 62
     1
 48
0.2
100
AcDbLine
 10
6.53028154214121
 20
25.82617043762661
 30
0.0
 11
79.21125774220263
 21
25.82617043762661
 31
0.0
  0
LINE
  5
6E1
330
6D6
100
AcDbEntity
  8
L-1
  6
DASHED2
 62
     4
 48
0.2
100
AcDbLine
 10
14.52259445752895
 20
30.37617043762657
 30
0.0
 11
22.22259445752894
 21
30.37617043762657
 31
0.0
  0
LINE
  5
6E2
330
6D6
100
AcDbEntity
  8
L-1
  6
DASHED2
 62
     4
 48
0.2
100
AcDbLine
 10
14.52259445752895
 20
30.77617043762649
 30
0.0
 11
22.22259445752894
 21
30.77617043762657
 31
0.0
  0
LINE
  5
6E3
330
6D6
100
AcDbEntity
  8
L-1
  6
DASHED2
 62
     4
 48
0.2
100
AcDbLine
 10
14.52259445752884
 20
21.2761704376266
 30
0.0
 11
22.22259445752894
 21
21.27617043762654
 31
0.0
  0
LINE
  5
6E4
330
6D6
100
AcDbEntity
  8
L-1
  6
DASHED2
 62
     4
 48
0.2
100
AcDbLine
 10
14.52259445752884
 20
20.87617043762662
 30
0.0
 11
22.22259445752894
 21
20.87617043762659
 31
0.0
  0
DIMENSION
  5
6E5
330
6D6
100
AcDbEntity
  8
L-2
  6
CONTINUOUS
100
AcDbDimension
  2
*D5
 10
7.959174777589396
 20
18.82617043762652
 30
0.0
 11
6.159174777589385
 21
25.82617043762654
 31
0.0
 12
-259.0434741706248
 22
-67.76006754601019
 32
0.0
  3
CAD-STD
100
AcDbAlignedDimension
 13
13.5225944575302
 23
32.82617043762657
 33
0.0
 14
13.52259445753003
 24
18.82617043762652
 34
0.0
 50
90.0
100
AcDbRotatedDimension
  0
LINE
  5
6E6
330
6D6
100
AcDbEntity
  8
L-1
  6
DASHED2
 62
     3
 48
0.2
100
AcDbLine
 10
18.12259445753022
 20
28.82617043762653
 30
0.0
 11
18.12259445753016
 21
22.82617043762658
 31
0.0
  0
LINE
  5
6E7
330
6D6
100
AcDbEntity
  8
L-1
  6
DASHED2
 62
     3
 48
0.2
100
AcDbLine
 10
18.12259445753016
 20
23.73617043762649
 30
0.0
 11
18.62259445753016
 21
23.23617043762649
 31
0.0
  0
LINE
  5
6E8
330
6D6
100
AcDbEntity
  8
L-1
  6
CONTINUOUS
 62
     7
100
AcDbLine
 10
16.02259445753014
 20
28.57617043762658
 30
0.0
 11
16.02259445753009
 21
23.07617043762658
 31
0.0
  0
LINE
  5
6E9
330
6D6
100
AcDbEntity
  8
L-1
  6
CONTINUOUS
 62
     7
100
AcDbLine
 10
13.02259445753014
 20
32.32617043762658
 30
0.0
 11
13.02259445753009
 21
19.32617043762652
 31
0.0
  0
LINE
  5
6EA
330
6D6
100
AcDbEntity
  8
L-1
  6
DASHED2
 62
     3
 48
0.2
100
AcDbLine
 10
13.52259445753009
 20
22.32617043762656
 30
0.0
 11
17.62259445753016
 21
22.32617043762658
 31
0.0
  0
ARC
  5
6EB
330
6D6
100
AcDbEntity
  8
L-1
  6
CONTINUOUS
 62
     7
100
AcDbCircle
 10
13.52259445753003
 20
19.32617043762652
 30
0.0
 40
0.5
100
AcDbArc
 50
180.0000000000006
 51
270.0000000000002
  0
ARC
  5
6EC
330
6D6
100
AcDbEntity
  8
L-1
  6
DASHED2
 62
     3
 48
0.2
100
AcDbCircle
 10
13.52259445753003
 20
21.82617043762655
 30
0.0
 40
0.5
100
AcDbArc
 50
89.99999999999998
 51
180.0
  0
ARC
  5
6ED
330
6D6
100
AcDbEntity
  8
L-1
  6
DASHED2
 62
     3
 48
0.2
100
AcDbCircle
 10
17.62259445753016
 20
22.82617043762661
 30
0.0
 40
0.5
100
AcDbArc
 50
270.0000000000007
 51
359.9999999999997
  0
LINE
  5
6EE
330
6D6
100
AcDbEntity
  8
L-1
  6
DASHED2
 62
     3
 48
0.2
100
AcDbLine
 10
18.62259445753016
 20
22.73617043762649
 30
0.0
 11
18.62259445753016
 21
23.23617043762649
 31
0.0
  0
LINE
  5
6EF
330
6D6
100
AcDbEntity
  8
L-1
  6
DASHED2
 62
     3
 48
0.2
100
AcDbLine
 10
18.12259445753016
 20
22.73617043762649
 30
0.0
 11
18.62259445753016
 21
22.73617043762649
 31
0.0
  0
POINT
  5
6F0
330
6D6
100
AcDbEntity
  8
L-1
  6
BYBLOCK
 62
     0
100
AcDbPoint
 10
18.12259445753016
 20
22.73617043762649
 30
0.0
  0
POINT
  5
6F1
330
6D6
100
AcDbEntity
  8
L-1
  6
BYBLOCK
 62
     0
100
AcDbPoint
 10
18.12259445753016
 20
22.73617043762649
 30
0.0
  0
LINE
  5
6F2
330
6D6
100
AcDbEntity
  8
L-1
  6
CONTINUOUS
 62
     4
100
AcDbLine
 10
16.02259445753009
 20
22.07617043762658
 30
0.0
 11
16.02259445753009
 21
23.07617043762658
 31
0.0
  0
LINE
  5
6F3
330
6D6
100
AcDbEntity
  8
L-1
  6
DASHED2
 62
     4
 48
0.2
100
AcDbLine
 10
14.52259445752884
 20
20.87617043762662
 30
0.0
 11
14.52259445752884
 21
21.2761704376266
 31
0.0
  0
LINE
  5
6F4
330
6D6
100
AcDbEntity
  8
L-1
  6
DASHED2
 62
     4
 48
0.2
100
AcDbLine
 10
14.52259445752884
 20
20.87617043762662
 30
0.0
 11
14.52259445752884
 21
21.2761704376266
 31
0.0
  0
LINE
  5
6F5
330
6D6
100
AcDbEntity
  8
L-1
  6
DASHED2
 62
     3
 48
0.2
100
AcDbLine
 10
13.52259445753014
 20
29.32617043762647
 30
0.0
 11
17.62259445753022
 21
29.32617043762652
 31
0.0
  0
ARC
  5
6F6
330
6D6
100
AcDbEntity
  8
L-1
  6
DASHED2
 62
     3
 48
0.2
100
AcDbCircle
 10
13.52259445753014
 20
29.82617043762647
 30
0.0
 40
0.5
100
AcDbArc
 50
180.0
 51
270.0
  0
ARC
  5
6F7
330
6D6
100
AcDbEntity
  8
L-1
  6
DASHED2
 62
     3
 48
0.2
100
AcDbCircle
 10
17.62259445753022
 20
28.82617043762653
 30
0.0
 40
0.5
100
AcDbArc
 50
359.9999999999997
 51
90.00000000000069
  0
LINE
  5
6F8
330
6D6
100
AcDbEntity
  8
L-1
  6
DASHED2
 62
     3
 48
0.2
100
AcDbLine
 10
18.62259445753016
 20
28.91617043762662
 30
0.0
 11
18.62259445753016
 21
28.41617043762662
 31
0.0
  0
LINE
  5
6F9
330
6D6
100
AcDbEntity
  8
L-1
  6
DASHED2
 62
     3
 48
0.2
100
AcDbLine
 10
18.12259445753016
 20
28.91617043762662
 30
0.0
 11
18.62259445753016
 21
28.91617043762662
 31
0.0
  0
LINE
  5
6FA
330
6D6
100
AcDbEntity
  8
L-1
  6
DASHED2
 62
     3
 48
0.2
100
AcDbLine
 10
18.12259445753016
 20
27.91617043762661
 30
0.0
 11
18.62259445753016
 21
28.41617043762662
 31
0.0
  0
LINE
  5
6FB
330
6D6
100
AcDbEntity
  8
L-1
  6
CONTINUOUS
 62
     4
100
AcDbLine
 10
16.02259445753014
 20
28.57617043762658
 30
0.0
 11
16.02259445753014
 21
29.57617043762658
 31
0.0
  0
LINE
  5
6FC
330
6D6
100
AcDbEntity
  8
L-1
  6
DASHED2
 62
     4
 48
0.2
100
AcDbLine
 10
14.52259445752895
 20
30.77617043762649
 30
0.0
 11
14.52259445752895
 21
30.37617043762651
 31
0.0
  0
ARC
  5
6FD
330
6D6
100
AcDbEntity
  8
L-1
  6
CONTINUOUS
 62
     7
100
AcDbCircle
 10
13.5225944575302
 20
32.32617043762658
 30
0.0
 40
0.5
100
AcDbArc
 50
89.99999999999998
 51
180.0
  0
DIMENSION
  5
6FE
330
6D6
100
AcDbEntity
  8
L-2
  6
CONTINUOUS
100
AcDbDimension
  2
*D9
 10
86.03280610935257
 20
13.82617043762667
 30
0.0
 11
84.23280610935256
 21
25.22617043762669
 31
0.0
 12
-259.0434741706248
 22
-67.76006754601019
 32
0.0
  3
CAD-STD
100
AcDbAlignedDimension
 13
50.52249445752972
 23
36.62617043762672
 33
0.0
 14
51.02249445752978
 24
13.82617043762667
 34
0.0
 50
90.0
100
AcDbRotatedDimension
  0
LINE
  5
6FF
330
6D6
100
AcDbEntity
  8
L-1
  6
CONTINUOUS
 62
     7
100
AcDbLine
 10
64.02256050616597
 20
35.32617043762655
 30
0.0
 11
51.02249445752971
 21
35.3261704376267
 31
0.0
  0
LINE
  5
700
330
6D6
100
AcDbEntity
  8
L-1
  6
CONTINUOUS
 62
     7
100
AcDbLine
 10
65.02256050616598
 20
34.32617043762658
 30
0.0
 11
51.02249445752971
 21
34.3261704376267
 31
0.0
  0
LINE
  5
701
330
6D6
100
AcDbEntity
  8
L-1
  6
CONTINUOUS
 62
     7
100
AcDbLine
 10
65.02256050616598
 20
31.32617043762667
 30
0.0
 11
51.02256050616597
 21
31.32617043762667
 31
0.0
  0
LINE
  5
702
330
6D6
100
AcDbEntity
  8
L-1
  6
CONTINUOUS
 62
     7
100
AcDbLine
 10
65.02256050616598
 20
30.32617043762667
 30
0.0
 11
51.02256050616597
 21
30.32617043762667
 31
0.0
  0
LINE
  5
703
330
6D6
100
AcDbEntity
  8
L-1
  6
CONTINUOUS
 62
     7
100
AcDbLine
 10
64.02256050616597
 20
16.3261704376265
 30
0.0
 11
51.02249445752978
 21
16.3261704376265
 31
0.0
  0
LINE
  5
704
330
6D6
100
AcDbEntity
  8
L-1
  6
CONTINUOUS
 62
     7
100
AcDbLine
 10
65.02256050616598
 20
21.32617043762661
 30
0.0
 11
51.02256050616597
 21
21.32617043762661
 31
0.0
  0
LINE
  5
705
330
6D6
100
AcDbEntity
  8
L-1
  6
CONTINUOUS
 62
     7
100
AcDbLine
 10
65.02256050616598
 20
20.32617043762661
 30
0.0
 11
51.02256050616597
 21
20.32617043762661
 31
0.0
  0
LINE
  5
706
330
6D6
100
AcDbEntity
  8
L-1
  6
CONTINUOUS
 62
     7
100
AcDbLine
 10
65.02256050616598
 20
17.3261704376265
 30
0.0
 11
51.02249445752978
 21
17.3261704376265
 31
0.0
  0
LINE
  5
707
330
6D6
100
AcDbEntity
  8
L-1
  6
CENTER2
 62
     1
 48
0.2
100
AcDbLine
 10
59.52256050616597
 20
12.35860911434042
 30
0.0
 11
59.52256050616597
 21
40.26124834870029
 31
0.0
  0
LINE
  5
708
330
6D6
100
AcDbEntity
  8
L-1
  6
CONTINUOUS
 62
     7
100
AcDbLine
 10
44.6082808951566
 20
34.82617043762667
 30
0.0
 11
32.02259445752963
 21
34.82617043762667
 31
0.0
  0
LINE
  5
709
330
6D6
100
AcDbEntity
  8
L-1
  6
CONTINUOUS
 62
     7
100
AcDbLine
 10
39.02259445752963
 20
31.82617043762656
 30
0.0
 11
45.40828089515662
 21
31.82617043762661
 31
0.0
  0
LINE
  5
70A
330
6D6
100
AcDbEntity
  8
L-1
  6
DASHED2
 62
     3
 48
0.2
100
AcDbLine
 10
47.02249445752971
 20
32.82617043762661
 30
0.0
 11
32.02259445752957
 21
32.82617043762664
 31
0.0
  0
LINE
  5
70B
330
6D6
100
AcDbEntity
  8
L-1
  6
CONTINUOUS
 62
     7
100
AcDbLine
 10
32.02259445752975
 20
13.82617043762664
 30
0.0
 11
51.02249445752978
 21
13.82617043762667
 31
0.0
  0
LINE
  5
70C
330
6D6
100
AcDbEntity
  8
L-1
  6
CONTINUOUS
 62
     7
100
AcDbLine
 10
37.63680801990267
 20
16.8261704376267
 30
0.0
 11
44.02259445752974
 21
16.82617043762673
 31
0.0
  0
LINE
  5
70D
330
6D6
100
AcDbEntity
  8
L-1
  6
CONTINUOUS
 62
     7
100
AcDbLine
 10
33.02259445752963
 20
25.07617043762661
 30
0.0
 11
49.90828089515668
 21
25.07617043762655
 31
0.0
  0
LINE
  5
70E
330
6D6
100
AcDbEntity
  8
L-1
  6
CONTINUOUS
 62
     7
100
AcDbLine
 10
33.1368080199029
 20
23.57617043762658
 30
0.0
 11
50.02249445752972
 21
23.57617043762658
 31
0.0
  0
LINE
  5
70F
330
6D6
100
AcDbEntity
  8
L-1
  6
DASHED2
 62
     3
 48
0.2
100
AcDbLine
 10
51.02249445752971
 20
18.8261704376265
 30
0.0
 11
32.02259445752969
 21
18.8261704376265
 31
0.0
  0
LINE
  5
710
330
6D6
100
AcDbEntity
  8
L-1
  6
CONTINUOUS
 62
     7
100
AcDbLine
 10
21.02259445753014
 20
28.57617043762653
 30
0.0
 11
21.02259445753009
 21
23.07617043762658
 31
0.0
  0
ARC
  5
711
330
6D6
100
AcDbEntity
  8
L-1
  6
CONTINUOUS
 62
     7
100
AcDbCircle
 10
33.1368080199029
 20
22.57617043762658
 30
0.0
 40
1.0
100
AcDbArc
 50
89.99999999999991
 51
225.0
  0
LINE
  5
712
330
6D6
100
AcDbEntity
  8
L-1
  6
CONTINUOUS
 62
     7
100
AcDbLine
 10
32.02259445752963
 20
34.82617043762667
 30
0.0
 11
32.02259445752963
 21
20.22617043762664
 31
0.0
  0
LINE
  5
713
330
6D6
100
AcDbEntity
  8
L-1
  6
DASHED2
 62
     3
 48
0.2
100
AcDbLine
 10
22.22259445752894
 20
30.9761704376267
 30
0.0
 11
22.22259445752894
 21
20.67617043762678
 31
0.0
  0
LINE
  5
714
330
6D6
100
AcDbEntity
  8
L-1
  6
DASHED2
 62
     3
 48
0.2
100
AcDbLine
 10
22.62259445752903
 20
31.67617043762672
 30
0.0
 11
22.62259445752892
 21
19.97617043762667
 31
0.0
  0
LINE
  5
715
330
6D6
100
AcDbEntity
  8
L-1
  6
CONTINUOUS
 62
     7
100
AcDbLine
 10
26.12259445753005
 20
18.82617043762658
 30
0.0
 11
32.02259445753003
 21
18.82617043762661
 31
0.0
  0
LINE
  5
716
330
6D6
100
AcDbEntity
  8
L-1
  6
CONTINUOUS
 62
     7
100
AcDbLine
 10
26.12259445753005
 20
18.82617043762658
 30
0.0
 11
31.02259445753003
 21
18.82617043762661
 31
0.0
  0
LINE
  5
717
330
6D6
100
AcDbEntity
  8
L-1
  6
DASHED2
 62
     3
 48
0.2
100
AcDbLine
 10
22.62259445752897
 20
19.97617043762667
 30
0.0
 11
32.02259445752895
 21
19.97617043762662
 31
0.0
  0
LINE
  5
718
330
6D6
100
AcDbEntity
  8
L-1
  6
DASHED2
 62
     3
 48
0.2
100
AcDbLine
 10
29.22259445752899
 20
19.27617043762651
 30
0.0
 11
30.22259445752899
 21
19.27617043762649
 31
0.0
  0
LINE
  5
719
330
6D6
100
AcDbEntity
  8
L-1
  6
CONTINUOUS
 62
     7
100
AcDbLine
 10
19.62259445753005
 20
16.32617043762655
 30
0.0
 11
25.62259445753011
 21
16.32617043762658
 31
0.0
  0
LINE
  5
71A
330
6D6
100
AcDbEntity
  8
L-1
  6
CONTINUOUS
 62
     4
100
AcDbLine
 10
21.02259445753009
 20
22.07617043762656
 30
0.0
 11
21.02259445753009
 21
23.07617043762655
 31
0.0
  0
LINE
  5
71B
330
6D6
100
AcDbEntity
  8
L-1
  6
CONTINUOUS
 62
     7
100
AcDbLine
 10
19.12259445753005
 20
18.82617043762655
 30
0.0
 11
19.12259445753005
 21
16.82617043762656
 31
0.0
  0
ARC
  5
71C
330
6D6
100
AcDbEntity
  8
L-1
  6
CONTINUOUS
 62
     7
100
AcDbCircle
 10
19.62259445753011
 20
16.82617043762658
 30
0.0
 40
0.5
100
AcDbArc
 50
179.9999999999993
 51
270.0000000000004
  0
LINE
  5
71D
330
6D6
100
AcDbEntity
  8
L-1
  6
CONTINUOUS
 62
     7
100
AcDbLine
 10
22.22259445752894
 20
20.37617043762668
 30
0.0
 11
22.22259445752894
 21
20.67617043762678
 31
0.0
  0
LINE
  5
71E
330
6D6
100
AcDbEntity
  8
L-1
  6
DASHED2
 62
     3
 48
0.2
100
AcDbLine
 10
22.62259445752892
 20
19.97617043762667
 30
0.0
 11
22.22259445752894
 21
20.37617043762668
 31
0.0
  0
LINE
  5
71F
330
6D6
100
AcDbEntity
  8
L-1
  6
CONTINUOUS
 62
     7
100
AcDbLine
 10
26.12259445753005
 20
18.82617043762655
 30
0.0
 11
26.12259445753011
 21
16.82617043762658
 31
0.0
  0
ARC
  5
720
330
6D6
100
AcDbEntity
  8
L-1
  6
CONTINUOUS
 62
     7
100
AcDbCircle
 10
25.62259445753011
 20
16.82617043762661
 30
0.0
 40
0.5
100
AcDbArc
 50
270.0000000000004
 51
0.0
  0
LINE
  5
721
330
6D6
100
AcDbEntity
  8
L-1
  6
DASHED2
 62
     3
 48
0.2
100
AcDbLine
 10
29.22259445752899
 20
19.27617043762651
 30
0.0
 11
28.22259445752911
 21
19.97617043762647
 31
0.0
  0
LINE
  5
722
330
6D6
100
AcDbEntity
  8
L-1
  6
CONTINUOUS
 62
     7
 48
0.2
100
AcDbLine
 10
32.02259445752963
 20
20.22617043762664
 30
0.0
 11
32.02259445752975
 21
13.82617043762664
 31
0.0
  0
LINE
  5
723
330
6D6
100
AcDbEntity
  8
L-1
  6
CONTINUOUS
 62
     7
100
AcDbLine
 10
36.92970123871612
 20
17.11906365644014
 30
0.0
 11
32.42970123871634
 21
21.86906365644003
 31
0.0
  0
LINE
  5
724
330
6D6
100
AcDbEntity
  8
L-1
  6
DASHED2
 62
     3
 48
0.2
100
AcDbLine
 10
30.22259445752899
 20
19.27617043762649
 30
0.0
 11
30.22259445752911
 21
19.97617043762653
 31
0.0
  0
ARC
  5
725
330
6D6
100
AcDbEntity
  8
L-1
  6
CONTINUOUS
 62
     7
100
AcDbCircle
 10
37.63680801990267
 20
17.8261704376267
 30
0.0
 40
1.0
100
AcDbArc
 50
225.0
 51
270.0000000000002
  0
LINE
  5
726
330
6D6
100
AcDbEntity
  8
L-1
  6
CONTINUOUS
 62
     7
100
AcDbLine
 10
26.12259445753017
 20
32.82617043762655
 30
0.0
 11
32.02259445753003
 21
32.82617043762655
 31
0.0
  0
LINE
  5
727
330
6D6
100
AcDbEntity
  8
L-1
  6
DASHED2
 62
     3
 48
0.2
100
AcDbLine
 10
22.62259445752897
 20
31.67617043762672
 30
0.0
 11
32.02259445752906
 21
31.67617043762678
 31
0.0
  0
LINE
  5
728
330
6D6
100
AcDbEntity
  8
L-1
  6
DASHED2
 62
     3
 48
0.2
100
AcDbLine
 10
29.22259445752899
 20
32.37617043762671
 30
0.0
 11
30.22259445752899
 21
32.37617043762674
 31
0.0
  0
LINE
  5
729
330
6D6
100
AcDbEntity
  8
L-1
  6
DASHED2
 62
     3
 48
0.2
100
AcDbLine
 10
22.22259445752894
 20
31.27617043762668
 30
0.0
 11
22.22259445752894
 21
30.9761704376267
 31
0.0
  0
LINE
  5
72A
330
6D6
100
AcDbEntity
  8
L-1
  6
CONTINUOUS
 62
     4
100
AcDbLine
 10
21.02259445753014
 20
28.57617043762656
 30
0.0
 11
21.02259445753014
 21
29.57617043762658
 31
0.0
  0
LINE
  5
72B
330
6D6
100
AcDbEntity
  8
L-1
  6
CONTINUOUS
 62
     7
100
AcDbLine
 10
19.62259445753005
 20
35.32617043762661
 30
0.0
 11
25.62259445753005
 21
35.32617043762658
 31
0.0
  0
ARC
  5
72C
330
6D6
100
AcDbEntity
  8
L-1
  6
CONTINUOUS
 62
     7
100
AcDbCircle
 10
19.62259445753011
 20
34.82617043762661
 30
0.0
 40
0.5
100
AcDbArc
 50
89.99999999999966
 51
180.0000000000007
  0
LINE
  5
72D
330
6D6
100
AcDbEntity
  8
L-1
  6
CONTINUOUS
 62
     7
100
AcDbLine
 10
19.12259445753005
 20
34.82617043762661
 30
0.0
 11
19.12259445753017
 21
32.82617043762658
 31
0.0
  0
LINE
  5
72E
330
6D6
100
AcDbEntity
  8
L-1
  6
DASHED2
 62
     3
 48
0.2
100
AcDbLine
 10
22.22259445752894
 20
31.27617043762668
 30
0.0
 11
22.62259445752897
 21
31.67617043762669
 31
0.0
  0
LINE
  5
72F
330
6D6
100
AcDbEntity
  8
L-1
  6
CONTINUOUS
 62
     7
100
AcDbLine
 10
26.12259445753005
 20
34.82617043762658
 30
0.0
 11
26.12259445753017
 21
32.82617043762658
 31
0.0
  0
ARC
  5
730
330
6D6
100
AcDbEntity
  8
L-1
  6
CONTINUOUS
 62
     7
100
AcDbCircle
 10
25.62259445753011
 20
34.82617043762658
 30
0.0
 40
0.5
100
AcDbArc
 50
0.0000000000006488
 51
89.99999999999962
  0
LINE
  5
731
330
6D6
100
AcDbEntity
  8
L-1
  6
DASHED2
 62
     3
 48
0.2
100
AcDbLine
 10
29.22259445752899
 20
32.37617043762671
 30
0.0
 11
28.22259445752911
 21
31.67617043762675
 31
0.0
  0
ARC
  5
732
330
6D6
100
AcDbEntity
  8
L-1
  6
CONTINUOUS
 62
     7
100
AcDbCircle
 10
33.02259445752963
 20
26.07617043762661
 30
0.0
 40
1.0
100
AcDbArc
 50
180.0
 51
269.9999999999998
  0
LINE
  5
733
330
6D6
100
AcDbEntity
  8
L-1
  6
DASHED2
 62
     3
 48
0.2
100
AcDbLine
 10
39.02259445752963
 20
33.62617043762668
 30
0.0
 11
32.02259445752963
 21
33.62617043762668
 31
0.0
  0
LINE
  5
734
330
6D6
100
AcDbEntity
  8
L-1
  6
DASHED2
 62
     3
 48
0.2
100
AcDbLine
 10
30.22259445752899
 20
32.37617043762674
 30
0.0
 11
30.22259445752911
 21
31.67617043762669
 31
0.0
  0
LINE
  5
735
330
6D6
100
AcDbEntity
  8
L-1
  6
CONTINUOUS
 62
     7
100
AcDbLine
 10
39.02259445752963
 20
34.82617043762667
 30
0.0
 11
39.02259445752963
 21
31.82617043762658
 31
0.0
  0
LINE
  5
736
330
6D6
100
AcDbEntity
  8
L-1
  6
CONTINUOUS
 62
     7
100
AcDbLine
 10
51.02249445752971
 20
22.22617043762659
 30
0.0
 11
51.02249445752978
 21
28.41195687525348
 31
0.0
  0
ARC
  5
737
330
6D6
100
AcDbEntity
  8
L-1
  6
CONTINUOUS
 62
     7
100
AcDbCircle
 10
50.02249445752972
 20
22.57617043762658
 30
0.0
 40
1.0
100
AcDbArc
 50
0.0000000000003562
 51
89.99999999999994
  0
LINE
  5
738
330
6D6
100
AcDbEntity
  8
L-1
  6
CONTINUOUS
 62
     7
100
AcDbLine
 10
51.02256050616597
 20
18.82617043762667
 30
0.0
 11
51.02256050616597
 21
32.8261704376265
 31
0.0
  0
LINE
  5
739
330
6D6
100
AcDbEntity
  8
L-1
  6
CONTINUOUS
 62
     7
100
AcDbLine
 10
51.02249445752978
 20
13.82617043762667
 30
0.0
 11
51.02249445752971
 21
22.22617043762659
 31
0.0
  0
LINE
  5
73A
330
6D6
100
AcDbEntity
  8
L-1
  6
CONTINUOUS
 62
     7
100
AcDbLine
 10
44.02259445752974
 20
16.8261704376267
 30
0.0
 11
44.02259445752969
 21
13.82617043762667
 31
0.0
  0
LINE
  5
73B
330
6D6
100
AcDbEntity
  8
L-1
  6
DASHED2
 62
     3
 48
0.2
100
AcDbLine
 10
44.02259445752969
 20
15.02617043762666
 30
0.0
 11
51.02249445752978
 21
15.02617043762666
 31
0.0
  0
LINE
  5
73C
330
6D6
100
AcDbEntity
  8
L-1
  6
CONTINUOUS
 62
     7
100
AcDbLine
 10
51.02249445752971
 20
18.82617043762661
 30
0.0
 11
51.02256050616597
 21
18.82617043762661
 31
0.0
  0
LINE
  5
73D
330
6D6
100
AcDbEntity
  8
L-1
  6
CONTINUOUS
 62
     7
100
AcDbLine
 10
51.02256050616597
 20
18.8261704376265
 30
0.0
 11
51.02256050616597
 21
16.3261704376265
 31
0.0
  0
LINE
  5
73E
330
6D6
100
AcDbEntity
  8
L-1
  6
DASHED2
 62
     3
 48
0.2
100
AcDbLine
 10
54.17840481981102
 20
21.32617043762661
 30
0.0
 11
54.17840481981102
 21
16.3261704376265
 31
0.0
  0
LINE
  5
73F
330
6D6
100
AcDbEntity
  8
L-1
  6
DASHED2
 62
     3
 48
0.2
100
AcDbLine
 10
57.3871448557594
 20
31.32617043762667
 30
0.0
 11
51.02256050616597
 21
31.32617043762667
 31
0.0
  0
LINE
  5
740
330
6D6
100
AcDbEntity
  8
L-1
  6
CONTINUOUS
 62
     7
100
AcDbLine
 10
46.11538767634317
 20
31.53327721881316
 30
0.0
 11
50.61538767634323
 21
26.78327721881311
 31
0.0
  0
LINE
  5
741
330
6D6
100
AcDbEntity
  8
L-1
  6
CONTINUOUS
 62
     7
100
AcDbLine
 10
45.31538767634316
 20
34.53327721881314
 30
0.0
 11
50.72960123871633
 21
29.11906365644003
 31
0.0
  0
ARC
  5
742
330
6D6
100
AcDbEntity
  8
L-1
  6
CONTINUOUS
 62
     7
100
AcDbCircle
 10
50.02249445752977
 20
28.41195687525351
 30
0.0
 40
1.0
100
AcDbArc
 50
359.9999999999994
 51
44.99999999999972
  0
ARC
  5
743
330
6D6
100
AcDbEntity
  8
L-1
  6
CONTINUOUS
 62
     7
100
AcDbCircle
 10
49.90828089515668
 20
26.07617043762656
 30
0.0
 40
1.0
100
AcDbArc
 50
269.9999999999998
 51
44.99999999999949
  0
LINE
  5
744
330
6D6
100
AcDbEntity
  8
L-1
  6
CONTINUOUS
 62
     7
100
AcDbLine
 10
45.52249445752965
 20
36.62617043762665
 30
0.0
 11
50.52249445752972
 21
36.62617043762671
 31
0.0
  0
ARC
  5
745
330
6D6
100
AcDbEntity
  8
L-1
  6
CONTINUOUS
 62
     7
100
AcDbCircle
 10
45.40828089515662
 20
30.82617043762661
 30
0.0
 40
1.0
100
AcDbArc
 50
44.99999999999983
 51
90.00000000000072
  0
ARC
  5
746
330
6D6
100
AcDbEntity
  8
L-1
  6
CONTINUOUS
 62
     7
100
AcDbCircle
 10
44.6082808951566
 20
33.82617043762659
 30
0.0
 40
1.0
100
AcDbArc
 50
45.0
 51
90.0
  0
LINE
  5
747
330
6D6
100
AcDbEntity
  8
L-1
  6
CONTINUOUS
 62
     7
100
AcDbLine
 10
45.0224944575296
 20
34.73635015875106
 30
0.0
 11
45.02249445752966
 21
36.12617043762665
 31
0.0
  0
ARC
  5
748
330
6D6
100
AcDbEntity
  8
L-1
  6
CONTINUOUS
 62
     7
100
AcDbCircle
 10
45.52249445752965
 20
36.12617043762665
 30
0.0
 40
0.5
100
AcDbArc
 50
90.0
 51
180.0
  0
LINE
  5
749
330
6D6
100
AcDbEntity
  8
L-1
  6
CONTINUOUS
 62
     7
100
AcDbLine
 10
47.02249445752966
 20
32.82617043762661
 30
0.0
 11
51.02256050616597
 21
32.82617043762664
 31
0.0
  0
LINE
  5
74A
330
6D6
100
AcDbEntity
  8
L-1
  6
CONTINUOUS
 62
     7
100
AcDbLine
 10
51.02249445752971
 20
32.82617043762667
 30
0.0
 11
51.02249445752971
 21
36.12617043762671
 31
0.0
  0
LINE
  5
74B
330
6D6
100
AcDbEntity
  8
L-1
  6
CONTINUOUS
 62
     7
100
AcDbLine
 10
51.02256050616597
 20
32.82617043762655
 30
0.0
 11
51.02256050616597
 21
35.32617043762667
 31
0.0
  0
ARC
  5
74C
330
6D6
100
AcDbEntity
  8
L-1
  6
CONTINUOUS
 62
     7
100
AcDbCircle
 10
50.52249445752972
 20
36.12617043762671
 30
0.0
 40
0.5
100
AcDbArc
 50
0.0
 51
90.0000000000003
  0
LINE
  5
74D
330
6D6
100
AcDbEntity
  8
L-1
  6
CONTINUOUS
 62
     7
100
AcDbLine
 10
51.02256050616597
 20
35.3261704376267
 30
0.0
 11
49.98382606549603
 21
35.32617043762667
 31
0.0
  0
LINE
  5
74E
330
6D6
100
AcDbEntity
  8
L-1
  6
CONTINUOUS
 62
     7
100
AcDbLine
 10
48.42207234543571
 20
34.57554040600183
 30
0.0
 11
47.02256050616597
 21
32.82610438899036
 31
0.0
  0
ARC
  5
74F
330
6D6
100
AcDbEntity
  8
L-1
  6
CONTINUOUS
 62
     7
100
AcDbCircle
 10
49.98382606549603
 20
33.32617043762667
 30
0.0
 40
2.0
100
AcDbArc
 50
90.0
 51
141.3409301355962
  0
LINE
  5
750
330
6D6
100
AcDbEntity
  8
L-1
  6
DASHED2
 62
     3
 48
0.1
100
AcDbLine
 10
51.89050157781093
 20
35.32617043762667
 30
0.0
 11
51.89050157781093
 21
30.32617043762667
 31
0.0
  0
LINE
  5
751
330
6D6
100
AcDbEntity
  8
L-1
  6
DASHED2
 62
     3
 48
0.2
100
AcDbLine
 10
54.17840481981102
 20
35.32617043762667
 30
0.0
 11
54.17840481981102
 21
30.32617043762667
 31
0.0
  0
LINE
  5
752
330
6D6
100
AcDbEntity
  8
L-1
  6
DASHED2
 62
     3
 48
0.2
100
AcDbLine
 10
57.3871448557594
 20
31.32617043762667
 30
0.0
 11
57.3871448557594
 21
30.32617043762667
 31
0.0
  0
DIMENSION
  5
753
330
6D6
100
AcDbEntity
  8
L-2
  6
CONTINUOUS
100
AcDbDimension
  2
*D12
 10
77.33461641765893
 20
13.82617043762667
 30
0.0
 11
75.53461641765892
 21
19.82617043762664
 31
0.0
 12
-259.0434741706248
 22
-67.76006754601019
 32
0.0
  3
CAD-STD
100
AcDbAlignedDimension
 13
77.33461641765893
 23
25.82617043762661
 33
0.0
 14
77.33461641765893
 24
13.82617043762667
 34
0.0
 50
90.0
100
AcDbRotatedDimension
  0
ARC
  5
754
330
6D6
100
AcDbEntity
  8
L-1
  6
CONTINUOUS
 62
     7
100
AcDbCircle
 10
64.02256050616597
 20
17.3261704376265
 30
0.0
 40
1.0
100
AcDbArc
 50
270.0
 51
0.0
  0
LINE
  5
755
330
6D6
100
AcDbEntity
  8
L-1
  6
DASHED2
 62
     3
 48
0.2
100
AcDbLine
 10
62.65465245883911
 20
21.32617043762661
 30
0.0
 11
62.65465245883911
 21
16.32617043762644
 31
0.0
  0
LINE
  5
756
330
6D6
100
AcDbEntity
  8
L-1
  6
CONTINUOUS
 62
     7
100
AcDbLine
 10
65.02256050616598
 20
17.3261704376265
 30
0.0
 11
65.02256050616598
 21
21.32617043762661
 31
0.0
  0
LINE
  5
757
330
6D6
100
AcDbEntity
  8
L-1
  6
CONTINUOUS
 62
     7
100
AcDbLine
 10
65.02256050616598
 20
30.32617043762667
 30
0.0
 11
65.02256050616598
 21
34.32617043762656
 31
0.0
  0
LINE
  5
758
330
6D6
100
AcDbEntity
  8
L-1
  6
DASHED2
 62
     3
 48
0.2
100
AcDbLine
 10
62.65465245883911
 20
35.32617043762667
 30
0.0
 11
62.65465245883911
 21
30.32617043762667
 31
0.0
  0
ARC
  5
759
330
6D6
100
AcDbEntity
  8
L-1
  6
CONTINUOUS
 62
     7
100
AcDbCircle
 10
64.02256050616597
 20
34.32617043762656
 30
0.0
 40
1.0
100
AcDbArc
 50
0.0
 51
89.99999999999998
  0
DIMENSION
  5
75A
330
6D6
100
AcDbEntity
  8
L-2
  6
CONTINUOUS
100
AcDbDimension
  2
*D11
 10
77.33461641765893
 20
36.62617043762674
 30
0.0
 11
75.53461641765892
 21
31.22617043762668
 31
0.0
 12
-259.0434741706248
 22
-67.76006754601019
 32
0.0
  3
CAD-STD
100
AcDbAlignedDimension
 13
77.51582888522057
 23
25.82617043762661
 33
0.0
 14
77.51582888522057
 24
36.62617043762674
 34
0.0
 50
90.0
100
AcDbRotatedDimension
  0
ENDBLK
  5
75C
330
6D6
100
AcDbEntity
  8
0
 62
     2
100
AcDbBlockEnd
  0
BLOCK
  5
1226
330
121C
100
AcDbEntity
  8
0
 62
     2
100
AcDbBlockBegin
  2
*D14
 70
     1
 10
0.0
 20
0.0
 30
0.0
  3
*D14
  1

  0
LINE
  5
13BF
330
121C
100
AcDbEntity
  8
L-2
  6
CONTINUOUS
 62
     4
100
AcDbLine
 10
34.82050487711694
 20
139.2010562448239
 30
0.0
 11
34.82050487711694
 21
118.4208820680337
 31
0.0
  0
LINE
  5
13C0
330
121C
100
AcDbEntity
  8
L-2
  6
CONTINUOUS
 62
     4
100
AcDbLine
 10
213.8205048771169
 20
139.2010562448239
 30
0.0
 11
213.8205048771169
 21
118.4208820680337
 31
0.0
  0
LINE
  5
13C1
330
121C
100
AcDbEntity
  8
L-2
  6
CONTINUOUS
 62
     4
100
AcDbLine
 10
37.32050487711694
 20
119.4208820680337
 30
0.0
 11
211.3205048771169
 21
119.4208820680337
 31
0.0
  0
INSERT
  5
13C2
330
121C
100
AcDbEntity
  8
L-2
  6
CONTINUOUS
 62
     4
100
AcDbBlockReference
  2
_OPEN
 10
34.82050487711694
 20
119.4208820680337
 30
0.0
 41
2.5
 42
2.5
 43
2.5
 50
180.0
  0
INSERT
  5
13C3
330
121C
100
AcDbEntity
  8
L-2
  6
CONTINUOUS
 62
     4
100
AcDbBlockReference
  2
_OPEN
 10
213.8205048771169
 20
119.4208820680337
 30
0.0
 41
2.5
 42
2.5
 43
2.5
  0
MTEXT
  5
13C4
330
121C
100
AcDbEntity
  8
L-2
  6
CONTINUOUS
 62
     2
100
AcDbMText
 10
124.3205048771169
 20
121.7208820680337
 30
0.0
 40
3.2
 41
0.0
 71
     5
 72
     1
  1
\A1;179
  7
MSゴシック
1001
ACAD
1000
MTEXTBEGIN
1070
    73
1070
     1
1070
    44
1040
1.0
1070
    74
1070
     0
1000
MTEXTEND
  0
POINT
  5
13C5
330
121C
100
AcDbEntity
  8
DEFPOINTS
  6
CONTINUOUS
 62
     0
100
AcDbPoint
 10
34.82050487711694
 20
139.7010562448239
 30
0.0
  0
POINT
  5
13C6
330
121C
100
AcDbEntity
  8
DEFPOINTS
  6
CONTINUOUS
 62
     0
100
AcDbPoint
 10
213.8205048771169
 20
139.7010562448239
 30
0.0
  0
POINT
  5
13C7
330
121C
100
AcDbEntity
  8
DEFPOINTS
  6
CONTINUOUS
 62
     0
100
AcDbPoint
 10
213.8205048771169
 20
119.4208820680337
 30
0.0
  0
ENDBLK
  5
1227
330
121C
100
AcDbEntity
  8
0
 62
     2
100
AcDbBlockEnd
  0
BLOCK
  5
124B
330
1241
100
AcDbEntity
  8
0
 62
     2
100
AcDbBlockBegin
  2
*D15
 70
     1
 10
0.0
 20
0.0
 30
0.0
  3
*D15
  1

  0
LINE
  5
14AA
330
1241
100
AcDbEntity
  8
L-2
  6
CONTINUOUS
 62
     4
100
AcDbLine
 10
40.82050487711694
 20
181.5510562448239
 30
0.0
 11
40.82050487711694
 21
126.0365095013906
 31
0.0
  0
LINE
  5
14AB
330
1241
100
AcDbEntity
  8
L-2
  6
CONTINUOUS
 62
     4
100
AcDbLine
 10
207.8205048771169
 20
181.5510562448239
 30
0.0
 11
207.8205048771169
 21
126.0365095013906
 31
0.0
  0
LINE
  5
14AC
330
1241
100
AcDbEntity
  8
L-2
  6
CONTINUOUS
 62
     4
100
AcDbLine
 10
43.32050487711694
 20
127.0365095013906
 30
0.0
 11
205.3205048771169
 21
127.0365095013906
 31
0.0
  0
INSERT
  5
14AD
330
1241
100
AcDbEntity
  8
L-2
  6
CONTINUOUS
 62
     4
100
AcDbBlockReference
  2
_OPEN
 10
40.82050487711694
 20
127.0365095013906
 30
0.0
 41
2.5
 42
2.5
 43
2.5
 50
180.0
  0
INSERT
  5
14AE
330
1241
100
AcDbEntity
  8
L-2
  6
CONTINUOUS
 62
     4
100
AcDbBlockReference
  2
_OPEN
 10
207.8205048771169
 20
127.0365095013906
 30
0.0
 41
2.5
 42
2.5
 43
2.5
  0
MTEXT
  5
14AF
330
1241
100
AcDbEntity
  8
L-2
  6
CONTINUOUS
 62
     2
100
AcDbMText
 10
124.3205048771169
 20
129.3365095013907
 30
0.0
 40
3.2
 41
0.0
 71
     5
 72
     1
  1
\A1;167
  7
MSゴシック
1001
ACAD
1000
MTEXTBEGIN
1070
    73
1070
     1
1070
    44
1040
1.0
1070
    74
1070
     0
1000
MTEXTEND
  0
POINT
  5
14B0
330
1241
100
AcDbEntity
  8
DEFPOINTS
  6
CONTINUOUS
 62
     0
100
AcDbPoint
 10
40.82050487711694
 20
182.0510562448239
 30
0.0
  0
POINT
  5
14B1
330
1241
100
AcDbEntity
  8
DEFPOINTS
  6
CONTINUOUS
 62
     0
100
AcDbPoint
 10
207.8205048771169
 20
182.0510562448239
 30
0.0
  0
POINT
  5
14B2
330
1241
100
AcDbEntity
  8
DEFPOINTS
  6
CONTINUOUS
 62
     0
100
AcDbPoint
 10
207.8205048771169
 20
127.0365095013906
 30
0.0
  0
ENDBLK
  5
124C
330
1241
100
AcDbEntity
  8
0
 62
     2
100
AcDbBlockEnd
  0
BLOCK
  5
1258
330
124E
100
AcDbEntity
  8
0
 62
     2
100
AcDbBlockBegin
  2
*D16
 70
     1
 10
0.0
 20
0.0
 30
0.0
  3
*D16
  1

  0
LINE
  5
13D1
330
124E
100
AcDbEntity
  8
L-2
  6
CONTINUOUS
 62
     4
100
AcDbLine
 10
214.3205048771169
 20
264.601056244824
 30
0.0
 11
236.2409265968347
 21
264.601056244824
 31
0.0
  0
LINE
  5
13D2
330
124E
100
AcDbEntity
  8
L-2
  6
CONTINUOUS
 62
     4
100
AcDbLine
 10
214.3205048771169
 20
139.7010562448239
 30
0.0
 11
236.2409265968346
 21
139.7010562448239
 31
0.0
  0
LINE
  5
13D3
330
124E
100
AcDbEntity
  8
L-2
  6
CONTINUOUS
 62
     4
100
AcDbLine
 10
235.2409265968347
 20
262.101056244824
 30
0.0
 11
235.2409265968347
 21
142.2010562448239
 31
0.0
  0
INSERT
  5
13D4
330
124E
100
AcDbEntity
  8
L-2
  6
CONTINUOUS
 62
     4
100
AcDbBlockReference
  2
_OPEN
 10
235.2409265968347
 20
264.601056244824
 30
0.0
 41
2.5
 42
2.5
 43
2.5
 50
90.0
  0
INSERT
  5
13D5
330
124E
100
AcDbEntity
  8
L-2
  6
CONTINUOUS
 62
     4
100
AcDbBlockReference
  2
_OPEN
 10
235.2409265968347
 20
139.7010562448239
 30
0.0
 41
2.5
 42
2.5
 43
2.5
 50
270.0
  0
MTEXT
  5
13D6
330
124E
100
AcDbEntity
  8
L-2
  6
CONTINUOUS
 62
     2
100
AcDbMText
 10
232.9409265968346
 20
202.151056244824
 30
0.0
 40
3.2
 41
0.0
 71
     5
 72
     1
  1
\A1;124.9
  7
MSゴシック
 11
0.0000000000000001
 21
1.0
 31
0.0
1001
ACAD
1000
MTEXTBEGIN
1070
    73
1070
     1
1070
    44
1040
1.0
1070
    74
1070
     0
1000
MTEXTEND
  0
POINT
  5
13D7
330
124E
100
AcDbEntity
  8
DEFPOINTS
  6
CONTINUOUS
 62
     0
100
AcDbPoint
 10
213.8205048771169
 20
264.601056244824
 30
0.0
  0
POINT
  5
13D8
330
124E
100
AcDbEntity
  8
DEFPOINTS
  6
CONTINUOUS
 62
     0
100
AcDbPoint
 10
213.8205048771169
 20
139.7010562448239
 30
0.0
  0
POINT
  5
13D9
330
124E
100
AcDbEntity
  8
DEFPOINTS
  6
CONTINUOUS
 62
     0
100
AcDbPoint
 10
235.2409265968347
 20
139.7010562448239
 30
0.0
  0
ENDBLK
  5
1259
330
124E
100
AcDbEntity
  8
0
 62
     2
100
AcDbBlockEnd
  0
BLOCK
  5
12AE
330
12A4
100
AcDbEntity
  8
0
 62
     2
100
AcDbBlockBegin
  2
*D17
 70
     1
 10
0.0
 20
0.0
 30
0.0
  3
*D17
  1

  0
LINE
  5
13DA
330
12A4
100
AcDbEntity
  8
L-2
  6
CONTINUOUS
 62
     4
100
AcDbLine
 10
282.9865592255425
 20
139.5010562448239
 30
0.0
 11
282.9865592255425
 21
127.1231263089006
 31
0.0
  0
LINE
  5
13DB
330
12A4
100
AcDbEntity
  8
L-2
  6
CONTINUOUS
 62
     4
100
AcDbLine
 10
333.2865592255424
 20
142.5010562448239
 30
0.0
 11
333.2865592255424
 21
127.1231263089006
 31
0.0
  0
LINE
  5
13DC
330
12A4
100
AcDbEntity
  8
L-2
  6
CONTINUOUS
 62
     4
100
AcDbLine
 10
285.4865592255425
 20
128.1231263089006
 30
0.0
 11
330.7865592255424
 21
128.1231263089006
 31
0.0
  0
INSERT
  5
13DD
330
12A4
100
AcDbEntity
  8
L-2
  6
CONTINUOUS
 62
     4
100
AcDbBlockReference
  2
_OPEN
 10
282.9865592255425
 20
128.1231263089006
 30
0.0
 41
2.5
 42
2.5
 43
2.5
 50
180.0
  0
INSERT
  5
13DE
330
12A4
100
AcDbEntity
  8
L-2
  6
CONTINUOUS
 62
     4
100
AcDbBlockReference
  2
_OPEN
 10
333.2865592255424
 20
128.1231263089006
 30
0.0
 41
2.5
 42
2.5
 43
2.5
  0
MTEXT
  5
13DF
330
12A4
100
AcDbEntity
  8
L-2
  6
CONTINUOUS
 62
     2
100
AcDbMText
 10
308.1365592255424
 20
130.4231263089006
 30
0.0
 40
3.2
 41
0.0
 71
     5
 72
     1
  1
\A1;50.3
  7
MSゴシック
1001
ACAD
1000
MTEXTBEGIN
1070
    73
1070
     1
1070
    44
1040
1.0
1070
    74
1070
     0
1000
MTEXTEND
  0
POINT
  5
13E0
330
12A4
100
AcDbEntity
  8
DEFPOINTS
  6
CONTINUOUS
 62
     0
100
AcDbPoint
 10
282.9865592255425
 20
140.0010562448239
 30
0.0
  0
POINT
  5
13E1
330
12A4
100
AcDbEntity
  8
DEFPOINTS
  6
CONTINUOUS
 62
     0
100
AcDbPoint
 10
333.2865592255424
 20
143.001056244824
 30
0.0
  0
POINT
  5
13E2
330
12A4
100
AcDbEntity
  8
DEFPOINTS
  6
CONTINUOUS
 62
     0
100
AcDbPoint
 10
333.2865592255424
 20
128.1231263089006
 30
0.0
  0
ENDBLK
  5
12AF
330
12A4
100
AcDbEntity
  8
0
 62
     2
100
AcDbBlockEnd
  0
BLOCK
  5
12BB
330
12B1
100
AcDbEntity
  8
0
 62
     2
100
AcDbBlockBegin
  2
*D18
 70
     1
 10
0.0
 20
0.0
 30
0.0
  3
*D18
  1

  0
LINE
  5
1498
330
12B1
100
AcDbEntity
  8
L-2
  6
CONTINUOUS
 62
     4
100
AcDbLine
 10
210.9205048771169
 20
219.6510562448239
 30
0.0
 11
229.1674799185264
 21
219.6510562448239
 31
0.0
  0
LINE
  5
1499
330
12B1
100
AcDbEntity
  8
L-2
  6
CONTINUOUS
 62
     4
100
AcDbLine
 10
210.9205048771169
 20
184.6510562448239
 30
0.0
 11
229.1674799185263
 21
184.6510562448239
 31
0.0
  0
LINE
  5
149A
330
12B1
100
AcDbEntity
  8
L-2
  6
CONTINUOUS
 62
     4
100
AcDbLine
 10
228.1674799185263
 20
217.1510562448239
 30
0.0
 11
228.1674799185263
 21
187.1510562448239
 31
0.0
  0
INSERT
  5
149B
330
12B1
100
AcDbEntity
  8
L-2
  6
CONTINUOUS
 62
     4
100
AcDbBlockReference
  2
_OPEN
 10
228.1674799185263
 20
219.6510562448239
 30
0.0
 41
2.5
 42
2.5
 43
2.5
 50
90.0
  0
INSERT
  5
149C
330
12B1
100
AcDbEntity
  8
L-2
  6
CONTINUOUS
 62
     4
100
AcDbBlockReference
  2
_OPEN
 10
228.1674799185263
 20
184.6510562448239
 30
0.0
 41
2.5
 42
2.5
 43
2.5
 50
270.0
  0
MTEXT
  5
149D
330
12B1
100
AcDbEntity
  8
L-2
  6
CONTINUOUS
 62
     2
100
AcDbMText
 10
225.8674799185263
 20
202.151056244824
 30
0.0
 40
3.2
 41
0.0
 71
     5
 72
     1
  1
\A1;35
  7
MSゴシック
 11
0.0000000000000001
 21
1.0
 31
0.0
1001
ACAD
1000
MTEXTBEGIN
1070
    73
1070
     1
1070
    44
1040
1.0
1070
    74
1070
     0
1000
MTEXTEND
  0
POINT
  5
149E
330
12B1
100
AcDbEntity
  8
DEFPOINTS
  6
CONTINUOUS
 62
     0
100
AcDbPoint
 10
210.4205048771169
 20
219.6510562448239
 30
0.0
  0
POINT
  5
149F
330
12B1
100
AcDbEntity
  8
DEFPOINTS
  6
CONTINUOUS
 62
     0
100
AcDbPoint
 10
210.4205048771169
 20
184.6510562448239
 30
0.0
  0
POINT
  5
14A0
330
12B1
100
AcDbEntity
  8
DEFPOINTS
  6
CONTINUOUS
 62
     0
100
AcDbPoint
 10
228.1674799185263
 20
184.6510562448239
 30
0.0
  0
ENDBLK
  5
12BC
330
12B1
100
AcDbEntity
  8
0
 62
     2
100
AcDbBlockEnd
  0
BLOCK
  5
13AD
330
13A0
100
AcDbEntity
  8
0
 62
     2
100
AcDbBlockBegin
  2
WAKU-A3
 70
     0
 10
0.0
 20
0.0
 30
0.0
  3
WAKU-A3
  1

  0
LINE
  5
13A1
330
13A0
100
AcDbEntity
  8
L-1
  6
CONTINUOUS
 62
     5
100
AcDbLine
 10
235.0
 20
36.0
 30
0.0
 11
385.0
 21
36.0
 31
0.0
  0
LINE
  5
13A2
330
13A0
100
AcDbEntity
  8
L-1
  6
CONTINUOUS
 62
     5
100
AcDbLine
 10
235.0
 20
14.0
 30
0.0
 11
385.0
 21
14.0
 31
0.0
  0
LINE
  5
13A3
330
13A0
100
AcDbEntity
  8
L-1
  6
CONTINUOUS
 62
     5
100
AcDbLine
 10
312.0
 20
36.0
 30
0.0
 11
312.0
 21
6.0
 31
0.0
  0
TEXT
  5
13A4
330
13A0
100
AcDbEntity
  8
L-1
  6
CONTINUOUS
 62
     2
100
AcDbText
 10
326.0980555556824
 20
7.873740483041586
 30
0.0
 40
4.4
  1
東京通信機工業株式会社
  7
SIMPLEX
100
AcDbText
  0
INSERT
  5
13A5
330
13A0
100
AcDbEntity
  8
0
100
AcDbBlockReference
  2
TK
 10
324.0726460431471
 20
9.776842374659864
 30
0.0
  0
TEXT
  5
13A6
330
13A0
100
AcDbEntity
  8
L-2
  6
CONTINUOUS
 62
     2
100
AcDbText
 10
330.0893907430333
 20
18.31158028550066
 30
0.0
 40
4.5
  1
アレスタ端子板
  7
BGS
100
AcDbText
  0
TEXT
  5
13A7
330
13A0
100
AcDbEntity
  8
L-2
  6
CONTINUOUS
 62
     2
100
AcDbText
 10
327.0188661916865
 20
26.800374188055
 30
0.0
 40
4.5
  1
MT20-AR1-8
  7
BGS
100
AcDbText
  0
LINE
  5
13A8
330
13A0
100
AcDbEntity
  8
L-1
  6
CONTINUOUS
 62
     5
100
AcDbLine
 10
385.0
 20
275.0
 30
0.0
 11
385.0
 21
6.0
 31
0.0
  0
LINE
  5
13A9
330
13A0
100
AcDbEntity
  8
L-1
  6
CONTINUOUS
 62
     5
100
AcDbLine
 10
6.0
 20
6.0
 30
0.0
 11
385.0
 21
6.0
 31
0.0
  0
LINE
  5
13AA
330
13A0
100
AcDbEntity
  8
L-1
  6
CONTINUOUS
 62
     5
100
AcDbLine
 10
6.0
 20
275.0
 30
0.0
 11
6.0
 21
6.0
 31
0.0
  0
LINE
  5
13AB
330
13A0
100
AcDbEntity
  8
L-1
  6
CONTINUOUS
 62
     5
100
AcDbLine
 10
385.0
 20
275.0
 30
0.0
 11
6.0
 21
275.0
 31
0.0
  0
LINE
  5
13AC
330
13A0
100
AcDbEntity
  8
L-1
  6
CONTINUOUS
 62
     5
100
AcDbLine
 10
235.0
 20
36.0
 30
0.0
 11
235.0
 21
6.0
 31
0.0
  0
ENDBLK
  5
13AE
330
13A0
100
AcDbEntity
  8
0
 62
     2
100
AcDbBlockEnd
  0
ENDSEC
  0
SECTION
  2
ENTITIES
  0
LINE
  5
E1
330
18
100
AcDbEntity
  8
L-1
  6
CONTINUOUS
 62
     7
100
AcDbLine
 10
36.82050487711694
 20
105.8132693805542
 30
0.0
 11
41.82050487711694
 21
105.8132693805542
 31
0.0
  0
LINE
  5
E2
330
18
100
AcDbEntity
  8
L-1
  6
CENTER2
 62
     7
100
AcDbLine
 10
42.82050487711694
 20
104.8132693805541
 30
0.0
 11
42.82050487711694
 21
102.8132693805542
 31
0.0
  0
LINE
  5
E3
330
18
100
AcDbEntity
  8
L-1
  6
CENTER2
 62
     7
100
AcDbLine
 10
52.82050487711694
 20
104.8132693805541
 30
0.0
 11
52.82050487711694
 21
102.8132693805542
 31
0.0
  0
ARC
  5
E8
330
18
100
AcDbEntity
  8
L-1
  6
CONTINUOUS
 62
     7
100
AcDbCircle
 10
41.82050487711694
 20
104.8132693805541
 30
0.0
 40
1.0
100
AcDbArc
 50
0.0
 51
89.99999999999971
  0
ARC
  5
E9
330
18
100
AcDbEntity
  8
L-1
  6
CONTINUOUS
 62
     7
100
AcDbCircle
 10
53.82050487711694
 20
104.8132693805541
 30
0.0
 40
1.0
100
AcDbArc
 50
90.00000000000003
 51
180.0000000000002
  0
LINE
  5
102
330
18
100
AcDbEntity
  8
L-1
  6
CONTINUOUS
 62
     7
100
AcDbLine
 10
34.82050487711694
 20
103.8132693805542
 30
0.0
 11
34.82050487711694
 21
55.51326938055416
 31
0.0
  0
LINE
  5
113
330
18
100
AcDbEntity
  8
L-1
  6
CONTINUOUS
 62
     7
100
AcDbLine
 10
53.82050487711694
 20
105.8132693805541
 30
0.0
 11
67.32050487711695
 21
105.8132693805541
 31
0.0
  0
LINE
  5
115
330
18
100
AcDbEntity
  8
L-1
  6
CENTER2
 62
     7
100
AcDbLine
 10
205.8205048771169
 20
104.8132693805541
 30
0.0
 11
205.8205048771169
 21
102.8132693805542
 31
0.0
  0
LINE
  5
116
330
18
100
AcDbEntity
  8
L-1
  6
CENTER2
 62
     7
100
AcDbLine
 10
195.8205048771169
 20
104.8132693805541
 30
0.0
 11
195.8205048771169
 21
102.8132693805542
 31
0.0
  0
ARC
  5
11A
330
18
100
AcDbEntity
  8
L-1
  6
CONTINUOUS
 62
     7
100
AcDbCircle
 10
194.8205048771169
 20
104.8132693805541
 30
0.0
 40
1.0
100
AcDbArc
 50
0.0
 51
89.99999999999971
  0
ARC
  5
11B
330
18
100
AcDbEntity
  8
L-1
  6
CONTINUOUS
 62
     7
100
AcDbCircle
 10
206.8205048771169
 20
104.8132693805541
 30
0.0
 40
1.0
100
AcDbArc
 50
90.00000000000003
 51
180.0000000000002
  0
LINE
  5
11D
330
18
100
AcDbEntity
  8
L-1
  6
CONTINUOUS
 62
     7
100
AcDbLine
 10
206.8205048771169
 20
105.8132693805541
 30
0.0
 11
211.8205048771169
 21
105.8132693805541
 31
0.0
  0
LINE
  5
11E
330
18
100
AcDbEntity
  8
L-1
  6
CONTINUOUS
 62
     7
100
AcDbLine
 10
213.8205048771169
 20
103.8132693805541
 30
0.0
 11
213.8205048771169
 21
55.51326938055416
 31
0.0
  0
LINE
  5
120
330
18
100
AcDbEntity
  8
L-1
  6
CONTINUOUS
 62
     7
100
AcDbLine
 10
34.82050487711694
 20
55.51326938055416
 30
0.0
 11
213.8205048771169
 21
55.51326938055417
 31
0.0
  0
LINE
  5
121
330
18
100
AcDbEntity
  8
L-1
  6
CONTINUOUS
 62
     7
100
AcDbLine
 10
282.9865592255425
 20
140.0010562448239
 30
0.0
 11
282.9865592255425
 21
141.0010562448239
 31
0.0
  0
LINE
  5
122
330
18
100
AcDbEntity
  8
L-1
  6
CONTINUOUS
 62
     7
100
AcDbLine
 10
282.9865592255425
 20
140.0010562448239
 30
0.0
 11
330.2865592255424
 21
140.0010562448239
 31
0.0
  0
LINE
  5
123
330
18
100
AcDbEntity
  8
L-1
  6
CONTINUOUS
 62
     7
100
AcDbLine
 10
282.9865592255424
 20
264.3010562448239
 30
0.0
 11
330.2865592255425
 21
264.3010562448239
 31
0.0
  0
LINE
  5
124
330
18
100
AcDbEntity
  8
L-1
  6
CONTINUOUS
 62
     7
100
AcDbLine
 10
333.2865592255424
 20
143.001056244824
 30
0.0
 11
333.2865592255425
 21
261.601056244824
 31
0.0
  0
LINE
  5
126
330
18
100
AcDbEntity
  8
L-1
  6
CONTINUOUS
 62
     7
100
AcDbLine
 10
282.9865592255425
 20
141.0010562448239
 30
0.0
 11
330.2865592255424
 21
141.0010562448239
 31
0.0
  0
LINE
  5
127
330
18
100
AcDbEntity
  8
L-1
  6
CONTINUOUS
 62
     7
100
AcDbLine
 10
332.2865592255424
 20
143.001056244824
 30
0.0
 11
332.2865592255424
 21
261.601056244824
 31
0.0
  0
LINE
  5
128
330
18
100
AcDbEntity
  8
L-1
  6
CONTINUOUS
 62
     7
100
AcDbLine
 10
282.9865592255424
 20
263.301056244824
 30
0.0
 11
330.2865592255424
 21
263.301056244824
 31
0.0
  0
LINE
  5
129
330
18
100
AcDbEntity
  8
L-1
  6
CONTINUOUS
 62
     7
100
AcDbLine
 10
282.9865592255424
 20
263.301056244824
 30
0.0
 11
282.9865592255424
 21
264.3010562448239
 31
0.0
  0
ARC
  5
12A
330
18
100
AcDbEntity
  8
L-1
  6
CONTINUOUS
 62
     7
100
AcDbCircle
 10
330.2865592255424
 20
261.301056244824
 30
0.0
 40
2.0
100
AcDbArc
 50
0.0
 51
90.00000000000005
  0
ARC
  5
12B
330
18
100
AcDbEntity
  8
L-1
  6
CONTINUOUS
 62
     7
100
AcDbCircle
 10
330.2865592255424
 20
143.001056244824
 30
0.0
 40
2.0
100
AcDbArc
 50
270.0
 51
0.0
  0
ARC
  5
12C
330
18
100
AcDbEntity
  8
L-1
  6
CONTINUOUS
 62
     7
100
AcDbCircle
 10
330.2865592255424
 20
143.001056244824
 30
0.0
 40
3.0
100
AcDbArc
 50
270.0
 51
0.0
  0
ARC
  5
12D
330
18
100
AcDbEntity
  8
L-1
  6
CONTINUOUS
 62
     7
100
AcDbCircle
 10
330.2865592255424
 20
261.301056244824
 30
0.0
 40
3.0
100
AcDbArc
 50
0.0
 51
90.0
  0
LINE
  5
12E
330
18
100
AcDbEntity
  8
L-1
  6
CONTINUOUS
 62
     7
100
AcDbLine
 10
34.82050487711694
 20
139.7010562448239
 30
0.0
 11
213.8205048771169
 21
139.7010562448239
 31
0.0
  0
LINE
  5
130
330
18
100
AcDbEntity
  8
L-1
  6
CONTINUOUS
 62
     7
100
AcDbLine
 10
34.82050487711694
 20
264.6010562448239
 30
0.0
 11
213.8205048771169
 21
264.601056244824
 31
0.0
  0
LINE
  5
131
330
18
100
AcDbEntity
  8
L-1
  6
CONTINUOUS
 62
     7
100
AcDbLine
 10
34.82050487711694
 20
139.7010562448239
 30
0.0
 11
34.82050487711694
 21
264.6010562448239
 31
0.0
  0
LINE
  5
134
330
18
100
AcDbEntity
  8
L-1
  6
CONTINUOUS
 62
     7
100
AcDbLine
 10
34.82050487711694
 20
263.6010562448239
 30
0.0
 11
213.8205048771169
 21
263.601056244824
 31
0.0
  0
LINE
  5
135
330
18
100
AcDbEntity
  8
L-1
  6
CONTINUOUS
 62
     7
100
AcDbLine
 10
34.82050487711694
 20
140.7010562448239
 30
0.0
 11
213.8205048771169
 21
140.7010562448239
 31
0.0
  0
LINE
  5
137
330
18
100
AcDbEntity
  8
L-1
  6
CONTINUOUS
 62
     7
100
AcDbLine
 10
45.07050487711694
 20
94.31326938055422
 30
0.0
 11
50.57050487711695
 21
94.3132693805542
 31
0.0
  0
LINE
  5
138
330
18
100
AcDbEntity
  8
L-1
  6
CONTINUOUS
 62
     7
100
AcDbLine
 10
45.07050487711694
 20
90.31326938055419
 30
0.0
 11
50.57050487711695
 21
90.31326938055418
 31
0.0
  0
LINE
  5
13B
330
18
100
AcDbEntity
  8
L-1
  6
CONTINUOUS
 62
     7
100
AcDbLine
 10
51.07050487711695
 20
93.81326938055421
 30
0.0
 11
51.07050487711695
 21
90.81326938055417
 31
0.0
  0
LINE
  5
13C
330
18
100
AcDbEntity
  8
L-1
  6
CONTINUOUS
 62
     7
100
AcDbLine
 10
44.57050487711694
 20
93.81326938055421
 30
0.0
 11
44.57050487711694
 21
90.81326938055418
 31
0.0
  0
ARC
  5
13D
330
18
100
AcDbEntity
  8
L-1
  6
CONTINUOUS
 62
     7
100
AcDbCircle
 10
45.07050487711694
 20
93.81326938055421
 30
0.0
 40
0.5
100
AcDbArc
 50
90.0
 51
180.0
  0
ARC
  5
13E
330
18
100
AcDbEntity
  8
L-1
  6
CONTINUOUS
 62
     7
100
AcDbCircle
 10
50.57050487711695
 20
93.81326938055421
 30
0.0
 40
0.5
100
AcDbArc
 50
0.0000000000001018
 51
89.99999999999987
  0
ARC
  5
13F
330
18
100
AcDbEntity
  8
L-1
  6
CONTINUOUS
 62
     7
100
AcDbCircle
 10
45.07050487711694
 20
90.81326938055418
 30
0.0
 40
0.5
100
AcDbArc
 50
179.9999999999998
 51
270.0
  0
ARC
  5
140
330
18
100
AcDbEntity
  8
L-1
  6
CONTINUOUS
 62
     7
100
AcDbCircle
 10
50.57050487711695
 20
90.81326938055417
 30
0.0
 40
0.5
100
AcDbArc
 50
270.0
 51
0.0000000000001145
  0
LINE
  5
169
330
18
100
AcDbEntity
  8
L-1
  6
CONTINUOUS
 62
     7
100
AcDbLine
 10
198.0705048771169
 20
94.31326938055422
 30
0.0
 11
203.5705048771169
 21
94.3132693805542
 31
0.0
  0
LINE
  5
16A
330
18
100
AcDbEntity
  8
L-1
  6
CONTINUOUS
 62
     7
100
AcDbLine
 10
198.0705048771169
 20
90.31326938055419
 30
0.0
 11
203.5705048771169
 21
90.31326938055418
 31
0.0
  0
ARC
  5
16B
330
18
100
AcDbEntity
  8
L-1
  6
CONTINUOUS
 62
     7
100
AcDbCircle
 10
198.0705048771169
 20
93.81326938055421
 30
0.0
 40
0.5
100
AcDbArc
 50
90.0
 51
180.0
  0
LINE
  5
16C
330
18
100
AcDbEntity
  8
L-1
  6
CONTINUOUS
 62
     7
100
AcDbLine
 10
197.5705048771169
 20
93.81326938055421
 30
0.0
 11
197.5705048771169
 21
90.81326938055418
 31
0.0
  0
ARC
  5
16D
330
18
100
AcDbEntity
  8
L-1
  6
CONTINUOUS
 62
     7
100
AcDbCircle
 10
198.0705048771169
 20
90.81326938055418
 30
0.0
 40
0.5
100
AcDbArc
 50
179.9999999999998
 51
270.0
  0
ARC
  5
16E
330
18
100
AcDbEntity
  8
L-1
  6
CONTINUOUS
 62
     7
100
AcDbCircle
 10
203.5705048771169
 20
93.81326938055421
 30
0.0
 40
0.5
100
AcDbArc
 50
0.0000000000001018
 51
89.99999999999987
  0
LINE
  5
16F
330
18
100
AcDbEntity
  8
L-1
  6
CONTINUOUS
 62
     7
100
AcDbLine
 10
204.0705048771169
 20
93.81326938055421
 30
0.0
 11
204.0705048771169
 21
90.81326938055417
 31
0.0
  0
ARC
  5
170
330
18
100
AcDbEntity
  8
L-1
  6
CONTINUOUS
 62
     7
100
AcDbCircle
 10
203.5705048771169
 20
90.81326938055417
 30
0.0
 40
0.5
100
AcDbArc
 50
270.0
 51
0.0000000000001145
  0
LINE
  5
171
330
18
100
AcDbEntity
  8
L-1
  6
DASHED2
 62
     3
 48
0.5
100
AcDbLine
 10
34.82050487711694
 20
56.51326938055416
 30
0.0
 11
213.8205048771169
 21
56.51326938055419
 31
0.0
  0
TEXT
  5
2A7
330
18
100
AcDbEntity
  8
L-2
  6
CONTINUOUS
 62
     2
100
AcDbText
 10
318.527947220175
 20
23.14598177223001
 30
0.0
 40
4.0
  1
ＭＤＦマウンチング７
  7
MSゴシック
100
AcDbText
  0
LINE
  5
2E3
330
18
100
AcDbEntity
  8
L-1
  6
CONTINUOUS
 62
     7
100
AcDbLine
 10
76.57050487711694
 20
93.81326938055421
 30
0.0
 11
76.57050487711694
 21
90.81326938055417
 31
0.0
  0
LINE
  5
2E4
330
18
100
AcDbEntity
  8
L-1
  6
CONTINUOUS
 62
     7
100
AcDbLine
 10
70.07050487711694
 20
93.81326938055421
 30
0.0
 11
70.07050487711694
 21
90.81326938055418
 31
0.0
  0
ARC
  5
2E5
330
18
100
AcDbEntity
  8
L-1
  6
CONTINUOUS
 62
     7
100
AcDbCircle
 10
76.07050487711695
 20
90.81326938055417
 30
0.0
 40
0.5
100
AcDbArc
 50
270.0
 51
0.0000000000001145
  0
LINE
  5
2E6
330
18
100
AcDbEntity
  8
L-1
  6
CONTINUOUS
 62
     7
100
AcDbLine
 10
70.57050487711695
 20
90.31326938055419
 30
0.0
 11
76.07050487711695
 21
90.31326938055418
 31
0.0
  0
ARC
  5
2E7
330
18
100
AcDbEntity
  8
L-1
  6
CONTINUOUS
 62
     7
100
AcDbCircle
 10
70.57050487711695
 20
90.81326938055418
 30
0.0
 40
0.5
100
AcDbArc
 50
179.9999999999998
 51
270.0
  0
ARC
  5
2E8
330
18
100
AcDbEntity
  8
L-1
  6
CONTINUOUS
 62
     7
100
AcDbCircle
 10
76.07050487711695
 20
93.81326938055421
 30
0.0
 40
0.5
100
AcDbArc
 50
0.0000000000001018
 51
89.99999999999987
  0
LINE
  5
2EA
330
18
100
AcDbEntity
  8
L-1
  6
CENTER2
 62
     7
100
AcDbLine
 10
68.32050487711694
 20
104.8132693805541
 30
0.0
 11
68.32050487711694
 21
102.8132693805542
 31
0.0
  0
LINE
  5
2EC
330
18
100
AcDbEntity
  8
L-1
  6
CONTINUOUS
 62
     7
100
AcDbLine
 10
70.57050487711695
 20
94.31326938055422
 30
0.0
 11
76.07050487711695
 21
94.3132693805542
 31
0.0
  0
ARC
  5
2ED
330
18
100
AcDbEntity
  8
L-1
  6
CONTINUOUS
 62
     7
100
AcDbCircle
 10
70.57050487711695
 20
93.81326938055421
 30
0.0
 40
0.5
100
AcDbArc
 50
90.0
 51
180.0
  0
ARC
  5
2EE
330
18
100
AcDbEntity
  8
L-1
  6
CONTINUOUS
 62
     7
100
AcDbCircle
 10
67.32050487711695
 20
104.8132693805541
 30
0.0
 40
1.0
100
AcDbArc
 50
0.0
 51
89.99999999999971
  0
LINE
  5
2EF
330
18
100
AcDbEntity
  8
L-1
  6
CENTER2
 62
     7
100
AcDbLine
 10
78.32050487711694
 20
104.8132693805541
 30
0.0
 11
78.32050487711694
 21
102.8132693805542
 31
0.0
  0
ARC
  5
2F1
330
18
100
AcDbEntity
  8
L-1
  6
CONTINUOUS
 62
     7
100
AcDbCircle
 10
79.32050487711695
 20
104.8132693805541
 30
0.0
 40
1.0
100
AcDbArc
 50
90.00000000000003
 51
180.0000000000002
  0
LINE
  5
34D
330
18
100
AcDbEntity
  8
L-1
  6
CONTINUOUS
 62
     7
100
AcDbLine
 10
95.57050487711695
 20
93.81326938055421
 30
0.0
 11
95.57050487711695
 21
90.81326938055418
 31
0.0
  0
LINE
  5
34E
330
18
100
AcDbEntity
  8
L-1
  6
CONTINUOUS
 62
     7
100
AcDbLine
 10
102.0705048771169
 20
93.81326938055421
 30
0.0
 11
102.0705048771169
 21
90.81326938055417
 31
0.0
  0
LINE
  5
350
330
18
100
AcDbEntity
  8
L-1
  6
CONTINUOUS
 62
     7
100
AcDbLine
 10
96.07050487711696
 20
90.31326938055419
 30
0.0
 11
101.5705048771169
 21
90.31326938055418
 31
0.0
  0
ARC
  5
351
330
18
100
AcDbEntity
  8
L-1
  6
CONTINUOUS
 62
     7
100
AcDbCircle
 10
96.07050487711696
 20
90.81326938055418
 30
0.0
 40
0.5
100
AcDbArc
 50
179.9999999999998
 51
270.0
  0
ARC
  5
352
330
18
100
AcDbEntity
  8
L-1
  6
CONTINUOUS
 62
     7
100
AcDbCircle
 10
101.5705048771169
 20
90.81326938055417
 30
0.0
 40
0.5
100
AcDbArc
 50
270.0
 51
0.0000000000001145
  0
LINE
  5
353
330
18
100
AcDbEntity
  8
L-1
  6
CENTER2
 62
     7
100
AcDbLine
 10
103.8205048771169
 20
104.8132693805541
 30
0.0
 11
103.8205048771169
 21
102.8132693805542
 31
0.0
  0
LINE
  5
354
330
18
100
AcDbEntity
  8
L-1
  6
CENTER2
 62
     7
100
AcDbLine
 10
93.82050487711694
 20
104.8132693805541
 30
0.0
 11
93.82050487711694
 21
102.8132693805542
 31
0.0
  0
LINE
  5
355
330
18
100
AcDbEntity
  8
L-1
  6
CONTINUOUS
 62
     7
100
AcDbLine
 10
96.07050487711696
 20
94.31326938055422
 30
0.0
 11
101.5705048771169
 21
94.3132693805542
 31
0.0
  0
ARC
  5
357
330
18
100
AcDbEntity
  8
L-1
  6
CONTINUOUS
 62
     7
100
AcDbCircle
 10
96.07050487711696
 20
93.81326938055421
 30
0.0
 40
0.5
100
AcDbArc
 50
90.0
 51
180.0
  0
ARC
  5
359
330
18
100
AcDbEntity
  8
L-1
  6
CONTINUOUS
 62
     7
100
AcDbCircle
 10
101.5705048771169
 20
93.81326938055421
 30
0.0
 40
0.5
100
AcDbArc
 50
0.0000000000001018
 51
89.99999999999987
  0
ARC
  5
35B
330
18
100
AcDbEntity
  8
L-1
  6
CONTINUOUS
 62
     7
100
AcDbCircle
 10
92.82050487711694
 20
104.8132693805541
 30
0.0
 40
1.0
100
AcDbArc
 50
0.0
 51
89.99999999999971
  0
ARC
  5
35C
330
18
100
AcDbEntity
  8
L-1
  6
CONTINUOUS
 62
     7
100
AcDbCircle
 10
104.8205048771169
 20
104.8132693805541
 30
0.0
 40
1.0
100
AcDbArc
 50
90.00000000000003
 51
180.0000000000002
  0
LINE
  5
36A
330
18
100
AcDbEntity
  8
L-1
  6
CONTINUOUS
 62
     7
100
AcDbLine
 10
127.5705048771169
 20
93.81326938055421
 30
0.0
 11
127.5705048771169
 21
90.81326938055417
 31
0.0
  0
LINE
  5
36B
330
18
100
AcDbEntity
  8
L-1
  6
CONTINUOUS
 62
     7
100
AcDbLine
 10
121.0705048771169
 20
93.81326938055421
 30
0.0
 11
121.0705048771169
 21
90.81326938055418
 31
0.0
  0
LINE
  5
36C
330
18
100
AcDbEntity
  8
L-1
  6
CONTINUOUS
 62
     7
100
AcDbLine
 10
121.5705048771169
 20
90.31326938055419
 30
0.0
 11
127.0705048771169
 21
90.31326938055418
 31
0.0
  0
ARC
  5
36D
330
18
100
AcDbEntity
  8
L-1
  6
CONTINUOUS
 62
     7
100
AcDbCircle
 10
121.5705048771169
 20
90.81326938055418
 30
0.0
 40
0.5
100
AcDbArc
 50
179.9999999999998
 51
270.0
  0
ARC
  5
36E
330
18
100
AcDbEntity
  8
L-1
  6
CONTINUOUS
 62
     7
100
AcDbCircle
 10
127.0705048771169
 20
90.81326938055417
 30
0.0
 40
0.5
100
AcDbArc
 50
270.0
 51
0.0000000000001145
  0
LINE
  5
370
330
18
100
AcDbEntity
  8
L-1
  6
CONTINUOUS
 62
     7
100
AcDbLine
 10
121.5705048771169
 20
94.31326938055422
 30
0.0
 11
127.0705048771169
 21
94.3132693805542
 31
0.0
  0
LINE
  5
371
330
18
100
AcDbEntity
  8
L-1
  6
CENTER2
 62
     7
100
AcDbLine
 10
119.3205048771169
 20
104.8132693805541
 30
0.0
 11
119.3205048771169
 21
102.8132693805542
 31
0.0
  0
ARC
  5
372
330
18
100
AcDbEntity
  8
L-1
  6
CONTINUOUS
 62
     7
100
AcDbCircle
 10
121.5705048771169
 20
93.81326938055421
 30
0.0
 40
0.5
100
AcDbArc
 50
90.0
 51
180.0
  0
ARC
  5
374
330
18
100
AcDbEntity
  8
L-1
  6
CONTINUOUS
 62
     7
100
AcDbCircle
 10
118.3205048771169
 20
104.8132693805541
 30
0.0
 40
1.0
100
AcDbArc
 50
0.0
 51
89.99999999999971
  0
LINE
  5
375
330
18
100
AcDbEntity
  8
L-1
  6
CENTER2
 62
     7
100
AcDbLine
 10
129.3205048771169
 20
104.8132693805541
 30
0.0
 11
129.3205048771169
 21
102.8132693805542
 31
0.0
  0
ARC
  5
377
330
18
100
AcDbEntity
  8
L-1
  6
CONTINUOUS
 62
     7
100
AcDbCircle
 10
127.0705048771169
 20
93.81326938055421
 30
0.0
 40
0.5
100
AcDbArc
 50
0.0000000000001018
 51
89.99999999999987
  0
ARC
  5
378
330
18
100
AcDbEntity
  8
L-1
  6
CONTINUOUS
 62
     7
100
AcDbCircle
 10
130.3205048771169
 20
104.8132693805541
 30
0.0
 40
1.0
100
AcDbArc
 50
90.00000000000003
 51
180.0000000000002
  0
LINE
  5
379
330
18
100
AcDbEntity
  8
L-1
  6
CONTINUOUS
 62
     7
100
AcDbLine
 10
146.5705048771169
 20
93.81326938055421
 30
0.0
 11
146.5705048771169
 21
90.81326938055418
 31
0.0
  0
LINE
  5
37A
330
18
100
AcDbEntity
  8
L-1
  6
CONTINUOUS
 62
     7
100
AcDbLine
 10
153.0705048771169
 20
93.81326938055421
 30
0.0
 11
153.0705048771169
 21
90.81326938055417
 31
0.0
  0
LINE
  5
37C
330
18
100
AcDbEntity
  8
L-1
  6
CONTINUOUS
 62
     7
100
AcDbLine
 10
147.0705048771169
 20
90.31326938055419
 30
0.0
 11
152.5705048771169
 21
90.31326938055418
 31
0.0
  0
ARC
  5
37D
330
18
100
AcDbEntity
  8
L-1
  6
CONTINUOUS
 62
     7
100
AcDbCircle
 10
147.0705048771169
 20
90.81326938055418
 30
0.0
 40
0.5
100
AcDbArc
 50
179.9999999999998
 51
270.0
  0
ARC
  5
37E
330
18
100
AcDbEntity
  8
L-1
  6
CONTINUOUS
 62
     7
100
AcDbCircle
 10
152.5705048771169
 20
90.81326938055417
 30
0.0
 40
0.5
100
AcDbArc
 50
270.0
 51
0.0000000000001145
  0
LINE
  5
37F
330
18
100
AcDbEntity
  8
L-1
  6
CONTINUOUS
 62
     7
100
AcDbLine
 10
147.0705048771169
 20
94.31326938055422
 30
0.0
 11
152.5705048771169
 21
94.3132693805542
 31
0.0
  0
LINE
  5
381
330
18
100
AcDbEntity
  8
L-1
  6
CENTER2
 62
     7
100
AcDbLine
 10
144.8205048771169
 20
104.8132693805541
 30
0.0
 11
144.8205048771169
 21
102.8132693805542
 31
0.0
  0
ARC
  5
382
330
18
100
AcDbEntity
  8
L-1
  6
CONTINUOUS
 62
     7
100
AcDbCircle
 10
147.0705048771169
 20
93.81326938055421
 30
0.0
 40
0.5
100
AcDbArc
 50
90.0
 51
180.0
  0
ARC
  5
384
330
18
100
AcDbEntity
  8
L-1
  6
CONTINUOUS
 62
     7
100
AcDbCircle
 10
143.8205048771169
 20
104.8132693805541
 30
0.0
 40
1.0
100
AcDbArc
 50
0.0
 51
89.99999999999971
  0
LINE
  5
385
330
18
100
AcDbEntity
  8
L-1
  6
CENTER2
 62
     7
100
AcDbLine
 10
154.8205048771169
 20
104.8132693805541
 30
0.0
 11
154.8205048771169
 21
102.8132693805542
 31
0.0
  0
ARC
  5
386
330
18
100
AcDbEntity
  8
L-1
  6
CONTINUOUS
 62
     7
100
AcDbCircle
 10
152.5705048771169
 20
93.81326938055421
 30
0.0
 40
0.5
100
AcDbArc
 50
0.0000000000001018
 51
89.99999999999987
  0
ARC
  5
388
330
18
100
AcDbEntity
  8
L-1
  6
CONTINUOUS
 62
     7
100
AcDbCircle
 10
155.8205048771169
 20
104.8132693805541
 30
0.0
 40
1.0
100
AcDbArc
 50
90.00000000000003
 51
180.0000000000002
  0
LINE
  5
38A
330
18
100
AcDbEntity
  8
L-1
  6
CONTINUOUS
 62
     7
100
AcDbLine
 10
178.5705048771169
 20
93.81326938055421
 30
0.0
 11
178.5705048771169
 21
90.81326938055417
 31
0.0
  0
LINE
  5
38B
330
18
100
AcDbEntity
  8
L-1
  6
CONTINUOUS
 62
     7
100
AcDbLine
 10
172.0705048771169
 20
93.81326938055421
 30
0.0
 11
172.0705048771169
 21
90.81326938055418
 31
0.0
  0
LINE
  5
38C
330
18
100
AcDbEntity
  8
L-1
  6
CONTINUOUS
 62
     7
100
AcDbLine
 10
172.5705048771169
 20
90.31326938055419
 30
0.0
 11
178.0705048771169
 21
90.31326938055418
 31
0.0
  0
ARC
  5
38D
330
18
100
AcDbEntity
  8
L-1
  6
CONTINUOUS
 62
     7
100
AcDbCircle
 10
172.5705048771169
 20
90.81326938055418
 30
0.0
 40
0.5
100
AcDbArc
 50
179.9999999999998
 51
270.0
  0
ARC
  5
38E
330
18
100
AcDbEntity
  8
L-1
  6
CONTINUOUS
 62
     7
100
AcDbCircle
 10
178.0705048771169
 20
90.81326938055417
 30
0.0
 40
0.5
100
AcDbArc
 50
270.0
 51
0.0000000000001145
  0
LINE
  5
38F
330
18
100
AcDbEntity
  8
L-1
  6
CENTER2
 62
     7
100
AcDbLine
 10
180.3205048771169
 20
104.8132693805541
 30
0.0
 11
180.3205048771169
 21
102.8132693805542
 31
0.0
  0
LINE
  5
390
330
18
100
AcDbEntity
  8
L-1
  6
CENTER2
 62
     7
100
AcDbLine
 10
170.3205048771169
 20
104.8132693805541
 30
0.0
 11
170.3205048771169
 21
102.8132693805542
 31
0.0
  0
LINE
  5
392
330
18
100
AcDbEntity
  8
L-1
  6
CONTINUOUS
 62
     7
100
AcDbLine
 10
172.5705048771169
 20
94.31326938055422
 30
0.0
 11
178.0705048771169
 21
94.3132693805542
 31
0.0
  0
ARC
  5
393
330
18
100
AcDbEntity
  8
L-1
  6
CONTINUOUS
 62
     7
100
AcDbCircle
 10
172.5705048771169
 20
93.81326938055421
 30
0.0
 40
0.5
100
AcDbArc
 50
90.0
 51
180.0
  0
ARC
  5
395
330
18
100
AcDbEntity
  8
L-1
  6
CONTINUOUS
 62
     7
100
AcDbCircle
 10
178.0705048771169
 20
93.81326938055421
 30
0.0
 40
0.5
100
AcDbArc
 50
0.0000000000001018
 51
89.99999999999987
  0
ARC
  5
397
330
18
100
AcDbEntity
  8
L-1
  6
CONTINUOUS
 62
     7
100
AcDbCircle
 10
169.3205048771169
 20
104.8132693805541
 30
0.0
 40
1.0
100
AcDbArc
 50
0.0
 51
89.99999999999971
  0
ARC
  5
398
330
18
100
AcDbEntity
  8
L-1
  6
CONTINUOUS
 62
     7
100
AcDbCircle
 10
181.3205048771169
 20
104.8132693805541
 30
0.0
 40
1.0
100
AcDbArc
 50
90.00000000000003
 51
180.0000000000002
  0
LINE
  5
399
330
18
100
AcDbEntity
  8
L-1
  6
CONTINUOUS
 62
     7
100
AcDbLine
 10
79.32050487711695
 20
105.8132693805541
 30
0.0
 11
92.82050487711694
 21
105.8132693805541
 31
0.0
  0
LINE
  5
39A
330
18
100
AcDbEntity
  8
L-1
  6
CONTINUOUS
 62
     7
100
AcDbLine
 10
104.8205048771169
 20
105.8132693805541
 30
0.0
 11
118.3205048771169
 21
105.8132693805541
 31
0.0
  0
LINE
  5
39B
330
18
100
AcDbEntity
  8
L-1
  6
CONTINUOUS
 62
     7
100
AcDbLine
 10
130.3205048771169
 20
105.8132693805541
 30
0.0
 11
143.8205048771169
 21
105.8132693805541
 31
0.0
  0
LINE
  5
39C
330
18
100
AcDbEntity
  8
L-1
  6
CONTINUOUS
 62
     7
100
AcDbLine
 10
155.8205048771169
 20
105.8132693805541
 30
0.0
 11
169.3205048771169
 21
105.8132693805541
 31
0.0
  0
LINE
  5
39D
330
18
100
AcDbEntity
  8
L-1
  6
CONTINUOUS
 62
     7
100
AcDbLine
 10
181.3205048771169
 20
105.8132693805541
 30
0.0
 11
194.8205048771169
 21
105.8132693805541
 31
0.0
  0
LINE
  5
41A
330
18
100
AcDbEntity
  8
L-1
  6
CONTINUOUS
 62
     7
100
AcDbLine
 10
213.8205048771169
 20
139.701056244824
 30
0.0
 11
213.8205048771169
 21
264.601056244824
 31
0.0
  0
LINE
  5
42B
330
18
100
AcDbEntity
  8
L-1
  6
CONTINUOUS
 62
     7
 48
0.2
100
AcDbLine
 10
42.82050487711694
 20
263.6010562448239
 30
0.0
 11
42.82050487711694
 21
264.6010562448239
 31
0.0
  0
LINE
  5
42C
330
18
100
AcDbEntity
  8
L-1
  6
CONTINUOUS
 62
     7
 48
0.2
100
AcDbLine
 10
52.82050487711694
 20
263.6010562448239
 30
0.0
 11
52.82050487711694
 21
264.6010562448239
 31
0.0
  0
LINE
  5
42D
330
18
100
AcDbEntity
  8
L-1
  6
CONTINUOUS
 62
     7
 48
0.2
100
AcDbLine
 10
42.82050487711694
 20
139.7010562448239
 30
0.0
 11
42.82050487711694
 21
140.7010562448239
 31
0.0
  0
LINE
  5
42E
330
18
100
AcDbEntity
  8
L-1
  6
CONTINUOUS
 62
     7
 48
0.2
100
AcDbLine
 10
52.82050487711694
 20
139.7010562448239
 30
0.0
 11
52.82050487711694
 21
140.7010562448239
 31
0.0
  0
LINE
  5
430
330
18
100
AcDbEntity
  8
L-1
  6
CONTINUOUS
 62
     7
 48
0.2
100
AcDbLine
 10
68.32050487711694
 20
139.7010562448239
 30
0.0
 11
68.32050487711694
 21
140.7010562448239
 31
0.0
  0
LINE
  5
431
330
18
100
AcDbEntity
  8
L-1
  6
CONTINUOUS
 62
     7
 48
0.2
100
AcDbLine
 10
78.32050487711694
 20
139.7010562448239
 30
0.0
 11
78.32050487711694
 21
140.7010562448239
 31
0.0
  0
LINE
  5
433
330
18
100
AcDbEntity
  8
L-1
  6
CONTINUOUS
 62
     7
 48
0.2
100
AcDbLine
 10
93.82050487711694
 20
139.7010562448239
 30
0.0
 11
93.82050487711694
 21
140.7010562448239
 31
0.0
  0
LINE
  5
434
330
18
100
AcDbEntity
  8
L-1
  6
CONTINUOUS
 62
     7
 48
0.2
100
AcDbLine
 10
103.8205048771169
 20
139.7010562448239
 30
0.0
 11
103.8205048771169
 21
140.7010562448239
 31
0.0
  0
LINE
  5
436
330
18
100
AcDbEntity
  8
L-1
  6
CONTINUOUS
 62
     7
 48
0.2
100
AcDbLine
 10
119.3205048771169
 20
139.7010562448239
 30
0.0
 11
119.3205048771169
 21
140.7010562448239
 31
0.0
  0
LINE
  5
437
330
18
100
AcDbEntity
  8
L-1
  6
CONTINUOUS
 62
     7
 48
0.2
100
AcDbLine
 10
129.3205048771169
 20
139.7010562448239
 30
0.0
 11
129.3205048771169
 21
140.7010562448239
 31
0.0
  0
LINE
  5
439
330
18
100
AcDbEntity
  8
L-1
  6
CONTINUOUS
 62
     7
 48
0.2
100
AcDbLine
 10
144.8205048771169
 20
139.7010562448239
 30
0.0
 11
144.8205048771169
 21
140.7010562448239
 31
0.0
  0
LINE
  5
43A
330
18
100
AcDbEntity
  8
L-1
  6
CONTINUOUS
 62
     7
 48
0.2
100
AcDbLine
 10
154.8205048771169
 20
139.7010562448239
 30
0.0
 11
154.8205048771169
 21
140.7010562448239
 31
0.0
  0
LINE
  5
43C
330
18
100
AcDbEntity
  8
L-1
  6
CONTINUOUS
 62
     7
 48
0.2
100
AcDbLine
 10
170.3205048771169
 20
139.7010562448239
 30
0.0
 11
170.3205048771169
 21
140.7010562448239
 31
0.0
  0
LINE
  5
43D
330
18
100
AcDbEntity
  8
L-1
  6
CONTINUOUS
 62
     7
 48
0.2
100
AcDbLine
 10
180.3205048771169
 20
139.7010562448239
 30
0.0
 11
180.3205048771169
 21
140.7010562448239
 31
0.0
  0
LINE
  5
43F
330
18
100
AcDbEntity
  8
L-1
  6
CONTINUOUS
 62
     7
 48
0.2
100
AcDbLine
 10
195.8205048771169
 20
139.7010562448239
 30
0.0
 11
195.8205048771169
 21
140.7010562448239
 31
0.0
  0
LINE
  5
440
330
18
100
AcDbEntity
  8
L-1
  6
CONTINUOUS
 62
     7
 48
0.2
100
AcDbLine
 10
205.8205048771169
 20
139.7010562448239
 30
0.0
 11
205.8205048771169
 21
140.7010562448239
 31
0.0
  0
LINE
  5
442
330
18
100
AcDbEntity
  8
L-1
  6
CONTINUOUS
 62
     7
 48
0.2
100
AcDbLine
 10
68.32050487711694
 20
263.6010562448239
 30
0.0
 11
68.32050487711694
 21
264.6010562448239
 31
0.0
  0
LINE
  5
443
330
18
100
AcDbEntity
  8
L-1
  6
CONTINUOUS
 62
     7
 48
0.2
100
AcDbLine
 10
78.32050487711694
 20
263.6010562448239
 30
0.0
 11
78.32050487711694
 21
264.6010562448239
 31
0.0
  0
LINE
  5
444
330
18
100
AcDbEntity
  8
L-1
  6
CONTINUOUS
 62
     7
 48
0.2
100
AcDbLine
 10
93.82050487711694
 20
263.6010562448239
 30
0.0
 11
93.82050487711694
 21
264.6010562448239
 31
0.0
  0
LINE
  5
446
330
18
100
AcDbEntity
  8
L-1
  6
CONTINUOUS
 62
     7
 48
0.2
100
AcDbLine
 10
103.8205048771169
 20
263.6010562448239
 30
0.0
 11
103.8205048771169
 21
264.6010562448239
 31
0.0
  0
LINE
  5
448
330
18
100
AcDbEntity
  8
L-1
  6
CONTINUOUS
 62
     7
 48
0.2
100
AcDbLine
 10
119.3205048771169
 20
263.6010562448239
 30
0.0
 11
119.3205048771169
 21
264.6010562448239
 31
0.0
  0
LINE
  5
449
330
18
100
AcDbEntity
  8
L-1
  6
CONTINUOUS
 62
     7
 48
0.2
100
AcDbLine
 10
129.3205048771169
 20
263.6010562448239
 30
0.0
 11
129.3205048771169
 21
264.6010562448239
 31
0.0
  0
LINE
  5
44B
330
18
100
AcDbEntity
  8
L-1
  6
CONTINUOUS
 62
     7
 48
0.2
100
AcDbLine
 10
144.8205048771169
 20
263.6010562448239
 30
0.0
 11
144.8205048771169
 21
264.6010562448239
 31
0.0
  0
LINE
  5
44C
330
18
100
AcDbEntity
  8
L-1
  6
CONTINUOUS
 62
     7
 48
0.2
100
AcDbLine
 10
154.8205048771169
 20
263.6010562448239
 30
0.0
 11
154.8205048771169
 21
264.6010562448239
 31
0.0
  0
LINE
  5
44E
330
18
100
AcDbEntity
  8
L-1
  6
CONTINUOUS
 62
     7
 48
0.2
100
AcDbLine
 10
170.3205048771169
 20
263.6010562448239
 30
0.0
 11
170.3205048771169
 21
264.6010562448239
 31
0.0
  0
LINE
  5
44F
330
18
100
AcDbEntity
  8
L-1
  6
CONTINUOUS
 62
     7
 48
0.2
100
AcDbLine
 10
180.3205048771169
 20
263.6010562448239
 30
0.0
 11
180.3205048771169
 21
264.6010562448239
 31
0.0
  0
LINE
  5
451
330
18
100
AcDbEntity
  8
L-1
  6
CONTINUOUS
 62
     7
 48
0.2
100
AcDbLine
 10
195.8205048771169
 20
263.6010562448239
 30
0.0
 11
195.8205048771169
 21
264.6010562448239
 31
0.0
  0
LINE
  5
452
330
18
100
AcDbEntity
  8
L-1
  6
CONTINUOUS
 62
     7
 48
0.2
100
AcDbLine
 10
205.8205048771169
 20
263.6010562448239
 30
0.0
 11
205.8205048771169
 21
264.6010562448239
 31
0.0
  0
CIRCLE
  5
45D
330
18
100
AcDbEntity
  8
L-1
  6
CONTINUOUS
 62
     7
100
AcDbCircle
 10
207.8205048771169
 20
219.6510562448239
 30
0.0
 40
2.1
  0
CIRCLE
  5
45E
330
18
100
AcDbEntity
  8
L-1
  6
CONTINUOUS
 62
     7
100
AcDbCircle
 10
207.8205048771169
 20
184.6510562448239
 30
0.0
 40
2.1
  0
CIRCLE
  5
45F
330
18
100
AcDbEntity
  8
L-1
  6
CONTINUOUS
 62
     7
100
AcDbCircle
 10
40.82050487711694
 20
219.6510562448239
 30
0.0
 40
2.1
  0
CIRCLE
  5
460
330
18
100
AcDbEntity
  8
L-1
  6
CONTINUOUS
 62
     7
100
AcDbCircle
 10
40.82050487711694
 20
184.6510562448239
 30
0.0
 40
2.1
  0
CIRCLE
  5
D4B
330
18
100
AcDbEntity
  8
L-1
  6
CONTINUOUS
 62
     7
100
AcDbCircle
 10
60.56807549398044
 20
65.89116389858213
 30
0.0
 40
2.5
  0
CIRCLE
  5
D4D
330
18
100
AcDbEntity
  8
L-1
  6
CONTINUOUS
 62
     7
100
AcDbCircle
 10
60.56807549398044
 20
81.89116389858213
 30
0.0
 40
2.5
  0
CIRCLE
  5
D50
330
18
100
AcDbEntity
  8
L-1
  6
CONTINUOUS
 62
     7
100
AcDbCircle
 10
86.06807549398045
 20
81.89116389858213
 30
0.0
 40
2.5
  0
CIRCLE
  5
D53
330
18
100
AcDbEntity
  8
L-1
  6
CONTINUOUS
 62
     7
100
AcDbCircle
 10
86.06807549398045
 20
65.89116389858213
 30
0.0
 40
2.5
  0
CIRCLE
  5
D55
330
18
100
AcDbEntity
  8
L-1
  6
CONTINUOUS
 62
     7
100
AcDbCircle
 10
111.5680754939804
 20
81.89116389858213
 30
0.0
 40
2.5
  0
CIRCLE
  5
D57
330
18
100
AcDbEntity
  8
L-1
  6
CONTINUOUS
 62
     7
100
AcDbCircle
 10
111.5680754939804
 20
65.89116389858213
 30
0.0
 40
2.5
  0
CIRCLE
  5
D5C
330
18
100
AcDbEntity
  8
L-1
  6
CONTINUOUS
 62
     7
100
AcDbCircle
 10
137.0680754939804
 20
81.89116389858213
 30
0.0
 40
2.5
  0
CIRCLE
  5
D5E
330
18
100
AcDbEntity
  8
L-1
  6
CONTINUOUS
 62
     7
100
AcDbCircle
 10
137.0680754939804
 20
65.89116389858213
 30
0.0
 40
2.5
  0
CIRCLE
  5
D61
330
18
100
AcDbEntity
  8
L-1
  6
CONTINUOUS
 62
     7
100
AcDbCircle
 10
162.5680754939804
 20
81.89116389858213
 30
0.0
 40
2.5
  0
CIRCLE
  5
D64
330
18
100
AcDbEntity
  8
L-1
  6
CONTINUOUS
 62
     7
100
AcDbCircle
 10
162.5680754939804
 20
65.89116389858213
 30
0.0
 40
2.5
  0
CIRCLE
  5
D68
330
18
100
AcDbEntity
  8
L-1
  6
CONTINUOUS
 62
     7
100
AcDbCircle
 10
188.0680754939804
 20
81.89116389858213
 30
0.0
 40
2.5
  0
CIRCLE
  5
D6B
330
18
100
AcDbEntity
  8
L-1
  6
CONTINUOUS
 62
     7
100
AcDbCircle
 10
188.0680754939804
 20
65.89116389858213
 30
0.0
 40
2.5
  0
CIRCLE
  5
E51
330
18
100
AcDbEntity
  8
L-1
  6
CONTINUOUS
 62
     7
100
AcDbCircle
 10
200.8205048771169
 20
65.89116389858213
 30
0.0
 40
2.1
  0
CIRCLE
  5
E56
330
18
100
AcDbEntity
  8
L-1
  6
CONTINUOUS
 62
     7
100
AcDbCircle
 10
47.82050487711694
 20
65.89116389858213
 30
0.0
 40
2.1
  0
ARC
  5
E58
330
18
100
AcDbEntity
  8
L-1
  6
CONTINUOUS
 62
     7
100
AcDbCircle
 10
43.82050487711694
 20
102.8132693805542
 30
0.0
 40
1.0
100
AcDbArc
 50
180.0
 51
269.9999999999997
  0
ARC
  5
E59
330
18
100
AcDbEntity
  8
L-1
  6
CONTINUOUS
 62
     7
100
AcDbCircle
 10
51.82050487711695
 20
102.8132693805542
 30
0.0
 40
1.0
100
AcDbArc
 50
269.9999999999998
 51
0.0
  0
ARC
  5
E5A
330
18
100
AcDbEntity
  8
L-1
  6
CONTINUOUS
 62
     7
100
AcDbCircle
 10
69.32050487711695
 20
102.8132693805542
 30
0.0
 40
1.0
100
AcDbArc
 50
180.0
 51
269.9999999999997
  0
ARC
  5
E5B
330
18
100
AcDbEntity
  8
L-1
  6
CONTINUOUS
 62
     7
100
AcDbCircle
 10
77.32050487711695
 20
102.8132693805542
 30
0.0
 40
1.0
100
AcDbArc
 50
270.0
 51
0.0
  0
ARC
  5
E66
330
18
100
AcDbEntity
  8
L-1
  6
CONTINUOUS
 62
     7
100
AcDbCircle
 10
94.82050487711694
 20
102.8132693805542
 30
0.0
 40
1.0
100
AcDbArc
 50
180.0
 51
269.9999999999997
  0
ARC
  5
E67
330
18
100
AcDbEntity
  8
L-1
  6
CONTINUOUS
 62
     7
100
AcDbCircle
 10
102.8205048771169
 20
102.8132693805542
 30
0.0
 40
1.0
100
AcDbArc
 50
269.9999999999997
 51
0.0
  0
ARC
  5
E68
330
18
100
AcDbEntity
  8
L-1
  6
CONTINUOUS
 62
     7
100
AcDbCircle
 10
120.3205048771169
 20
102.8132693805542
 30
0.0
 40
1.0
100
AcDbArc
 50
180.0
 51
269.9999999999997
  0
ARC
  5
E69
330
18
100
AcDbEntity
  8
L-1
  6
CONTINUOUS
 62
     7
100
AcDbCircle
 10
128.3205048771169
 20
102.8132693805542
 30
0.0
 40
1.0
100
AcDbArc
 50
269.9999999999997
 51
0.0
  0
ARC
  5
E6A
330
18
100
AcDbEntity
  8
L-1
  6
CONTINUOUS
 62
     7
100
AcDbCircle
 10
145.8205048771169
 20
102.8132693805542
 30
0.0
 40
1.0
100
AcDbArc
 50
180.0
 51
269.9999999999997
  0
ARC
  5
E6B
330
18
100
AcDbEntity
  8
L-1
  6
CONTINUOUS
 62
     7
100
AcDbCircle
 10
153.8205048771169
 20
102.8132693805542
 30
0.0
 40
1.0
100
AcDbArc
 50
269.9999999999997
 51
0.0
  0
ARC
  5
E6C
330
18
100
AcDbEntity
  8
L-1
  6
CONTINUOUS
 62
     7
100
AcDbCircle
 10
171.3205048771169
 20
102.8132693805542
 30
0.0
 40
1.0
100
AcDbArc
 50
180.0000000000011
 51
269.9999999999997
  0
ARC
  5
E6D
330
18
100
AcDbEntity
  8
L-1
  6
CONTINUOUS
 62
     7
100
AcDbCircle
 10
179.3205048771169
 20
102.8132693805542
 30
0.0
 40
1.0
100
AcDbArc
 50
269.9999999999997
 51
0.0
  0
ARC
  5
E6E
330
18
100
AcDbEntity
  8
L-1
  6
CONTINUOUS
 62
     7
100
AcDbCircle
 10
196.8205048771169
 20
102.8132693805542
 30
0.0
 40
1.0
100
AcDbArc
 50
180.0
 51
269.9999999999997
  0
ARC
  5
E6F
330
18
100
AcDbEntity
  8
L-1
  6
CONTINUOUS
 62
     7
100
AcDbCircle
 10
204.8205048771169
 20
102.8132693805542
 30
0.0
 40
1.0
100
AcDbArc
 50
270.0
 51
0.0
  0
LINE
  5
EA9
330
18
100
AcDbEntity
  8
L-1
  6
CONTINUOUS
 62
     7
100
AcDbLine
 10
319.8086647075145
 20
142.7010562448239
 30
0.0
 11
326.0086647075145
 21
142.7010562448239
 31
0.0
  0
ARC
  5
EB0
330
18
100
AcDbEntity
  8
L-1
  6
CONTINUOUS
 62
     7
100
AcDbCircle
 10
317.9474918224678
 20
142.7453186922176
 30
0.0
 40
1.861699135811709
100
AcDbArc
 50
290.4594806511929
 51
358.637647532854
  0
ARC
  5
EB1
330
18
100
AcDbEntity
  8
L-1
  6
CONTINUOUS
 62
     7
100
AcDbCircle
 10
327.869837592561
 20
142.7453186922186
 30
0.0
 40
1.861699135811709
100
AcDbArc
 50
181.362352467145
 51
249.5405193488061
  0
CIRCLE
  5
EBB
330
18
100
AcDbEntity
  8
L-1
  6
CONTINUOUS
 62
     7
100
AcDbCircle
 10
60.56807549398044
 20
230.1510562448239
 30
0.0
 40
2.5
  0
CIRCLE
  5
EBC
330
18
100
AcDbEntity
  8
L-1
  6
CONTINUOUS
 62
     7
100
AcDbCircle
 10
60.56807549398044
 20
214.1510562448239
 30
0.0
 40
2.5
  0
CIRCLE
  5
EBD
330
18
100
AcDbEntity
  8
L-1
  6
CONTINUOUS
 62
     7
100
AcDbCircle
 10
60.56807549398044
 20
190.1510562448239
 30
0.0
 40
2.5
  0
CIRCLE
  5
EBE
330
18
100
AcDbEntity
  8
L-1
  6
CONTINUOUS
 62
     7
100
AcDbCircle
 10
60.56807549398044
 20
174.1510562448239
 30
0.0
 40
2.5
  0
CIRCLE
  5
EC1
330
18
100
AcDbEntity
  8
L-1
  6
CONTINUOUS
 62
     7
100
AcDbCircle
 10
86.06807549398045
 20
174.1510562448239
 30
0.0
 40
2.5
  0
CIRCLE
  5
EC3
330
18
100
AcDbEntity
  8
L-1
  6
CONTINUOUS
 62
     7
100
AcDbCircle
 10
86.06807549398045
 20
190.1510562448239
 30
0.0
 40
2.5
  0
CIRCLE
  5
EC5
330
18
100
AcDbEntity
  8
L-1
  6
CONTINUOUS
 62
     7
100
AcDbCircle
 10
86.06807549398045
 20
214.1510562448239
 30
0.0
 40
2.5
  0
CIRCLE
  5
EC7
330
18
100
AcDbEntity
  8
L-1
  6
CONTINUOUS
 62
     7
100
AcDbCircle
 10
86.06807549398045
 20
230.1510562448239
 30
0.0
 40
2.5
  0
CIRCLE
  5
EC9
330
18
100
AcDbEntity
  8
L-1
  6
CONTINUOUS
 62
     7
100
AcDbCircle
 10
111.5680754939804
 20
174.1510562448239
 30
0.0
 40
2.5
  0
CIRCLE
  5
ECB
330
18
100
AcDbEntity
  8
L-1
  6
CONTINUOUS
 62
     7
100
AcDbCircle
 10
111.5680754939804
 20
190.1510562448239
 30
0.0
 40
2.5
  0
CIRCLE
  5
ECD
330
18
100
AcDbEntity
  8
L-1
  6
CONTINUOUS
 62
     7
100
AcDbCircle
 10
111.5680754939804
 20
214.1510562448239
 30
0.0
 40
2.5
  0
CIRCLE
  5
ECF
330
18
100
AcDbEntity
  8
L-1
  6
CONTINUOUS
 62
     7
100
AcDbCircle
 10
111.5680754939804
 20
230.1510562448239
 30
0.0
 40
2.5
  0
CIRCLE
  5
ED2
330
18
100
AcDbEntity
  8
L-1
  6
CONTINUOUS
 62
     7
100
AcDbCircle
 10
137.0680754939804
 20
174.1510562448239
 30
0.0
 40
2.5
  0
CIRCLE
  5
ED4
330
18
100
AcDbEntity
  8
L-1
  6
CONTINUOUS
 62
     7
100
AcDbCircle
 10
137.0680754939804
 20
190.1510562448239
 30
0.0
 40
2.5
  0
CIRCLE
  5
ED6
330
18
100
AcDbEntity
  8
L-1
  6
CONTINUOUS
 62
     7
100
AcDbCircle
 10
137.0680754939804
 20
214.1510562448239
 30
0.0
 40
2.5
  0
CIRCLE
  5
ED8
330
18
100
AcDbEntity
  8
L-1
  6
CONTINUOUS
 62
     7
100
AcDbCircle
 10
137.0680754939804
 20
230.1510562448239
 30
0.0
 40
2.5
  0
CIRCLE
  5
EDD
330
18
100
AcDbEntity
  8
L-1
  6
CONTINUOUS
 62
     7
100
AcDbCircle
 10
162.5680754939804
 20
174.1510562448239
 30
0.0
 40
2.5
  0
CIRCLE
  5
EDE
330
18
100
AcDbEntity
  8
L-1
  6
CONTINUOUS
 62
     7
100
AcDbCircle
 10
162.5680754939804
 20
190.1510562448239
 30
0.0
 40
2.5
  0
CIRCLE
  5
EDF
330
18
100
AcDbEntity
  8
L-1
  6
CONTINUOUS
 62
     7
100
AcDbCircle
 10
162.5680754939804
 20
214.1510562448239
 30
0.0
 40
2.5
  0
CIRCLE
  5
EE1
330
18
100
AcDbEntity
  8
L-1
  6
CONTINUOUS
 62
     7
100
AcDbCircle
 10
162.5680754939804
 20
230.1510562448239
 30
0.0
 40
2.5
  0
CIRCLE
  5
EE4
330
18
100
AcDbEntity
  8
L-1
  6
CONTINUOUS
 62
     7
100
AcDbCircle
 10
188.0680754939804
 20
174.1510562448239
 30
0.0
 40
2.5
  0
CIRCLE
  5
EE6
330
18
100
AcDbEntity
  8
L-1
  6
CONTINUOUS
 62
     7
100
AcDbCircle
 10
188.0680754939804
 20
214.1510562448239
 30
0.0
 40
2.5
  0
CIRCLE
  5
EE7
330
18
100
AcDbEntity
  8
L-1
  6
CONTINUOUS
 62
     7
100
AcDbCircle
 10
188.0680754939804
 20
190.1510562448239
 30
0.0
 40
2.5
  0
CIRCLE
  5
EEA
330
18
100
AcDbEntity
  8
L-1
  6
CONTINUOUS
 62
     7
100
AcDbCircle
 10
188.0680754939804
 20
230.1510562448239
 30
0.0
 40
2.5
  0
LINE
  5
F92
330
18
100
AcDbEntity
  8
L-1
  6
CONTINUOUS
 62
     7
100
AcDbLine
 10
197.7205048771169
 20
142.4010562448239
 30
0.0
 11
203.9205048771169
 21
142.4010562448239
 31
0.0
  0
ARC
  5
F93
330
18
100
AcDbEntity
  8
L-1
  6
CONTINUOUS
 62
     7
100
AcDbCircle
 10
195.8593319920702
 20
142.4453186922176
 30
0.0
 40
1.861699135811709
100
AcDbArc
 50
290.4594806511929
 51
358.637647532854
  0
ARC
  5
F96
330
18
100
AcDbEntity
  8
L-1
  6
CONTINUOUS
 62
     7
100
AcDbCircle
 10
205.7816777621634
 20
142.4453186922186
 30
0.0
 40
1.861699135811709
100
AcDbArc
 50
181.362352467145
 51
249.5405193488061
  0
LINE
  5
F97
330
18
100
AcDbEntity
  8
L-1
  6
CONTINUOUS
 62
     7
100
AcDbLine
 10
44.72050487711697
 20
142.4010562448239
 30
0.0
 11
50.92050487711691
 21
142.4010562448239
 31
0.0
  0
ARC
  5
F99
330
18
100
AcDbEntity
  8
L-1
  6
CONTINUOUS
 62
     7
100
AcDbCircle
 10
52.78167776216349
 20
142.4453186922186
 30
0.0
 40
1.861699135811709
100
AcDbArc
 50
181.362352467145
 51
249.5405193488061
  0
ARC
  5
F9B
330
18
100
AcDbEntity
  8
L-1
  6
CONTINUOUS
 62
     7
100
AcDbCircle
 10
42.85933199207028
 20
142.4453186922176
 30
0.0
 40
1.861699135811709
100
AcDbArc
 50
290.4594806511929
 51
358.637647532854
  0
ARC
  5
1028
330
18
100
AcDbEntity
  8
L-1
  6
CONTINUOUS
 62
     7
100
AcDbCircle
 10
211.8205048771169
 20
103.8132693805541
 30
0.0
 40
2.0
100
AcDbArc
 50
0.0
 51
89.99999999999968
  0
ARC
  5
103B
330
18
100
AcDbEntity
  8
L-1
  6
CONTINUOUS
 62
     7
100
AcDbCircle
 10
36.82050487711694
 20
103.8132693805542
 30
0.0
 40
2.0
100
AcDbArc
 50
90.00000000000017
 51
180.0
  0
CIRCLE
  5
1219
330
18
100
AcDbEntity
  8
L-1
  6
CONTINUOUS
 62
     3
100
AcDbCircle
 10
47.82050487711694
 20
65.89116389858213
 30
0.0
 40
1.6
  0
CIRCLE
  5
121A
330
18
100
AcDbEntity
  8
L-1
  6
CONTINUOUS
 62
     3
100
AcDbCircle
 10
200.8205048771169
 20
65.89116389858213
 30
0.0
 40
1.6
  0
DIMENSION
  5
121B
330
18
100
AcDbEntity
  8
L-2
  6
CONTINUOUS
 62
     2
100
AcDbDimension
  2
*D14
 10
213.8205048771169
 20
119.4208820680337
 30
0.0
 11
124.3205048771169
 21
121.7208820680337
 31
0.0
 70
    32
  3
CAD-STD
100
AcDbAlignedDimension
 13
34.82050487711694
 23
139.7010562448239
 33
0.0
 14
213.8205048771169
 24
139.7010562448239
 34
0.0
100
AcDbRotatedDimension
  0
LINE
  5
1236
330
18
100
AcDbEntity
  8
L-1
  6
CENTER2
 62
     1
 48
0.1
100
AcDbLine
 10
210.4205048771169
 20
219.6510562448239
 30
0.0
 11
205.220504877117
 21
219.6510562448239
 31
0.0
  0
LINE
  5
1239
330
18
100
AcDbEntity
  8
L-1
  6
CENTER2
 62
     1
 48
0.1
100
AcDbLine
 10
207.8205048771169
 20
217.0510562448239
 30
0.0
 11
207.8205048771169
 21
222.2510562448239
 31
0.0
  0
DIMENSION
  5
1240
330
18
100
AcDbEntity
  8
L-2
  6
CONTINUOUS
 62
     2
100
AcDbDimension
  2
*D15
 10
207.8205048771169
 20
127.0365095013906
 30
0.0
 11
124.3205048771169
 21
129.3365095013907
 31
0.0
 70
    32
  3
CAD-STD
100
AcDbAlignedDimension
 13
40.82050487711694
 23
182.0510562448239
 33
0.0
 14
207.8205048771169
 24
182.0510562448239
 34
0.0
100
AcDbRotatedDimension
  0
DIMENSION
  5
124D
330
18
100
AcDbEntity
  8
L-2
  6
CONTINUOUS
 62
     2
100
AcDbDimension
  2
*D16
 10
235.2409265968347
 20
139.7010562448239
 30
0.0
 11
232.9409265968346
 21
202.151056244824
 31
0.0
 70
    32
  3
CAD-STD
100
AcDbAlignedDimension
 13
213.8205048771169
 23
264.601056244824
 33
0.0
 14
213.8205048771169
 24
139.7010562448239
 34
0.0
 50
90.0
100
AcDbRotatedDimension
  0
DIMENSION
  5
12A3
330
18
100
AcDbEntity
  8
L-2
  6
CONTINUOUS
 62
     2
100
AcDbDimension
  2
*D17
 10
333.2865592255424
 20
128.1231263089006
 30
0.0
 11
308.1365592255424
 21
130.4231263089006
 31
0.0
 70
    32
  3
CAD-STD
100
AcDbAlignedDimension
 13
282.9865592255425
 23
140.0010562448239
 33
0.0
 14
333.2865592255424
 24
143.001056244824
 34
0.0
100
AcDbRotatedDimension
  0
DIMENSION
  5
12B0
330
18
100
AcDbEntity
  8
L-2
  6
CONTINUOUS
 62
     2
100
AcDbDimension
  2
*D18
 10
228.1674799185263
 20
184.6510562448239
 30
0.0
 11
225.8674799185263
 21
202.151056244824
 31
0.0
 70
    32
  3
CAD-STD
100
AcDbAlignedDimension
 13
210.4205048771169
 23
219.6510562448239
 33
0.0
 14
210.4205048771169
 24
184.6510562448239
 34
0.0
 50
90.0
100
AcDbRotatedDimension
  0
LEADER
  5
12EF
330
18
100
AcDbEntity
  8
L-2
  6
CONTINUOUS
 62
     2
100
AcDbLeader
  3
CAD-STD
 73
     0
 40
3.2
 76
     3
 10
209.3724526822431
 20
183.2363272919273
 30
0.0
 10
244.0879052072643
 20
161.267993177766
 30
0.0
 10
270.1373461002938
 20
161.267993177766
 30
0.0
340
12F0
213
-6.74878536797496
223
-1.6
233
0.0
1001
ACAD
1000
DSTYLE
1002
{
1070
     6
1000
OPEN
1070
    77
1070
     0
1070
   147
1040
0.7
1070
   343
1005
35
1002
}
1000
LEANOF
1010
-6.74878536797496
1020
-1.6
1030
0.0
  0
MTEXT
  5
12F0
330
18
100
AcDbEntity
  8
L-2
  6
CONTINUOUS
 62
     2
100
AcDbMText
 10
277.5861314682687
 20
162.867993177766
 30
0.0
 40
3.2
 41
0.0
 71
     1
 72
     1
  1

  7
BGS
1001
ACAD
1000
MTEXTBEGIN
1070
    73
1070
     1
1070
    44
1040
1.0
1070
    74
1070
     0
1000
MTEXTEND
  0
TEXT
  5
12F1
330
18
100
AcDbEntity
  8
L-2
  6
CONTINUOUS
 62
     2
100
AcDbText
 10
245.5469349529219
 20
162.8501595341632
 30
0.0
 40
3.2
  1
4×φ4.2
  7
MSゴシック
 11
245.5469349529219
 21
162.2653879605592
 31
0.0
100
AcDbText
 73
     1
  0
TEXT
  5
12F2
330
18
100
AcDbEntity
  8
L-2
  6
CONTINUOUS
 62
     2
100
AcDbText
 10
245.1329721178678
 20
157.0882162197275
 30
0.0
 40
3.2
  1
MDF取付用穴
  7
MSゴシック
 11
245.1329721178678
 21
156.5034446461235
 31
0.0
100
AcDbText
 73
     1
  0
LEADER
  5
12F3
330
18
100
AcDbEntity
  8
L-2
  6
CONTINUOUS
 62
     2
100
AcDbLeader
  3
CAD-STD
 73
     0
 40
3.2
 76
     3
 10
202.4198190545859
 20
67.25211730033644
 30
0.0
 10
228.5324785510153
 20
85.3583226290001
 30
0.0
 10
265.5209399967177
 20
85.3583226290001
 30
0.0
340
12F4
213
5.998129416399706
223
-1.6
233
0.0
1001
ACAD
1000
DSTYLE
1002
{
1070
     6
1000
OPEN
1070
    77
1070
     0
1070
   147
1040
0.7
1070
   343
1005
35
1002
}
1000
LEANOF
1010
5.998129416399706
1020
-1.6
1030
0.0
  0
MTEXT
  5
12F4
330
18
100
AcDbEntity
  8
L-2
  6
CONTINUOUS
 62
     2
100
AcDbMText
 10
260.222810580318
 20
86.9583226290001
 30
0.0
 40
3.2
 41
0.0
 71
     1
 72
     1
  1

  7
BGS
1001
ACAD
1000
MTEXTBEGIN
1070
    73
1070
     1
1070
    44
1040
1.0
1070
    74
1070
     0
1000
MTEXTEND
  0
TEXT
  5
12F6
330
18
100
AcDbEntity
  8
L-2
  6
CONTINUOUS
 62
     2
100
AcDbText
 10
230.2148723643087
 20
86.86447429260741
 30
0.0
 40
3.2
  1
2×M5
  7
MSゴシック
 11
230.2148723643087
 21
86.27970271900336
 31
0.0
100
AcDbText
 73
     1
  0
TEXT
  5
12F7
330
18
100
AcDbEntity
  8
L-2
  6
CONTINUOUS
 62
     2
100
AcDbText
 10
228.6990924896485
 20
81.19290503277003
 30
0.0
 40
3.2
  1
アース線取付用ねじ穴
  7
MSゴシック
 11
228.6990924896485
 21
80.60813345916598
 31
0.0
100
AcDbText
 73
     1
  0
LINE
  5
13B0
330
18
100
AcDbEntity
  8
L-1
  6
CONTINUOUS
 62
     5
100
AcDbLine
 10
305.0
 20
36.0
 30
0.0
 11
385.0
 21
36.0
 31
0.0
  0
LINE
  5
13B1
330
18
100
AcDbEntity
  8
L-1
  6
CONTINUOUS
 62
     5
100
AcDbLine
 10
305.0
 20
14.0
 30
0.0
 11
385.0
 21
14.0
 31
0.0
  0
TEXT
  5
13B3
330
18
100
AcDbEntity
  8
L-1
  6
CONTINUOUS
 62
     2
100
AcDbText
 10
320.0876348757262
 20
7.873740483041586
 30
0.0
 40
4.4
  1
東京通信機工業株式会社
  7
MSゴシック
100
AcDbText
  0
INSERT
  5
13B4
330
18
100
AcDbEntity
  8
L-1
100
AcDbBlockReference
  2
TK
 10
318.0622253631908
 20
9.776842374659864
 30
0.0
  0
LINE
  5
13B7
330
18
100
AcDbEntity
  8
L-1
  6
CONTINUOUS
 62
     5
100
AcDbLine
 10
385.0
 20
275.0
 30
0.0
 11
385.0
 21
6.0
 31
0.0
  0
LINE
  5
13B8
330
18
100
AcDbEntity
  8
L-1
  6
CONTINUOUS
 62
     5
100
AcDbLine
 10
6.0
 20
6.0
 30
0.0
 11
385.0
 21
6.0
 31
0.0
  0
LINE
  5
13B9
330
18
100
AcDbEntity
  8
L-1
  6
CONTINUOUS
 62
     5
100
AcDbLine
 10
6.0
 20
275.0
 30
0.0
 11
6.0
 21
6.0
 31
0.0
  0
LINE
  5
13BA
330
18
100
AcDbEntity
  8
L-1
  6
CONTINUOUS
 62
     5
100
AcDbLine
 10
385.0
 20
275.0
 30
0.0
 11
6.0
 21
275.0
 31
0.0
  0
LINE
  5
13BC
330
18
100
AcDbEntity
  8
L-1
  6
CONTINUOUS
 62
     5
100
AcDbLine
 10
305.0
 20
36.0
 30
0.0
 11
305.0
 21
6.0
 31
0.0
  0
TEXT
  5
13F7
330
18
100
AcDbEntity
  8
L-2
  6
CONTINUOUS
 62
     2
100
AcDbText
 10
350.0876808478133
 20
37.49318017106316
 30
0.0
 40
4.0
  1
（単位：ｍｍ）
  7
MSゴシック
100
AcDbText
  0
LINE
  5
1421
330
18
100
AcDbEntity
  8
L-1
  6
CONTINUOUS
 62
     7
100
AcDbLine
 10
197.5705048771169
 20
98.31326938055433
 30
0.0
 11
204.0705048771169
 21
98.31326938055427
 31
0.0
  0
LINE
  5
1422
330
18
100
AcDbEntity
  8
L-1
  6
CONTINUOUS
 62
     7
 48
0.5
100
AcDbLine
 10
197.5705048771169
 20
101.3132693805543
 30
0.0
 11
197.5705048771169
 21
98.31326938055433
 31
0.0
  0
ARC
  5
1425
330
18
100
AcDbEntity
  8
L-1
  6
CONTINUOUS
 48
0.5
100
AcDbCircle
 10
197.0705048771169
 20
101.3132693805543
 30
0.0
 40
0.5
100
AcDbArc
 50
0.0
 51
90.0
  0
LINE
  5
1426
330
18
100
AcDbEntity
  8
L-1
  6
CONTINUOUS
 62
     7
100
AcDbLine
 10
196.8205048771169
 20
101.8132693805542
 30
0.0
 11
197.0705048771169
 21
101.8132693805542
 31
0.0
  0
LINE
  5
1427
330
18
100
AcDbEntity
  8
L-1
  6
CONTINUOUS
 62
     7
 48
0.5
100
AcDbLine
 10
204.0705048771169
 20
101.3132693805539
 30
0.0
 11
204.0705048771169
 21
98.31326938055427
 31
0.0
  0
ARC
  5
1429
330
18
100
AcDbEntity
  8
L-1
  6
CONTINUOUS
 48
0.5
100
AcDbCircle
 10
204.5705048771169
 20
101.3132693805539
 30
0.0
 40
0.5
100
AcDbArc
 50
89.99999999999349
 51
180.0
  0
LINE
  5
142B
330
18
100
AcDbEntity
  8
L-1
  6
CONTINUOUS
 62
     7
100
AcDbLine
 10
204.5705048771169
 20
101.8132693805542
 30
0.0
 11
204.8205048771169
 21
101.8132693805542
 31
0.0
  0
LINE
  5
1434
330
18
100
AcDbEntity
  8
L-1
  6
CONTINUOUS
 62
     7
100
AcDbLine
 10
172.0705048771169
 20
98.31326938055433
 30
0.0
 11
178.5705048771169
 21
98.31326938055427
 31
0.0
  0
LINE
  5
1435
330
18
100
AcDbEntity
  8
L-1
  6
CONTINUOUS
 62
     7
 48
0.5
100
AcDbLine
 10
172.0705048771169
 20
101.3132693805543
 30
0.0
 11
172.0705048771169
 21
98.31326938055433
 31
0.0
  0
LINE
  5
1436
330
18
100
AcDbEntity
  8
L-1
  6
CONTINUOUS
 62
     7
100
AcDbLine
 10
171.3205048771169
 20
101.8132693805542
 30
0.0
 11
171.5705048771169
 21
101.8132693805542
 31
0.0
  0
ARC
  5
1437
330
18
100
AcDbEntity
  8
L-1
  6
CONTINUOUS
 48
0.5
100
AcDbCircle
 10
171.5705048771169
 20
101.3132693805543
 30
0.0
 40
0.5
100
AcDbArc
 50
0.0
 51
90.0
  0
LINE
  5
1438
330
18
100
AcDbEntity
  8
L-1
  6
CONTINUOUS
 62
     7
 48
0.5
100
AcDbLine
 10
178.5705048771169
 20
101.3132693805539
 30
0.0
 11
178.5705048771169
 21
98.31326938055427
 31
0.0
  0
ARC
  5
1439
330
18
100
AcDbEntity
  8
L-1
  6
CONTINUOUS
 48
0.5
100
AcDbCircle
 10
179.0705048771169
 20
101.3132693805539
 30
0.0
 40
0.5
100
AcDbArc
 50
89.99999999999349
 51
180.0
  0
LINE
  5
143A
330
18
100
AcDbEntity
  8
L-1
  6
CONTINUOUS
 62
     7
100
AcDbLine
 10
179.0705048771169
 20
101.8132693805542
 30
0.0
 11
179.3205048771169
 21
101.8132693805542
 31
0.0
  0
LINE
  5
143B
330
18
100
AcDbEntity
  8
L-1
  6
CONTINUOUS
 62
     7
100
AcDbLine
 10
146.5705048771169
 20
98.31326938055433
 30
0.0
 11
153.0705048771169
 21
98.31326938055427
 31
0.0
  0
LINE
  5
143C
330
18
100
AcDbEntity
  8
L-1
  6
CONTINUOUS
 62
     7
 48
0.5
100
AcDbLine
 10
146.5705048771169
 20
101.3132693805543
 30
0.0
 11
146.5705048771169
 21
98.31326938055433
 31
0.0
  0
ARC
  5
143D
330
18
100
AcDbEntity
  8
L-1
  6
CONTINUOUS
 48
0.5
100
AcDbCircle
 10
146.0705048771169
 20
101.3132693805543
 30
0.0
 40
0.5
100
AcDbArc
 50
0.0
 51
90.0
  0
LINE
  5
143E
330
18
100
AcDbEntity
  8
L-1
  6
CONTINUOUS
 62
     7
100
AcDbLine
 10
145.8205048771169
 20
101.8132693805542
 30
0.0
 11
146.0705048771169
 21
101.8132693805542
 31
0.0
  0
LINE
  5
143F
330
18
100
AcDbEntity
  8
L-1
  6
CONTINUOUS
 62
     7
 48
0.5
100
AcDbLine
 10
153.0705048771169
 20
101.3132693805539
 30
0.0
 11
153.0705048771169
 21
98.31326938055427
 31
0.0
  0
LINE
  5
1440
330
18
100
AcDbEntity
  8
L-1
  6
CONTINUOUS
 62
     7
100
AcDbLine
 10
153.5705048771169
 20
101.8132693805542
 30
0.0
 11
153.8205048771169
 21
101.8132693805542
 31
0.0
  0
ARC
  5
1441
330
18
100
AcDbEntity
  8
L-1
  6
CONTINUOUS
 48
0.5
100
AcDbCircle
 10
153.5705048771169
 20
101.3132693805539
 30
0.0
 40
0.5
100
AcDbArc
 50
89.99999999999349
 51
180.0
  0
LINE
  5
1442
330
18
100
AcDbEntity
  8
L-1
  6
CONTINUOUS
 62
     7
100
AcDbLine
 10
121.0705048771169
 20
98.31326938055433
 30
0.0
 11
127.5705048771169
 21
98.31326938055427
 31
0.0
  0
LINE
  5
1443
330
18
100
AcDbEntity
  8
L-1
  6
CONTINUOUS
 62
     7
 48
0.5
100
AcDbLine
 10
121.0705048771169
 20
101.3132693805543
 30
0.0
 11
121.0705048771169
 21
98.31326938055433
 31
0.0
  0
LINE
  5
1444
330
18
100
AcDbEntity
  8
L-1
  6
CONTINUOUS
 62
     7
100
AcDbLine
 10
120.3205048771169
 20
101.8132693805542
 30
0.0
 11
120.5705048771169
 21
101.8132693805542
 31
0.0
  0
ARC
  5
1445
330
18
100
AcDbEntity
  8
L-1
  6
CONTINUOUS
 48
0.5
100
AcDbCircle
 10
120.5705048771169
 20
101.3132693805543
 30
0.0
 40
0.5
100
AcDbArc
 50
0.0
 51
90.0
  0
LINE
  5
1446
330
18
100
AcDbEntity
  8
L-1
  6
CONTINUOUS
 62
     7
 48
0.5
100
AcDbLine
 10
127.5705048771169
 20
101.3132693805539
 30
0.0
 11
127.5705048771169
 21
98.31326938055427
 31
0.0
  0
ARC
  5
1447
330
18
100
AcDbEntity
  8
L-1
  6
CONTINUOUS
 48
0.5
100
AcDbCircle
 10
128.0705048771169
 20
101.3132693805539
 30
0.0
 40
0.5
100
AcDbArc
 50
89.99999999999349
 51
180.0
  0
LINE
  5
1448
330
18
100
AcDbEntity
  8
L-1
  6
CONTINUOUS
 62
     7
100
AcDbLine
 10
128.0705048771169
 20
101.8132693805542
 30
0.0
 11
128.3205048771169
 21
101.8132693805542
 31
0.0
  0
LINE
  5
1449
330
18
100
AcDbEntity
  8
L-1
  6
CONTINUOUS
 62
     7
100
AcDbLine
 10
95.57050487711695
 20
98.31326938055433
 30
0.0
 11
102.0705048771169
 21
98.31326938055427
 31
0.0
  0
LINE
  5
144A
330
18
100
AcDbEntity
  8
L-1
  6
CONTINUOUS
 62
     7
 48
0.5
100
AcDbLine
 10
95.57050487711695
 20
101.3132693805543
 30
0.0
 11
95.57050487711695
 21
98.31326938055433
 31
0.0
  0
ARC
  5
144B
330
18
100
AcDbEntity
  8
L-1
  6
CONTINUOUS
 48
0.5
100
AcDbCircle
 10
95.07050487711694
 20
101.3132693805543
 30
0.0
 40
0.5
100
AcDbArc
 50
0.0
 51
90.0
  0
LINE
  5
144C
330
18
100
AcDbEntity
  8
L-1
  6
CONTINUOUS
 62
     7
100
AcDbLine
 10
94.82050487711694
 20
101.8132693805542
 30
0.0
 11
95.07050487711694
 21
101.8132693805542
 31
0.0
  0
LINE
  5
144D
330
18
100
AcDbEntity
  8
L-1
  6
CONTINUOUS
 62
     7
 48
0.5
100
AcDbLine
 10
102.0705048771169
 20
101.3132693805539
 30
0.0
 11
102.0705048771169
 21
98.31326938055427
 31
0.0
  0
LINE
  5
144E
330
18
100
AcDbEntity
  8
L-1
  6
CONTINUOUS
 62
     7
100
AcDbLine
 10
102.5705048771169
 20
101.8132693805542
 30
0.0
 11
102.8205048771169
 21
101.8132693805542
 31
0.0
  0
ARC
  5
144F
330
18
100
AcDbEntity
  8
L-1
  6
CONTINUOUS
 48
0.5
100
AcDbCircle
 10
102.5705048771169
 20
101.3132693805539
 30
0.0
 40
0.5
100
AcDbArc
 50
89.99999999999349
 51
180.0
  0
LINE
  5
1450
330
18
100
AcDbEntity
  8
L-1
  6
CONTINUOUS
 62
     7
100
AcDbLine
 10
77.07050487711694
 20
101.8132693805542
 30
0.0
 11
77.32050487711695
 21
101.8132693805542
 31
0.0
  0
LINE
  5
1451
330
18
100
AcDbEntity
  8
L-1
  6
CONTINUOUS
 62
     7
 48
0.5
100
AcDbLine
 10
76.57050487711694
 20
101.3132693805539
 30
0.0
 11
76.57050487711694
 21
98.31326938055427
 31
0.0
  0
LINE
  5
1452
330
18
100
AcDbEntity
  8
L-1
  6
CONTINUOUS
 62
     7
 48
0.5
100
AcDbLine
 10
70.07050487711694
 20
101.3132693805543
 30
0.0
 11
70.07050487711694
 21
98.31326938055433
 31
0.0
  0
LINE
  5
1453
330
18
100
AcDbEntity
  8
L-1
  6
CONTINUOUS
 62
     7
100
AcDbLine
 10
70.07050487711694
 20
98.31326938055433
 30
0.0
 11
76.57050487711694
 21
98.31326938055427
 31
0.0
  0
ARC
  5
1454
330
18
100
AcDbEntity
  8
L-1
  6
CONTINUOUS
 48
0.5
100
AcDbCircle
 10
77.07050487711694
 20
101.3132693805539
 30
0.0
 40
0.5
100
AcDbArc
 50
89.99999999999349
 51
180.0
  0
ARC
  5
1455
330
18
100
AcDbEntity
  8
L-1
  6
CONTINUOUS
 48
0.5
100
AcDbCircle
 10
69.57050487711694
 20
101.3132693805543
 30
0.0
 40
0.5
100
AcDbArc
 50
0.0
 51
90.0
  0
LINE
  5
1456
330
18
100
AcDbEntity
  8
L-1
  6
CONTINUOUS
 62
     7
100
AcDbLine
 10
69.32050487711695
 20
101.8132693805542
 30
0.0
 11
69.57050487711694
 21
101.8132693805542
 31
0.0
  0
LINE
  5
1457
330
18
100
AcDbEntity
  8
L-1
  6
CONTINUOUS
 62
     7
100
AcDbLine
 10
44.57050487711694
 20
98.31326938055433
 30
0.0
 11
51.07050487711695
 21
98.31326938055427
 31
0.0
  0
LINE
  5
1458
330
18
100
AcDbEntity
  8
L-1
  6
CONTINUOUS
 62
     7
 48
0.5
100
AcDbLine
 10
44.57050487711694
 20
101.3132693805543
 30
0.0
 11
44.57050487711694
 21
98.31326938055433
 31
0.0
  0
LINE
  5
1459
330
18
100
AcDbEntity
  8
L-1
  6
CONTINUOUS
 62
     7
100
AcDbLine
 10
43.82050487711694
 20
101.8132693805542
 30
0.0
 11
44.07050487711694
 21
101.8132693805542
 31
0.0
  0
ARC
  5
145A
330
18
100
AcDbEntity
  8
L-1
  6
CONTINUOUS
 48
0.5
100
AcDbCircle
 10
44.07050487711694
 20
101.3132693805543
 30
0.0
 40
0.5
100
AcDbArc
 50
0.0
 51
90.0
  0
LINE
  5
145B
330
18
100
AcDbEntity
  8
L-1
  6
CONTINUOUS
 62
     7
 48
0.5
100
AcDbLine
 10
51.07050487711695
 20
101.3132693805539
 30
0.0
 11
51.07050487711695
 21
98.31326938055427
 31
0.0
  0
ARC
  5
145C
330
18
100
AcDbEntity
  8
L-1
  6
CONTINUOUS
 48
0.5
100
AcDbCircle
 10
51.57050487711694
 20
101.3132693805539
 30
0.0
 40
0.5
100
AcDbArc
 50
89.99999999999349
 51
180.0
  0
LINE
  5
145D
330
18
100
AcDbEntity
  8
L-1
  6
CONTINUOUS
 62
     7
100
AcDbLine
 10
51.57050487711694
 20
101.8132693805542
 30
0.0
 11
51.82050487711695
 21
101.8132693805542
 31
0.0
  0
LINE
  5
145E
330
18
100
AcDbEntity
  8
L-1
  6
CONTINUOUS
 62
     7
100
AcDbLine
 10
197.5705048771169
 20
139.7010562448239
 30
0.0
 11
197.5705048771169
 21
140.7010562448239
 31
0.0
  0
LINE
  5
145F
330
18
100
AcDbEntity
  8
L-1
  6
CONTINUOUS
 62
     7
100
AcDbLine
 10
204.0705048771169
 20
139.701056244824
 30
0.0
 11
204.0705048771169
 21
140.7010562448239
 31
0.0
  0
LINE
  5
1460
330
18
100
AcDbEntity
  8
L-1
  6
CONTINUOUS
 62
     7
100
AcDbLine
 10
197.5705048771169
 20
263.601056244824
 30
0.0
 11
197.5705048771169
 21
264.601056244824
 31
0.0
  0
LINE
  5
1461
330
18
100
AcDbEntity
  8
L-1
  6
CONTINUOUS
 62
     7
100
AcDbLine
 10
204.0705048771169
 20
263.601056244824
 30
0.0
 11
204.0705048771169
 21
264.601056244824
 31
0.0
  0
LINE
  5
1462
330
18
100
AcDbEntity
  8
L-1
  6
CONTINUOUS
 62
     7
100
AcDbLine
 10
172.0705048771169
 20
139.7010562448239
 30
0.0
 11
172.0705048771169
 21
140.7010562448239
 31
0.0
  0
LINE
  5
1463
330
18
100
AcDbEntity
  8
L-1
  6
CONTINUOUS
 62
     7
100
AcDbLine
 10
178.5705048771169
 20
139.701056244824
 30
0.0
 11
178.5705048771169
 21
140.7010562448239
 31
0.0
  0
LINE
  5
1464
330
18
100
AcDbEntity
  8
L-1
  6
CONTINUOUS
 62
     7
100
AcDbLine
 10
146.5705048771169
 20
139.7010562448239
 30
0.0
 11
146.5705048771169
 21
140.7010562448239
 31
0.0
  0
LINE
  5
1465
330
18
100
AcDbEntity
  8
L-1
  6
CONTINUOUS
 62
     7
100
AcDbLine
 10
153.0705048771169
 20
139.701056244824
 30
0.0
 11
153.0705048771169
 21
140.7010562448239
 31
0.0
  0
LINE
  5
1466
330
18
100
AcDbEntity
  8
L-1
  6
CONTINUOUS
 62
     7
100
AcDbLine
 10
121.0705048771169
 20
139.7010562448239
 30
0.0
 11
121.0705048771169
 21
140.7010562448239
 31
0.0
  0
LINE
  5
1467
330
18
100
AcDbEntity
  8
L-1
  6
CONTINUOUS
 62
     7
100
AcDbLine
 10
127.5705048771169
 20
139.701056244824
 30
0.0
 11
127.5705048771169
 21
140.7010562448239
 31
0.0
  0
LINE
  5
1468
330
18
100
AcDbEntity
  8
L-1
  6
CONTINUOUS
 62
     7
100
AcDbLine
 10
95.57050487711697
 20
139.7010562448239
 30
0.0
 11
95.57050487711697
 21
140.7010562448239
 31
0.0
  0
LINE
  5
1469
330
18
100
AcDbEntity
  8
L-1
  6
CONTINUOUS
 62
     7
100
AcDbLine
 10
102.0705048771169
 20
139.701056244824
 30
0.0
 11
102.0705048771169
 21
140.7010562448239
 31
0.0
  0
LINE
  5
146A
330
18
100
AcDbEntity
  8
L-1
  6
CONTINUOUS
 62
     7
100
AcDbLine
 10
70.07050487711698
 20
139.7010562448239
 30
0.0
 11
70.07050487711698
 21
140.7010562448239
 31
0.0
  0
LINE
  5
146B
330
18
100
AcDbEntity
  8
L-1
  6
CONTINUOUS
 62
     7
100
AcDbLine
 10
76.57050487711694
 20
139.701056244824
 30
0.0
 11
76.57050487711694
 21
140.7010562448239
 31
0.0
  0
LINE
  5
146C
330
18
100
AcDbEntity
  8
L-1
  6
CONTINUOUS
 62
     7
100
AcDbLine
 10
44.57050487711697
 20
139.7010562448239
 30
0.0
 11
44.57050487711697
 21
140.7010562448239
 31
0.0
  0
LINE
  5
146D
330
18
100
AcDbEntity
  8
L-1
  6
CONTINUOUS
 62
     7
100
AcDbLine
 10
51.07050487711695
 20
139.701056244824
 30
0.0
 11
51.07050487711695
 21
140.7010562448239
 31
0.0
  0
LINE
  5
146E
330
18
100
AcDbEntity
  8
L-1
  6
CONTINUOUS
 62
     7
100
AcDbLine
 10
172.0705048771169
 20
263.6010562448238
 30
0.0
 11
172.0705048771169
 21
264.6010562448239
 31
0.0
  0
LINE
  5
146F
330
18
100
AcDbEntity
  8
L-1
  6
CONTINUOUS
 62
     7
100
AcDbLine
 10
178.5705048771169
 20
263.6010562448238
 30
0.0
 11
178.5705048771169
 21
264.6010562448239
 31
0.0
  0
LINE
  5
1470
330
18
100
AcDbEntity
  8
L-1
  6
CONTINUOUS
 62
     7
100
AcDbLine
 10
146.5705048771169
 20
263.6010562448239
 30
0.0
 11
146.5705048771169
 21
264.6010562448239
 31
0.0
  0
LINE
  5
1471
330
18
100
AcDbEntity
  8
L-1
  6
CONTINUOUS
 62
     7
100
AcDbLine
 10
153.0705048771169
 20
263.6010562448239
 30
0.0
 11
153.0705048771169
 21
264.6010562448239
 31
0.0
  0
LINE
  5
1472
330
18
100
AcDbEntity
  8
L-1
  6
CONTINUOUS
 62
     7
100
AcDbLine
 10
121.0705048771169
 20
263.6010562448238
 30
0.0
 11
121.0705048771169
 21
264.6010562448239
 31
0.0
  0
LINE
  5
1473
330
18
100
AcDbEntity
  8
L-1
  6
CONTINUOUS
 62
     7
100
AcDbLine
 10
127.5705048771169
 20
263.6010562448238
 30
0.0
 11
127.5705048771169
 21
264.6010562448239
 31
0.0
  0
LINE
  5
1474
330
18
100
AcDbEntity
  8
L-1
  6
CONTINUOUS
 62
     7
100
AcDbLine
 10
95.57050487711697
 20
263.6010562448238
 30
0.0
 11
95.57050487711695
 21
264.6010562448239
 31
0.0
  0
LINE
  5
1475
330
18
100
AcDbEntity
  8
L-1
  6
CONTINUOUS
 62
     7
100
AcDbLine
 10
102.0705048771169
 20
263.6010562448238
 30
0.0
 11
102.0705048771169
 21
264.6010562448239
 31
0.0
  0
LINE
  5
1476
330
18
100
AcDbEntity
  8
L-1
  6
CONTINUOUS
 62
     7
100
AcDbLine
 10
70.07050487711698
 20
263.6010562448238
 30
0.0
 11
70.07050487711694
 21
264.6010562448239
 31
0.0
  0
LINE
  5
1477
330
18
100
AcDbEntity
  8
L-1
  6
CONTINUOUS
 62
     7
100
AcDbLine
 10
76.57050487711694
 20
263.6010562448238
 30
0.0
 11
76.57050487711694
 21
264.6010562448239
 31
0.0
  0
LINE
  5
1478
330
18
100
AcDbEntity
  8
L-1
  6
CONTINUOUS
 62
     7
100
AcDbLine
 10
44.57050487711697
 20
263.6010562448238
 30
0.0
 11
44.57050487711694
 21
264.6010562448239
 31
0.0
  0
LINE
  5
1479
330
18
100
AcDbEntity
  8
L-1
  6
CONTINUOUS
 62
     7
100
AcDbLine
 10
51.07050487711695
 20
263.6010562448238
 30
0.0
 11
51.07050487711695
 21
264.6010562448239
 31
0.0
  0
LINE
  5
14BC
330
18
100
AcDbEntity
  8
L-1
  6
CENTER2
 62
     1
 48
0.1
100
AcDbLine
 10
210.4205048771169
 20
184.6510562448239
 30
0.0
 11
205.220504877117
 21
184.6510562448239
 31
0.0
  0
LINE
  5
14BD
330
18
100
AcDbEntity
  8
L-1
  6
CENTER2
 62
     1
 48
0.1
100
AcDbLine
 10
207.8205048771169
 20
182.0510562448239
 30
0.0
 11
207.8205048771169
 21
187.2510562448239
 31
0.0
  0
LINE
  5
14BE
330
18
100
AcDbEntity
  8
L-1
  6
CENTER2
 62
     1
 48
0.1
100
AcDbLine
 10
43.42050487711694
 20
219.6510562448239
 30
0.0
 11
38.22050487711695
 21
219.6510562448239
 31
0.0
  0
LINE
  5
14BF
330
18
100
AcDbEntity
  8
L-1
  6
CENTER2
 62
     1
 48
0.1
100
AcDbLine
 10
40.82050487711694
 20
217.0510562448239
 30
0.0
 11
40.82050487711694
 21
222.2510562448239
 31
0.0
  0
LINE
  5
14C0
330
18
100
AcDbEntity
  8
L-1
  6
CENTER2
 62
     1
 48
0.1
100
AcDbLine
 10
43.42050487711694
 20
184.6510562448239
 30
0.0
 11
38.22050487711695
 21
184.6510562448239
 31
0.0
  0
LINE
  5
14C1
330
18
100
AcDbEntity
  8
L-1
  6
CENTER2
 62
     1
 48
0.1
100
AcDbLine
 10
40.82050487711694
 20
182.0510562448239
 30
0.0
 11
40.82050487711694
 21
187.2510562448239
 31
0.0
  0
LINE
  5
14C2
330
18
100
AcDbEntity
  8
L-1
  6
CENTER2
 62
     1
 48
0.1
100
AcDbLine
 10
50.42050487711694
 20
65.89116389858213
 30
0.0
 11
45.22050487711695
 21
65.89116389858213
 31
0.0
  0
LINE
  5
14C3
330
18
100
AcDbEntity
  8
L-1
  6
CENTER2
 62
     1
 48
0.1
100
AcDbLine
 10
47.82050487711694
 20
63.29116389858214
 30
0.0
 11
47.82050487711694
 21
68.49116389858213
 31
0.0
  0
LINE
  5
14C4
330
18
100
AcDbEntity
  8
L-1
  6
CENTER2
 62
     1
 48
0.1
100
AcDbLine
 10
203.4205048771169
 20
65.89116389858213
 30
0.0
 11
198.2205048771169
 21
65.89116389858213
 31
0.0
  0
LINE
  5
14C5
330
18
100
AcDbEntity
  8
L-1
  6
CENTER2
 62
     1
 48
0.1
100
AcDbLine
 10
200.8205048771169
 20
63.29116389858214
 30
0.0
 11
200.8205048771169
 21
68.49116389858213
 31
0.0
  0
ENDSEC
  0
SECTION
  2
OBJECTS
  0
DICTIONARY
  5
C
330
0
100
AcDbDictionary
  3
ACAD_GROUP
350
D
  3
ACAD_LAYOUT
350
10F3
  3
ACAD_MLINESTYLE
350
E
  3
ACAD_PLOTSETTINGS
350
10F4
  3
ACADDIM
350
12C1
1001
ACAD
1000
TREAT_AS_HARD
1070
     0
  0
DICTIONARY
  5
138F
330
18
100
AcDbDictionary
  3
ACAD_LAYOUTSELFREF
350
14D2
1001
ACAD
1000
TREAT_AS_HARD
1070
     1
  0
DICTIONARY
  5
138D
330
15
100
AcDbDictionary
  3
ACAD_LAYOUTSELFREF
350
14D1
1001
ACAD
1000
TREAT_AS_HARD
1070
     1
  0
DICTIONARY
  5
D
102
{ACAD_REACTORS
330
C
102
}
330
C
100
AcDbDictionary
1001
ACAD
1000
TREAT_AS_HARD
1070
     0
  0
DICTIONARY
  5
10F3
102
{ACAD_REACTORS
330
C
102
}
330
C
100
AcDbDictionary
1001
ACAD
1000
TREAT_AS_HARD
1070
     0
  0
DICTIONARY
  5
E
102
{ACAD_REACTORS
330
C
102
}
330
C
100
AcDbDictionary
  3
STANDARD
350
1B
1001
ACAD
1000
TREAT_AS_HARD
1070
     0
  0
DICTIONARY
  5
10F4
102
{ACAD_REACTORS
330
C
102
}
330
C
100
AcDbDictionary
  3
A2
350
139D
  3
A3
350
139E
  3
A4
350
139F
  3
PDFA2TOA4
350
1482
  3
PDFA2TOA4_1OF2
350
1483
  3
PDFA3TOA4
350
1484
  3
PDFA3TOA4_1OF2
350
1485
1001
ACAD
1000
TREAT_AS_HARD
1070
     0
  0
XRECORD
  5
12C1
102
{ACAD_REACTORS
330
C
102
}
330
C
100
AcDbXrecord
 90
   990106
  3

 60
     0
 61
     0
 62
     1
 63
     3
 64
     0
 65
     0
 66
     0
 67
     3
 68
     1
 69
     0
 70
     0
 71
     0
 72
     0
 40
0.0
170
     0
340
12F4
  0
XRECORD
  5
14D2
102
{ACAD_REACTORS
330
138F
102
}
330
138F
100
AcDbXrecord
340
18
  0
XRECORD
  5
14D1
102
{ACAD_REACTORS
330
138D
102
}
330
138D
100
AcDbXrecord
340
15
  0
MLINESTYLE
  5
1B
102
{ACAD_REACTORS
330
E
102
}
330
E
100
AcDbMlineStyle
  2
STANDARD
 70
     0
  3

 62
     0
 51
90.0
 52
90.0
 71
     2
 49
0.5
 62
   256
  6
BYLAYER
 49
-0.5
 62
   256
  6
BYLAYER
  0
PLOTSETTINGS
  5
139D
102
{ACAD_REACTORS
330
10F4
102
}
330
10F4
100
AcDbPlotSettings
  1
A2
  2
Graphtec JC8100-A2.pc3
  4
User260
  6

 40
21.6781940460205
 41
6.649852275848388
 42
6.57928466796875
 43
6.649871826171875
 44
593.9366455078125
 45
419.9466552734374
 46
0.0
 47
-3.0
 48
0.0
 49
0.0
140
0.0
141
0.0
142
1.0
143
1.0
 70
  1712
 72
     1
 73
     0
 74
     0
  7
JC8100.ctb
 75
    16
147
1.0
148
0.0
149
0.0
  0
PLOTSETTINGS
  5
139E
102
{ACAD_REACTORS
330
10F4
102
}
330
10F4
100
AcDbPlotSettings
  1
A3
  2
Graphtec JC8100-A3.pc3
  4
User261
  6

 40
21.6781940460205
 41
6.649852275848388
 42
6.649871826171875
 43
6.649871826171875
 44
419.9466552734374
 45
296.9683227539062
 46
0.0
 47
0.0
 48
0.0
 49
0.0
140
0.0
141
0.0
142
1.0
143
1.0
 70
  1712
 72
     1
 73
     0
 74
     0
  7
JC8100.ctb
 75
    16
147
1.0
148
0.0
149
0.0
  0
PLOTSETTINGS
  5
139F
102
{ACAD_REACTORS
330
10F4
102
}
330
10F4
100
AcDbPlotSettings
  1
A4
  2
Graphtec JC8100-A4.pc3
  4
User262
  6

 40
21.6781940460205
 41
6.649852275848388
 42
6.649856567382812
 43
6.649871826171875
 44
209.9733276367187
 45
296.9683227539062
 46
0.0
 47
0.0
 48
0.0
 49
0.0
140
0.0
141
0.0
142
1.0
143
1.0
 70
  1712
 72
     1
 73
     1
 74
     0
  7
JC8100.ctb
 75
    16
147
1.0
148
0.0
149
0.0
  0
PLOTSETTINGS
  5
1482
102
{ACAD_REACTORS
330
10F4
102
}
330
10F4
100
AcDbPlotSettings
  1
PDFA2toA4
  2
Acrobat Distiller.pc3
  4
A4
  6

 40
3.174999952316284
 41
3.174999952316284
 42
3.17498779296875
 43
3.175003051757812
 44
297.0530090332031
 45
209.8886566162109
 46
10.0
 47
-3.0
 48
0.0
 49
0.0
140
0.0
141
0.0
142
0.5
143
1.0
 70
  1696
 72
     1
 73
     0
 74
     0
  7
JC8100.ctb
 75
     0
147
0.5
148
0.0
149
0.0
  0
PLOTSETTINGS
  5
1483
102
{ACAD_REACTORS
330
10F4
102
}
330
10F4
100
AcDbPlotSettings
  1
PDFA2toA4_1of2
  2
Acrobat Distiller.pc3
  4
A4
  6

 40
3.174999952316284
 41
3.174999952316284
 42
3.17498779296875
 43
3.175003051757812
 44
297.0530090332031
 45
209.8886566162109
 46
10.0
 47
-3.0
 48
0.0
 49
0.0
140
0.0
141
0.0
142
0.25
143
1.0
 70
  1696
 72
     1
 73
     0
 74
     0
  7
JC8100.ctb
 75
     0
147
0.25
148
0.0
149
0.0
  0
PLOTSETTINGS
  5
1484
102
{ACAD_REACTORS
330
10F4
102
}
330
10F4
100
AcDbPlotSettings
  1
PDFA3toA4
  2
Acrobat Distiller.pc3
  4
A4
  6

 40
3.174999952316284
 41
3.174999952316284
 42
3.17498779296875
 43
3.175003051757812
 44
297.0530090332031
 45
209.8886566162109
 46
12.0
 47
0.0
 48
0.0
 49
0.0
140
0.0
141
0.0
142
0.7
143
1.0
 70
  1696
 72
     1
 73
     0
 74
     0
  7
JC8100.ctb
 75
     0
147
0.7
148
0.0
149
0.0
  0
PLOTSETTINGS
  5
1485
102
{ACAD_REACTORS
330
10F4
102
}
330
10F4
100
AcDbPlotSettings
  1
PDFA3toA4_1of2
  2
Acrobat Distiller.pc3
  4
A4
  6

 40
3.174999952316284
 41
3.174999952316284
 42
3.17498779296875
 43
3.175003051757812
 44
297.0530090332031
 45
209.8886566162109
 46
12.0
 47
0.0
 48
0.0
 49
0.0
140
0.0
141
0.0
142
0.35
143
1.0
 70
  1696
 72
     1
 73
     0
 74
     0
  7
JC8100.ctb
 75
     0
147
0.35
148
0.0
149
0.0
  0
ENDSEC
  0
EOF
