  0
SECTION
  2
HEADER
  9
$ACADVER
  1
AC1012
  9
$DWGCODEPAGE
  3
dos932
  9
$INSBASE
 10
0.0
 20
0.0
 30
0.0
  9
$EXTMIN
 10
5.99629904436847
 20
5.992498815051931
 30
-0.0000000000000153
  9
$EXTMAX
 10
386.0072758664507
 20
275.0044701271946
 30
0.0
  9
$LIMMIN
 10
0.0
 20
0.0
  9
$LIMMAX
 10
385.0
 20
275.0
  9
$ORTHOMODE
 70
     1
  9
$REGENMODE
 70
     1
  9
$FILLMODE
 70
     1
  9
$QTEXTMODE
 70
     0
  9
$MIRRTEXT
 70
     1
  9
$DRAGMODE
 70
     2
  9
$LTSCALE
 40
1.0
  9
$OSMODE
 70
  3071
  9
$ATTMODE
 70
     1
  9
$TEXTSIZE
 40
4.0
  9
$TRACEWID
 40
1.0
  9
$TEXTSTYLE
  7
MSゴシック
  9
$CLAYER
  8
L-1
  9
$CELTYPE
  6
CONTINUOUS
  9
$CECOLOR
 62
     7
  9
$CELTSCALE
 40
1.0
  9
$DELOBJ
 70
     1
  9
$DISPSILH
 70
     0
  9
$DIMSCALE
 40
1.0
  9
$DIMASZ
 40
2.5
  9
$DIMEXO
 40
0.5
  9
$DIMDLI
 40
8.0
  9
$DIMRND
 40
0.0
  9
$DIMDLE
 40
0.0
  9
$DIMEXE
 40
1.0
  9
$DIMTP
 40
0.0
  9
$DIMTM
 40
0.0
  9
$DIMTXT
 40
3.2
  9
$DIMCEN
 40
-0.5
  9
$DIMTSZ
 40
0.0
  9
$DIMTOL
 70
     0
  9
$DIMLIM
 70
     0
  9
$DIMTIH
 70
     0
  9
$DIMTOH
 70
     0
  9
$DIMSE1
 70
     0
  9
$DIMSE2
 70
     0
  9
$DIMTAD
 70
     1
  9
$DIMZIN
 70
     8
  9
$DIMBLK
  1

  9
$DIMASO
 70
     1
  9
$DIMSHO
 70
     1
  9
$DIMPOST
  1

  9
$DIMAPOST
  1

  9
$DIMALT
 70
     0
  9
$DIMALTD
 70
     2
  9
$DIMALTF
 40
0.0394
  9
$DIMLFAC
 40
1.0
  9
$DIMTOFL
 70
     0
  9
$DIMTVP
 40
0.0
  9
$DIMTIX
 70
     0
  9
$DIMSOXD
 70
     0
  9
$DIMSAH
 70
     1
  9
$DIMBLK1
  1
OPEN
  9
$DIMBLK2
  1
OPEN
  9
$DIMSTYLE
  2
CAD-STD1
  9
$DIMCLRD
 70
     4
  9
$DIMCLRE
 70
     4
  9
$DIMCLRT
 70
     2
  9
$DIMTFAC
 40
0.625
  9
$DIMGAP
 40
0.5
  9
$DIMJUST
 70
     0
  9
$DIMSD1
 70
     0
  9
$DIMSD2
 70
     0
  9
$DIMTOLJ
 70
     1
  9
$DIMTZIN
 70
     8
  9
$DIMALTZ
 70
     0
  9
$DIMALTTZ
 70
     0
  9
$DIMFIT
 70
     3
  9
$DIMUPT
 70
     0
  9
$DIMUNIT
 70
     2
  9
$DIMDEC
 70
     4
  9
$DIMTDEC
 70
     4
  9
$DIMALTU
 70
     2
  9
$DIMALTTD
 70
     2
  9
$DIMTXSTY
  7
MSゴシック
  9
$DIMAUNIT
 70
     0
  9
$LUNITS
 70
     2
  9
$LUPREC
 70
     4
  9
$SKETCHINC
 40
1.0
  9
$FILLETRAD
 40
0.0
  9
$AUNITS
 70
     0
  9
$AUPREC
 70
     0
  9
$MENU
  1
acad
  9
$ELEVATION
 40
0.0
  9
$PELEVATION
 40
0.0
  9
$THICKNESS
 40
0.0
  9
$LIMCHECK
 70
     0
  9
$BLIPMODE
 70
     0
  9
$CHAMFERA
 40
10.0
  9
$CHAMFERB
 40
10.0
  9
$CHAMFERC
 40
0.0
  9
$CHAMFERD
 40
0.0
  9
$SKPOLY
 70
     0
  9
$TDCREATE
 40
2452096.762121064
  9
$TDUPDATE
 40
2455658.435532766
  9
$TDINDWG
 40
0.4564077662
  9
$TDUSRTIMER
 40
0.4564077662
  9
$USRTIMER
 70
     1
  9
$ANGBASE
 50
0.0
  9
$ANGDIR
 70
     0
  9
$PDMODE
 70
     0
  9
$PDSIZE
 40
0.0
  9
$PLINEWID
 40
0.0
  9
$COORDS
 70
     0
  9
$SPLFRAME
 70
     0
  9
$SPLINETYPE
 70
     6
  9
$SPLINESEGS
 70
     8
  9
$ATTDIA
 70
     0
  9
$ATTREQ
 70
     1
  9
$HANDLING
 70
     1
  9
$HANDSEED
  5
F73
  9
$SURFTAB1
 70
     6
  9
$SURFTAB2
 70
     6
  9
$SURFTYPE
 70
     6
  9
$SURFU
 70
     6
  9
$SURFV
 70
     6
  9
$UCSNAME
  2

  9
$UCSORG
 10
0.0
 20
0.0
 30
0.0
  9
$UCSXDIR
 10
1.0
 20
0.0
 30
0.0
  9
$UCSYDIR
 10
0.0
 20
1.0
 30
0.0
  9
$PUCSNAME
  2

  9
$PUCSORG
 10
0.0
 20
0.0
 30
0.0
  9
$PUCSXDIR
 10
1.0
 20
0.0
 30
0.0
  9
$PUCSYDIR
 10
0.0
 20
1.0
 30
0.0
  9
$USERI1
 70
     0
  9
$USERI2
 70
     0
  9
$USERI3
 70
     0
  9
$USERI4
 70
     0
  9
$USERI5
 70
     0
  9
$USERR1
 40
0.0
  9
$USERR2
 40
0.0
  9
$USERR3
 40
0.0
  9
$USERR4
 40
0.0
  9
$USERR5
 40
0.0
  9
$WORLDVIEW
 70
     1
  9
$SHADEDGE
 70
     3
  9
$SHADEDIF
 70
    70
  9
$TILEMODE
 70
     1
  9
$MAXACTVP
 70
    16
  9
$PINSBASE
 10
0.0
 20
0.0
 30
0.0
  9
$PLIMCHECK
 70
     0
  9
$PEXTMIN
 10
1.000000000000000E+20
 20
1.000000000000000E+20
 30
1.000000000000000E+20
  9
$PEXTMAX
 10
-1.000000000000000E+20
 20
-1.000000000000000E+20
 30
-1.000000000000000E+20
  9
$PLIMMIN
 10
0.0
 20
0.0
  9
$PLIMMAX
 10
420.0
 20
297.0
  9
$UNITMODE
 70
     0
  9
$VISRETAIN
 70
     0
  9
$PLINEGEN
 70
     0
  9
$PSLTSCALE
 70
     1
  9
$TREEDEPTH
 70
  3020
  9
$PICKSTYLE
 70
     1
  9
$CMLSTYLE
  2
STANDARD
  9
$CMLJUST
 70
     0
  9
$CMLSCALE
 40
1.0
  9
$SAVEIMAGES
 70
     1
  0
ENDSEC
  0
SECTION
  2
CLASSES
  0
CLASS
  1
ACDBDICTIONARYWDFLT
  2
AcDbDictionaryWithDefault
  3
AutoCAD 2000
 90
    32768
280
     0
281
     0
  0
CLASS
  1
ACDBPLACEHOLDER
  2
AcDbPlaceHolder
  3
AutoCAD 2000
 90
    32768
280
     0
281
     0
  0
CLASS
  1
LAYOUT
  2
AcDbLayout
  3
AutoCAD 2000
 90
    32768
280
     0
281
     0
  0
CLASS
  1
PLOTSETTINGS
  2
AcDbPlotSettings
  3
AutoCAD 2000
 90
    32768
280
     0
281
     0
  0
CLASS
  1
DICTIONARYVAR
  2
AcDbDictionaryVar
  3
AutoCAD 2000
 90
    32768
280
     0
281
     0
  0
CLASS
  1
LONG_TRANSACTION
  2
AcDbLongTransaction
  3
AutoCAD 2000
 90
    32768
280
     0
281
     0
  0
CLASS
  1
LWPOLYLINE
  2
AcDbPolyline
  3
AutoCAD 2000
 90
    32768
280
     0
281
     1
  0
CLASS
  1
HATCH
  2
AcDbHatch
  3
AutoCAD 2000
 90
    32768
280
     0
281
     1
  0
CLASS
  1
XRECORD
  2
AcDbXrecord
  3
AutoCAD 2000
 90
    32768
280
     0
281
     0
  0
ENDSEC
  0
SECTION
  2
TABLES
  0
TABLE
  2
VPORT
  5
8
330
0
100
AcDbSymbolTable
 70
     2
  0
VPORT
  5
F6E
330
8
100
AcDbSymbolTableRecord
100
AcDbViewportTableRecord
  2
*ACTIVE
 70
     0
 10
0.0
 20
0.0
 11
1.0
 21
1.0
 12
196.0017874554096
 22
140.4984844711232
 13
0.0
 23
0.0
 14
10.0
 24
10.0
 15
10.0
 25
10.0
 16
0.0
 26
0.0
 36
1.0
 17
0.0
 27
0.0
 37
0.0
 40
271.6153129700021
 41
2.182552504038772
 42
50.0
 43
0.0
 44
0.0
 50
0.0
 51
0.0
 71
     0
 72
   100
 73
     1
 74
     0
 75
     0
 76
     0
 77
     0
 78
     0
  0
ENDTAB
  0
TABLE
  2
LTYPE
  5
5
330
0
100
AcDbSymbolTable
 70
     4
  0
LTYPE
  5
12
330
5
100
AcDbSymbolTableRecord
100
AcDbLinetypeTableRecord
  2
BYBLOCK
 70
     0
  3

 72
    65
 73
     0
 40
0.0
  0
LTYPE
  5
13
330
5
100
AcDbSymbolTableRecord
100
AcDbLinetypeTableRecord
  2
BYLAYER
 70
     0
  3

 72
    65
 73
     0
 40
0.0
  0
LTYPE
  5
14
330
5
100
AcDbSymbolTableRecord
100
AcDbLinetypeTableRecord
  2
CONTINUOUS
 70
     0
  3
Solid line
 72
    65
 73
     0
 40
0.0
  0
LTYPE
  5
1F
330
5
100
AcDbSymbolTableRecord
100
AcDbLinetypeTableRecord
  2
CENTER2
 70
     0
  3
___ _ ___ _ ___ _ ___ _ ___ _ ___ _ ___ _ ___ _
 72
    65
 73
     4
 40
28.57499999999999
 49
19.05
 74
     0
 49
-3.174999999999999
 74
     0
 49
3.174999999999999
 74
     0
 49
-3.174999999999999
 74
     0
  0
LTYPE
  5
20
330
5
100
AcDbSymbolTableRecord
100
AcDbLinetypeTableRecord
  2
DASHED2
 70
     0
  3
_ _ _ _ _ _ _ _ _ _ _ _ _ _ _ _ _ _ _ _ _ _ _ _
 72
    65
 73
     2
 40
9.524999999999998
 49
6.349999999999999
 74
     0
 49
-3.174999999999999
 74
     0
  0
LTYPE
  5
95B
330
5
100
AcDbSymbolTableRecord
100
AcDbLinetypeTableRecord
  2
PHANTOM
 70
     0
  3
Phantom ______  __  __  ______  __  __  ______
 72
    65
 73
     6
 40
63.5
 49
31.75
 74
     0
 49
-6.349999999999999
 74
     0
 49
6.349999999999999
 74
     0
 49
-6.349999999999999
 74
     0
 49
6.349999999999999
 74
     0
 49
-6.349999999999999
 74
     0
  0
ENDTAB
  0
TABLE
  2
LAYER
  5
2
330
0
100
AcDbSymbolTable
 70
     6
  0
LAYER
  5
F
330
2
100
AcDbSymbolTableRecord
100
AcDbLayerTableRecord
  2
0
 70
     0
 62
     7
  6
CONTINUOUS
  0
LAYER
  5
24
330
2
100
AcDbSymbolTableRecord
100
AcDbLayerTableRecord
  2
L-1
 70
     0
 62
     7
  6
CONTINUOUS
  0
LAYER
  5
25
330
2
100
AcDbSymbolTableRecord
100
AcDbLayerTableRecord
  2
L-2
 70
     0
 62
     7
  6
CONTINUOUS
  0
LAYER
  5
26
330
2
100
AcDbSymbolTableRecord
100
AcDbLayerTableRecord
  2
L-3
 70
     0
 62
     7
  6
CONTINUOUS
  0
LAYER
  5
27
330
2
100
AcDbSymbolTableRecord
100
AcDbLayerTableRecord
  2
L-4
 70
     0
 62
     7
  6
CONTINUOUS
  0
LAYER
  5
28
330
2
100
AcDbSymbolTableRecord
100
AcDbLayerTableRecord
  2
DEFPOINTS
 70
     0
 62
     7
  6
CONTINUOUS
  0
ENDTAB
  0
TABLE
  2
STYLE
  5
3
330
0
100
AcDbSymbolTable
 70
     6
  0
STYLE
  5
10
330
3
100
AcDbSymbolTableRecord
100
AcDbTextStyleTableRecord
  2
STANDARD
 70
     0
 40
0.0
 41
1.0
 50
0.0
 71
     0
 42
3.5
  3
txt
  4

  0
STYLE
  5
1D
330
3
100
AcDbSymbolTableRecord
100
AcDbTextStyleTableRecord
  2
BGS
 70
     0
 40
0.0
 41
1.0
 50
0.0
 71
     0
 42
0.2
  3
SIMPLEX.SHX
  4
BGSGS.SHX
  0
STYLE
  5
1E
330
3
100
AcDbSymbolTableRecord
100
AcDbTextStyleTableRecord
  2
TATEGAKI
 70
     4
 40
0.0
 41
1.0
 50
0.0
 71
     0
 42
3.5
  3
SIMPLEX.SHX
  4
BGSGS.SHX
  0
STYLE
  5
55
330
3
100
AcDbSymbolTableRecord
100
AcDbTextStyleTableRecord
  2
SIMPLEX
 70
     0
 40
0.0
 41
1.0
 50
0.0
 71
     0
 42
0.2
  3
simplex
  4
bigfont
  0
STYLE
  5
95A
330
3
100
AcDbSymbolTableRecord
100
AcDbTextStyleTableRecord
  2

 70
     1
 40
0.0
 41
1.0
 50
0.0
 71
     0
 42
3.5
  3
ltypeshp.shx
  4

  0
STYLE
  5
E4B
330
3
100
AcDbSymbolTableRecord
100
AcDbTextStyleTableRecord
  2
MSゴシック
 70
     0
 40
0.0
 41
1.0
 50
0.0
 71
     0
 42
4.0
  3
MS Gothic.ttf
  4

1001
ACAD
1000
MS Gothic
1071
    32817
  0
ENDTAB
  0
TABLE
  2
VIEW
  5
6
330
0
100
AcDbSymbolTable
 70
     0
  0
ENDTAB
  0
TABLE
  2
UCS
  5
7
330
0
100
AcDbSymbolTable
 70
     0
  0
ENDTAB
  0
TABLE
  2
APPID
  5
9
330
0
100
AcDbSymbolTable
 70
     5
  0
APPID
  5
11
330
9
100
AcDbSymbolTableRecord
100
AcDbRegAppTableRecord
  2
ACAD
 70
     0
  0
APPID
  5
C8A
330
9
100
AcDbSymbolTableRecord
100
AcDbRegAppTableRecord
  2
CONTENTBLOCKDESCRIPTION
 70
     0
  0
APPID
  5
C8B
330
9
100
AcDbSymbolTableRecord
100
AcDbRegAppTableRecord
  2
CONTENTBLOCKICON
 70
     0
  0
APPID
  5
C8E
330
9
100
AcDbSymbolTableRecord
100
AcDbRegAppTableRecord
  2
CONTENTTABDATA
 70
     0
  0
APPID
  5
C8F
330
9
100
AcDbSymbolTableRecord
100
AcDbRegAppTableRecord
  2
CONTENTCURRENTTAB
 70
     0
  0
ENDTAB
  0
TABLE
  2
DIMSTYLE
  5
A
330
0
100
AcDbSymbolTable
 70
     2
  0
DIMSTYLE
105
23
330
A
100
AcDbSymbolTableRecord
100
AcDbDimStyleTableRecord
  2
CAD-STD
 70
     0
  3

  4

  5

  6
OPEN
  7
OPEN
 40
1.0
 41
2.5
 42
0.2
 43
8.0
 44
1.0
 45
0.0
 46
0.0
 47
0.0
 48
0.0
140
3.2
141
-0.5
142
0.0
143
0.0394
144
1.0
145
0.0
146
0.625
147
0.2
 71
     0
 72
     0
 73
     0
 74
     0
 75
     0
 76
     0
 77
     1
 78
     8
170
     0
171
     2
172
     1
173
     1
174
     0
175
     0
176
     4
177
     4
178
     2
270
     2
271
     4
272
     4
273
     2
274
     2
340
E4B
275
     0
280
     0
281
     0
282
     0
283
     1
284
     8
285
     0
286
     0
287
     3
288
     0
  0
DIMSTYLE
105
D33
102
{ACAD_REACTORS
330
702
330
689
330
669
330
7D3
330
E8E
330
B89
330
660
102
}
330
A
100
AcDbSymbolTableRecord
100
AcDbDimStyleTableRecord
  2
CAD-STD1
 70
     0
  3

  4

  5

  6
OPEN
  7
OPEN
 40
1.0
 41
2.5
 42
0.5
 43
8.0
 44
1.0
 45
0.0
 46
0.0
 47
0.0
 48
0.0
140
3.2
141
-0.5
142
0.0
143
0.0394
144
1.0
145
0.0
146
0.625
147
0.5
 71
     0
 72
     0
 73
     0
 74
     0
 75
     0
 76
     0
 77
     1
 78
     8
170
     0
171
     2
172
     0
173
     1
174
     0
175
     0
176
     4
177
     4
178
     2
270
     2
271
     4
272
     4
273
     2
274
     2
340
E4B
275
     0
280
     0
281
     0
282
     0
283
     1
284
     8
285
     0
286
     0
287
     3
288
     0
  0
ENDTAB
  0
TABLE
  2
BLOCK_RECORD
  5
1
330
0
100
AcDbSymbolTable
 70
    11
  0
BLOCK_RECORD
  5
18
102
{ACAD_XDICTIONARY
360
F71
102
}
330
1
100
AcDbSymbolTableRecord
100
AcDbBlockTableRecord
  2
*MODEL_SPACE
  0
BLOCK_RECORD
  5
15
102
{ACAD_XDICTIONARY
360
F6F
102
}
330
1
100
AcDbSymbolTableRecord
100
AcDbBlockTableRecord
  2
*PAPER_SPACE
  0
BLOCK_RECORD
  5
1C
330
1
100
AcDbSymbolTableRecord
100
AcDbBlockTableRecord
  2
ADARROW
  0
BLOCK_RECORD
  5
35
330
1
100
AcDbSymbolTableRecord
100
AcDbBlockTableRecord
  2
_OPEN
  0
BLOCK_RECORD
  5
4D
330
1
100
AcDbSymbolTableRecord
100
AcDbBlockTableRecord
  2
TK
  0
BLOCK_RECORD
  5
56
330
1
100
AcDbSymbolTableRecord
100
AcDbBlockTableRecord
  2
A3-WAKU
  0
BLOCK_RECORD
  5
7FB
330
1
100
AcDbSymbolTableRecord
100
AcDbBlockTableRecord
  2
*D4
  0
BLOCK_RECORD
  5
807
330
1
100
AcDbSymbolTableRecord
100
AcDbBlockTableRecord
  2
*D5
  0
BLOCK_RECORD
  5
82B
330
1
100
AcDbSymbolTableRecord
100
AcDbBlockTableRecord
  2
*D6
  0
BLOCK_RECORD
  5
837
330
1
100
AcDbSymbolTableRecord
100
AcDbBlockTableRecord
  2
*D7
  0
BLOCK_RECORD
  5
843
330
1
100
AcDbSymbolTableRecord
100
AcDbBlockTableRecord
  2
*D8
  0
BLOCK_RECORD
  5
B7D
330
1
100
AcDbSymbolTableRecord
100
AcDbBlockTableRecord
  2
*D9
  0
BLOCK_RECORD
  5
DC8
330
1
100
AcDbSymbolTableRecord
100
AcDbBlockTableRecord
  2
WAKU-A3
  0
ENDTAB
  0
ENDSEC
  0
SECTION
  2
BLOCKS
  0
BLOCK
  5
2B
330
18
100
AcDbEntity
  8
0
100
AcDbBlockBegin
  2
*MODEL_SPACE
 70
     0
 10
0.0
 20
0.0
 30
0.0
  3
*MODEL_SPACE
  1

  0
ENDBLK
  5
2C
330
18
100
AcDbEntity
  8
0
100
AcDbBlockEnd
  0
BLOCK
  5
29
330
15
100
AcDbEntity
 67
     1
  8
0
100
AcDbBlockBegin
  2
*PAPER_SPACE
 70
     0
 10
0.0
 20
0.0
 30
0.0
  3
*PAPER_SPACE
  1

  0
ENDBLK
  5
2A
330
15
100
AcDbEntity
 67
     1
  8
0
100
AcDbBlockEnd
  0
BLOCK
  5
2D
330
1C
100
AcDbEntity
  8
0
100
AcDbBlockBegin
  2
ADARROW
 70
     0
 10
0.0
 20
0.0
 30
0.0
  3
ADARROW
  1

  0
LINE
  5
2E
330
1C
100
AcDbEntity
  8
0
  6
BYBLOCK
 62
     0
100
AcDbLine
 10
0.0
 20
0.0
 30
0.0
 11
-0.9659258262890659
 21
-0.2588190451025127
 31
0.0
  0
LINE
  5
2F
330
1C
100
AcDbEntity
  8
0
  6
BYBLOCK
 62
     0
100
AcDbLine
 10
-1.0
 20
0.0
 30
0.0
 11
0.0
 21
0.0
 31
0.0
  0
LINE
  5
30
330
1C
100
AcDbEntity
  8
0
  6
BYBLOCK
 62
     0
100
AcDbLine
 10
0.0
 20
0.0
 30
0.0
 11
-0.9659258262890659
 21
0.2588190451025127
 31
0.0
  0
ENDBLK
  5
31
330
1C
100
AcDbEntity
  8
0
100
AcDbBlockEnd
  0
BLOCK
  5
36
330
35
100
AcDbEntity
  8
0
100
AcDbBlockBegin
  2
_OPEN
 70
     0
 10
0.0
 20
0.0
 30
0.0
  3
_OPEN
  1

  0
LINE
  5
37
330
35
100
AcDbEntity
  8
0
  6
BYBLOCK
 62
     0
100
AcDbLine
 10
-1.0
 20
0.1666666666666666
 30
0.0
 11
0.0
 21
0.0
 31
0.0
  0
LINE
  5
38
330
35
100
AcDbEntity
  8
0
  6
BYBLOCK
 62
     0
100
AcDbLine
 10
0.0
 20
0.0
 30
0.0
 11
-1.0
 21
-0.1666666666666666
 31
0.0
  0
LINE
  5
39
330
35
100
AcDbEntity
  8
0
  6
BYBLOCK
 62
     0
100
AcDbLine
 10
0.0
 20
0.0
 30
0.0
 11
-1.0
 21
0.0
 31
0.0
  0
ENDBLK
  5
3A
330
35
100
AcDbEntity
  8
0
100
AcDbBlockEnd
  0
BLOCK
  5
53
330
4D
100
AcDbEntity
  8
0
100
AcDbBlockBegin
  2
TK
 70
     0
 10
0.0
 20
0.0
 30
0.0
  3
TK
  1

  0
TEXT
  5
4E
330
4D
100
AcDbEntity
  8
0
  6
CONTINUOUS
 62
     2
100
AcDbText
 10
-8.056255308109314
 20
-1.428396170613346
 30
0.0
 40
2.7
  1
ＴＫ
  7
BGS
100
AcDbText
  0
LINE
  5
4F
330
4D
100
AcDbEntity
  8
0
  6
CONTINUOUS
 62
     2
100
AcDbLine
 10
-10.09705202413073
 20
0.1332646889774125
 30
0.0
 11
-5.095052024130723
 21
3.133264688977412
 31
0.0
  0
LINE
  5
50
330
4D
100
AcDbEntity
  8
0
  6
CONTINUOUS
 62
     2
100
AcDbLine
 10
-10.09705202413073
 20
0.1332646889774125
 30
0.0
 11
-5.095052024130723
 21
-2.866735311022587
 31
0.0
  0
LINE
  5
51
330
4D
100
AcDbEntity
  8
0
  6
CONTINUOUS
 62
     2
100
AcDbLine
 10
-5.095052024130723
 20
3.133264688977412
 30
0.0
 11
-0.0970520241307327
 21
0.1332646889774125
 31
0.0
  0
LINE
  5
52
330
4D
100
AcDbEntity
  8
0
  6
CONTINUOUS
 62
     2
100
AcDbLine
 10
-5.095052024130723
 20
-2.866735311022587
 30
0.0
 11
-0.0970520241307327
 21
0.1332646889774125
 31
0.0
  0
ENDBLK
  5
54
330
4D
100
AcDbEntity
  8
0
100
AcDbBlockEnd
  0
BLOCK
  5
C0
330
56
100
AcDbEntity
  8
0
100
AcDbBlockBegin
  2
A3-WAKU
 70
     0
 10
0.0
 20
0.0
 30
0.0
  3
A3-WAKU
  1

  0
INSERT
  5
57
330
56
100
AcDbEntity
  8
0
100
AcDbBlockReference
  2
TK
 10
317.0726460431471
 20
9.776842374659864
 30
0.0
  0
TEXT
  5
58
330
56
100
AcDbEntity
  8
L-1
  6
CONTINUOUS
 62
     2
100
AcDbText
 10
221.7734457438838
 20
41.38067661600113
 30
0.0
 40
4.0
  1
日
  7
BGS
100
AcDbText
  0
TEXT
  5
59
330
56
100
AcDbEntity
  8
L-1
  6
CONTINUOUS
 62
     2
100
AcDbText
 10
217.9265709142159
 20
41.24471250686361
 30
0.0
 40
4.0
  1
月
  7
BGS
100
AcDbText
  0
TEXT
  5
5A
330
56
100
AcDbEntity
  8
L-1
  6
CONTINUOUS
 62
     2
100
AcDbText
 10
214.3020587914652
 20
41.4214658487424
 30
0.0
 40
4.0
  1
年
  7
BGS
100
AcDbText
  0
LINE
  5
5B
330
56
100
AcDbEntity
  8
L-1
  6
CONTINUOUS
 62
     5
100
AcDbLine
 10
305.0
 20
46.0
 30
0.0
 11
305.0
 21
6.0
 31
0.0
  0
LINE
  5
5C
330
56
100
AcDbEntity
  8
L-1
  6
CONTINUOUS
 62
     4
100
AcDbLine
 10
209.0
 20
11.0
 30
0.0
 11
210.4999999999999
 21
11.0
 31
0.0
  0
LINE
  5
5D
330
56
100
AcDbEntity
  8
L-1
  6
CONTINUOUS
 62
     4
100
AcDbLine
 10
209.0
 20
16.0
 30
0.0
 11
210.4999999999999
 21
16.0
 31
0.0
  0
LINE
  5
5E
330
56
100
AcDbEntity
  8
L-1
  6
CONTINUOUS
 62
     4
100
AcDbLine
 10
214.0
 20
46.0
 30
0.0
 11
214.0
 21
6.0
 31
0.0
  0
LINE
  5
5F
330
56
100
AcDbEntity
  8
L-1
  6
CONTINUOUS
 62
     5
100
AcDbLine
 10
6.0
 20
225.0
 30
0.0
 11
6.0
 21
215.0
 31
0.0
  0
LINE
  5
60
330
56
100
AcDbEntity
  8
L-1
  6
CONTINUOUS
 62
     5
100
AcDbLine
 10
6.0
 20
215.0
 30
0.0
 11
16.0
 21
215.0
 31
0.0
  0
LINE
  5
61
330
56
100
AcDbEntity
  8
L-1
  6
CONTINUOUS
 62
     5
100
AcDbLine
 10
6.0
 20
275.0
 30
0.0
 11
6.0
 21
225.0
 31
0.0
  0
LINE
  5
62
330
56
100
AcDbEntity
  8
L-1
  6
CONTINUOUS
 62
     5
100
AcDbLine
 10
16.0
 20
275.0
 30
0.0
 11
16.0
 21
228.0
 31
0.0
  0
LINE
  5
63
330
56
100
AcDbEntity
  8
L-1
  6
CONTINUOUS
 62
     5
100
AcDbLine
 10
16.0
 20
228.0
 30
0.0
 11
16.0
 21
228.0
 31
0.0
  0
LINE
  5
64
330
56
100
AcDbEntity
  8
L-1
  6
CONTINUOUS
 62
     5
100
AcDbLine
 10
16.0
 20
228.0
 30
0.0
 11
16.0
 21
228.0
 31
0.0
  0
LINE
  5
65
330
56
100
AcDbEntity
  8
L-1
  6
CONTINUOUS
 62
     5
100
AcDbLine
 10
16.0
 20
228.0
 30
0.0
 11
16.0
 21
225.0
 31
0.0
  0
TEXT
  5
66
330
56
100
AcDbEntity
  8
L-1
  6
CONTINUOUS
 62
     2
100
AcDbText
 10
3.14847458495825
 20
248.9633550277341
 30
0.0
 40
2.5
  1
Ａ
  7
SIMPLEX
100
AcDbText
  0
LINE
  5
67
330
56
100
AcDbEntity
  8
L-1
  6
CONTINUOUS
 62
     5
100
AcDbLine
 10
378.0
 20
24.0
 30
0.0
 11
378.0
 21
6.0
 31
0.0
  0
LINE
  5
68
330
56
100
AcDbEntity
  8
L-1
  6
CONTINUOUS
 62
     4
100
AcDbLine
 10
357.0
 20
275.0
 30
0.0
 11
357.0
 21
273.4999999999999
 31
0.0
  0
LINE
  5
69
330
56
100
AcDbEntity
  8
L-1
  6
CONTINUOUS
 62
     4
100
AcDbLine
 10
345.0
 20
275.0
 30
0.0
 11
345.0
 21
273.4999999999999
 31
0.0
  0
LINE
  5
6A
330
56
100
AcDbEntity
  8
L-1
  6
CONTINUOUS
 62
     4
100
AcDbLine
 10
310.0
 20
275.0
 30
0.0
 11
310.0
 21
273.4999999999999
 31
0.0
  0
LINE
  5
6B
330
56
100
AcDbEntity
  8
L-1
  6
CONTINUOUS
 62
     4
100
AcDbLine
 10
275.0
 20
275.0
 30
0.0
 11
275.0
 21
273.4999999999999
 31
0.0
  0
LINE
  5
6C
330
56
100
AcDbEntity
  8
L-1
  6
CONTINUOUS
 62
     4
100
AcDbLine
 10
227.0
 20
275.0
 30
0.0
 11
227.0
 21
273.4999999999999
 31
0.0
  0
LINE
  5
6D
330
56
100
AcDbEntity
  8
L-1
  6
CONTINUOUS
 62
     4
100
AcDbLine
 10
215.0
 20
275.0
 30
0.0
 11
215.0
 21
273.4999999999999
 31
0.0
  0
LINE
  5
6E
330
56
100
AcDbEntity
  8
L-1
  6
CONTINUOUS
 62
     4
100
AcDbLine
 10
383.4999999999999
 20
209.0
 30
0.0
 11
385.0
 21
209.0
 31
0.0
  0
LINE
  5
6F
330
56
100
AcDbEntity
  8
L-1
  6
CONTINUOUS
 62
     4
100
AcDbLine
 10
383.4999999999999
 20
215.0
 30
0.0
 11
385.0
 21
215.0
 31
0.0
  0
LINE
  5
70
330
56
100
AcDbEntity
  8
L-1
  6
CONTINUOUS
 62
     4
100
AcDbLine
 10
383.4999999999999
 20
221.0
 30
0.0
 11
385.0
 21
221.0
 31
0.0
  0
LINE
  5
71
330
56
100
AcDbEntity
  8
L-1
  6
CONTINUOUS
 62
     4
100
AcDbLine
 10
383.4999999999999
 20
227.0
 30
0.0
 11
385.0
 21
227.0
 31
0.0
  0
LINE
  5
72
330
56
100
AcDbEntity
  8
L-1
  6
CONTINUOUS
 62
     4
100
AcDbLine
 10
383.4999999999999
 20
233.0
 30
0.0
 11
385.0
 21
233.0
 31
0.0
  0
LINE
  5
73
330
56
100
AcDbEntity
  8
L-1
  6
CONTINUOUS
 62
     4
100
AcDbLine
 10
383.4999999999999
 20
239.0
 30
0.0
 11
385.0
 21
239.0
 31
0.0
  0
LINE
  5
74
330
56
100
AcDbEntity
  8
L-1
  6
CONTINUOUS
 62
     4
100
AcDbLine
 10
383.4999999999999
 20
245.0
 30
0.0
 11
385.0
 21
245.0
 31
0.0
  0
LINE
  5
75
330
56
100
AcDbEntity
  8
L-1
  6
CONTINUOUS
 62
     4
100
AcDbLine
 10
383.4999999999999
 20
251.0
 30
0.0
 11
385.0
 21
251.0
 31
0.0
  0
LINE
  5
76
330
56
100
AcDbEntity
  8
L-1
  6
CONTINUOUS
 62
     4
100
AcDbLine
 10
383.4999999999999
 20
257.0
 30
0.0
 11
385.0
 21
257.0
 31
0.0
  0
LINE
  5
77
330
56
100
AcDbEntity
  8
L-1
  6
CONTINUOUS
 62
     4
100
AcDbLine
 10
383.4999999999999
 20
263.0
 30
0.0
 11
385.0
 21
263.0
 31
0.0
  0
LINE
  5
78
330
56
100
AcDbEntity
  8
L-1
  6
CONTINUOUS
 62
     4
100
AcDbLine
 10
383.4999999999999
 20
269.0
 30
0.0
 11
385.0
 21
269.0
 31
0.0
  0
LINE
  5
79
330
56
100
AcDbEntity
  8
L-1
  6
CONTINUOUS
 62
     5
100
AcDbLine
 10
16.0
 20
6.0
 30
0.0
 11
385.0
 21
6.0
 31
0.0
  0
LINE
  5
7A
330
56
100
AcDbEntity
  8
L-1
  6
CONTINUOUS
 62
     4
100
AcDbLine
 10
271.4999999999999
 20
31.0
 30
0.0
 11
273.0
 21
31.0
 31
0.0
  0
LINE
  5
7B
330
56
100
AcDbEntity
  8
L-1
  6
CONTINUOUS
 62
     4
100
AcDbLine
 10
271.4999999999999
 20
36.0
 30
0.0
 11
273.0
 21
36.0
 31
0.0
  0
LINE
  5
7C
330
56
100
AcDbEntity
  8
L-1
  6
CONTINUOUS
 62
     4
100
AcDbLine
 10
209.0
 20
21.0
 30
0.0
 11
210.4999999999999
 21
21.0
 31
0.0
  0
LINE
  5
7D
330
56
100
AcDbEntity
  8
L-1
  6
CONTINUOUS
 62
     4
100
AcDbLine
 10
209.0
 20
26.0
 30
0.0
 11
210.4999999999999
 21
26.0
 31
0.0
  0
LINE
  5
7E
330
56
100
AcDbEntity
  8
L-1
  6
CONTINUOUS
 62
     4
100
AcDbLine
 10
209.0
 20
31.0
 30
0.0
 11
210.4999999999999
 21
31.0
 31
0.0
  0
LINE
  5
7F
330
56
100
AcDbEntity
  8
L-1
  6
CONTINUOUS
 62
     4
100
AcDbLine
 10
209.0
 20
36.0
 30
0.0
 11
210.4999999999999
 21
36.0
 31
0.0
  0
LINE
  5
80
330
56
100
AcDbEntity
  8
L-1
  6
CONTINUOUS
 62
     4
100
AcDbLine
 10
16.0
 20
41.0
 30
0.0
 11
17.5
 21
41.0
 31
0.0
  0
LINE
  5
81
330
56
100
AcDbEntity
  8
L-1
  6
CONTINUOUS
 62
     4
100
AcDbLine
 10
16.0
 20
36.0
 30
0.0
 11
17.5
 21
36.0
 31
0.0
  0
LINE
  5
82
330
56
100
AcDbEntity
  8
L-1
  6
CONTINUOUS
 62
     4
100
AcDbLine
 10
16.0
 20
31.0
 30
0.0
 11
17.5
 21
31.0
 31
0.0
  0
LINE
  5
83
330
56
100
AcDbEntity
  8
L-1
  6
CONTINUOUS
 62
     4
100
AcDbLine
 10
16.0
 20
26.0
 30
0.0
 11
17.5
 21
26.0
 31
0.0
  0
LINE
  5
84
330
56
100
AcDbEntity
  8
L-1
  6
CONTINUOUS
 62
     4
100
AcDbLine
 10
16.0
 20
21.0
 30
0.0
 11
17.5
 21
21.0
 31
0.0
  0
LINE
  5
85
330
56
100
AcDbEntity
  8
L-1
  6
CONTINUOUS
 62
     4
100
AcDbLine
 10
16.0
 20
16.0
 30
0.0
 11
17.5
 21
16.0
 31
0.0
  0
LINE
  5
86
330
56
100
AcDbEntity
  8
L-1
  6
CONTINUOUS
 62
     4
100
AcDbLine
 10
16.0
 20
11.0
 30
0.0
 11
17.5
 21
11.0
 31
0.0
  0
TEXT
  5
87
330
56
100
AcDbEntity
  8
L-1
  6
CONTINUOUS
 62
     2
100
AcDbText
 10
12.76631437922492
 20
14.65247426876108
 30
0.0
 40
2.5
  1
Ｆ
  7
SIMPLEX
100
AcDbText
  0
TEXT
  5
88
330
56
100
AcDbEntity
  8
L-1
  6
CONTINUOUS
 62
     2
100
AcDbText
 10
12.98891014823959
 20
49.71822326110082
 30
0.0
 40
2.5
  1
Ｅ
  7
SIMPLEX
100
AcDbText
  0
TEXT
  5
89
330
56
100
AcDbEntity
  8
L-1
  6
CONTINUOUS
 62
     2
100
AcDbText
 10
12.79390151665018
 20
99.7796990401785
 30
0.0
 40
2.5
  1
Ｄ
  7
SIMPLEX
100
AcDbText
  0
TEXT
  5
8A
330
56
100
AcDbEntity
  8
L-1
  6
CONTINUOUS
 62
     2
100
AcDbText
 10
12.8389035085554
 20
149.6780080942729
 30
0.0
 40
2.5
  1
Ｃ
  7
SIMPLEX
100
AcDbText
  0
TEXT
  5
8B
330
56
100
AcDbEntity
  8
L-1
  6
CONTINUOUS
 62
     2
100
AcDbText
 10
12.77890085268177
 20
199.7444459295554
 30
0.0
 40
2.5
  1
Ｂ
  7
SIMPLEX
100
AcDbText
  0
LINE
  5
8C
330
56
100
AcDbEntity
  8
L-1
  6
CONTINUOUS
 62
     5
100
AcDbLine
 10
16.0
 20
225.0
 30
0.0
 11
16.0
 21
6.0
 31
0.0
  0
LINE
  5
8D
330
56
100
AcDbEntity
  8
L-1
  6
CONTINUOUS
 62
     5
100
AcDbLine
 10
385.0
 20
275.0
 30
0.0
 11
6.0
 21
275.0
 31
0.0
  0
LINE
  5
8E
330
56
100
AcDbEntity
  8
L-1
  6
CONTINUOUS
 62
     5
100
AcDbLine
 10
385.0
 20
275.0
 30
0.0
 11
385.0
 21
6.0
 31
0.0
  0
TEXT
  5
8F
330
56
100
AcDbEntity
  8
L-1
  6
CONTINUOUS
 62
     2
100
AcDbText
 10
374.3530698408897
 20
275.518653884599
 30
0.0
 40
2.5
  1
８
  7
SIMPLEX
100
AcDbText
  0
TEXT
  5
90
330
56
100
AcDbEntity
  8
L-1
  6
CONTINUOUS
 62
     2
100
AcDbText
 10
339.8896317304588
 20
275.4702655871128
 30
0.0
 40
2.5
  1
７
  7
SIMPLEX
100
AcDbText
  0
TEXT
  5
91
330
56
100
AcDbEntity
  8
L-1
  6
CONTINUOUS
 62
     2
100
AcDbText
 10
289.8442613906334
 20
275.4841364783273
 30
0.0
 40
2.5
  1
６
  7
SIMPLEX
100
AcDbText
  0
TEXT
  5
92
330
56
100
AcDbEntity
  8
L-1
  6
CONTINUOUS
 62
     2
100
AcDbText
 10
239.7308355410698
 20
275.5018948672063
 30
0.0
 40
2.5
  1
５
  7
SIMPLEX
100
AcDbText
  0
TEXT
  5
93
330
56
100
AcDbEntity
  8
L-1
  6
CONTINUOUS
 62
     2
100
AcDbText
 10
189.7535207109825
 20
275.4425238046838
 30
0.0
 40
2.5
  1
４
  7
SIMPLEX
100
AcDbText
  0
TEXT
  5
94
330
56
100
AcDbEntity
  8
L-1
  6
CONTINUOUS
 62
     2
100
AcDbText
 10
139.8669465605461
 20
275.4841364783273
 30
0.0
 40
2.5
  1
３
  7
SIMPLEX
100
AcDbText
  0
TEXT
  5
95
330
56
100
AcDbEntity
  8
L-1
  6
CONTINUOUS
 62
     2
100
AcDbText
 10
89.82157622072065
 20
275.4702655871128
 30
0.0
 40
2.5
  1
２
  7
SIMPLEX
100
AcDbText
  0
TEXT
  5
96
330
56
100
AcDbEntity
  8
L-1
  6
CONTINUOUS
 62
     2
100
AcDbText
 10
39.84426139063344
 20
275.4880239759918
 30
0.0
 40
2.5
  1
１
  7
SIMPLEX
100
AcDbText
  0
LINE
  5
97
330
56
100
AcDbEntity
  8
L-1
  6
CONTINUOUS
 62
     4
100
AcDbLine
 10
366.0
 20
278.0
 30
0.0
 11
366.0
 21
275.0
 31
0.0
  0
LINE
  5
98
330
56
100
AcDbEntity
  8
L-1
  6
CONTINUOUS
 62
     4
100
AcDbLine
 10
316.0
 20
278.0
 30
0.0
 11
316.0
 21
275.0
 31
0.0
  0
LINE
  5
99
330
56
100
AcDbEntity
  8
L-1
  6
CONTINUOUS
 62
     4
100
AcDbLine
 10
266.0
 20
278.0
 30
0.0
 11
266.0
 21
275.0
 31
0.0
  0
LINE
  5
9A
330
56
100
AcDbEntity
  8
L-1
  6
CONTINUOUS
 62
     4
100
AcDbLine
 10
216.0
 20
278.0
 30
0.0
 11
216.0
 21
275.0
 31
0.0
  0
LINE
  5
9B
330
56
100
AcDbEntity
  8
L-1
  6
CONTINUOUS
 62
     4
100
AcDbLine
 10
166.0
 20
278.0
 30
0.0
 11
166.0
 21
275.0
 31
0.0
  0
LINE
  5
9C
330
56
100
AcDbEntity
  8
L-1
  6
CONTINUOUS
 62
     4
100
AcDbLine
 10
116.0
 20
278.0
 30
0.0
 11
116.0
 21
275.0
 31
0.0
  0
LINE
  5
9D
330
56
100
AcDbEntity
  8
L-1
  6
CONTINUOUS
 62
     4
100
AcDbLine
 10
66.0
 20
278.0
 30
0.0
 11
66.0
 21
275.0
 31
0.0
  0
LINE
  5
9E
330
56
100
AcDbEntity
  8
L-1
  6
CONTINUOUS
 62
     5
100
AcDbLine
 10
209.0
 20
46.0
 30
0.0
 11
385.0
 21
46.0
 31
0.0
  0
LINE
  5
9F
330
56
100
AcDbEntity
  8
L-1
  6
CONTINUOUS
 62
     5
100
AcDbLine
 10
209.0
 20
6.0
 30
0.0
 11
209.0
 21
46.0
 31
0.0
  0
LINE
  5
A0
330
56
100
AcDbEntity
  8
L-1
  6
CONTINUOUS
 62
     4
100
AcDbLine
 10
312.0
 20
46.0
 30
0.0
 11
312.0
 21
14.0
 31
0.0
  0
LINE
  5
A1
330
56
100
AcDbEntity
  8
L-1
  6
CONTINUOUS
 62
     5
100
AcDbLine
 10
305.0
 20
14.0
 30
0.0
 11
378.0
 21
14.0
 31
0.0
  0
LINE
  5
A2
330
56
100
AcDbEntity
  8
L-1
  6
CONTINUOUS
 62
     4
100
AcDbLine
 10
289.0
 20
46.0
 30
0.0
 11
289.0
 21
31.0
 31
0.0
  0
LINE
  5
A3
330
56
100
AcDbEntity
  8
L-1
  6
CONTINUOUS
 62
     5
100
AcDbLine
 10
273.0
 20
46.0
 30
0.0
 11
273.0
 21
31.0
 31
0.0
  0
LINE
  5
A4
330
56
100
AcDbEntity
  8
L-1
  6
CONTINUOUS
 62
     4
100
AcDbLine
 10
209.0
 20
41.0
 30
0.0
 11
305.0
 21
41.0
 31
0.0
  0
LINE
  5
A5
330
56
100
AcDbEntity
  8
L-1
  6
CONTINUOUS
 62
     5
100
AcDbLine
 10
273.0
 20
31.0
 30
0.0
 11
305.0
 21
31.0
 31
0.0
  0
LINE
  5
A6
330
56
100
AcDbEntity
  8
L-1
  6
CONTINUOUS
 62
     5
100
AcDbLine
 10
273.0
 20
31.0
 30
0.0
 11
273.0
 21
6.0
 31
0.0
  0
LINE
  5
A7
330
56
100
AcDbEntity
  8
L-1
  6
CONTINUOUS
 62
     4
100
AcDbLine
 10
271.4999999999999
 20
11.0
 30
0.0
 11
305.0
 21
11.0
 31
0.0
  0
LINE
  5
A8
330
56
100
AcDbEntity
  8
L-1
  6
CONTINUOUS
 62
     4
100
AcDbLine
 10
271.4999999999999
 20
16.0
 30
0.0
 11
305.0
 21
16.0
 31
0.0
  0
LINE
  5
A9
330
56
100
AcDbEntity
  8
L-1
  6
CONTINUOUS
 62
     4
100
AcDbLine
 10
271.4999999999999
 20
21.0
 30
0.0
 11
305.0
 21
21.0
 31
0.0
  0
LINE
  5
AA
330
56
100
AcDbEntity
  8
L-1
  6
CONTINUOUS
 62
     4
100
AcDbLine
 10
271.4999999999999
 20
26.0
 30
0.0
 11
305.0
 21
26.0
 31
0.0
  0
LINE
  5
AB
330
56
100
AcDbEntity
  8
L-1
  6
CONTINUOUS
 62
     4
100
AcDbLine
 10
226.0
 20
46.0
 30
0.0
 11
226.0
 21
6.0
 31
0.0
  0
LINE
  5
AC
330
56
100
AcDbEntity
  8
L-1
  6
CONTINUOUS
 62
     5
100
AcDbLine
 10
305.0
 20
24.0
 30
0.0
 11
385.0
 21
24.0
 31
0.0
  0
LINE
  5
AD
330
56
100
AcDbEntity
  8
L-1
  6
CONTINUOUS
 62
     4
100
AcDbLine
 10
285.0
 20
31.0
 30
0.0
 11
285.0
 21
6.0
 31
0.0
  0
TEXT
  5
AE
330
56
100
AcDbEntity
  8
L-1
  6
CONTINUOUS
 62
     2
100
AcDbText
 10
209.6219833982407
 20
41.55131843984618
 30
0.0
 40
4.0
  1
版
  7
SIMPLEX
100
AcDbText
  0
TEXT
  5
AF
330
56
100
AcDbEntity
  8
L-1
  6
CONTINUOUS
 62
     2
100
AcDbText
 10
233.2878071567374
 20
41.56491485075992
 30
0.0
 40
4.0
  1
変　更　事　項
  7
SIMPLEX
100
AcDbText
  0
TEXT
  5
B0
330
56
100
AcDbEntity
  8
L-1
  6
CONTINUOUS
 62
     2
100
AcDbText
 10
274.310043427429
 20
41.57851126167368
 30
0.0
 40
4.0
  1
単　位
  7
SIMPLEX
100
AcDbText
  0
TEXT
  5
B1
330
56
100
AcDbEntity
  8
L-1
  6
CONTINUOUS
 62
     2
100
AcDbText
 10
290.3100434274291
 20
41.57851126167368
 30
0.0
 40
4.0
  1
尺　度
  7
SIMPLEX
100
AcDbText
  0
TEXT
  5
B2
330
56
100
AcDbEntity
  8
L-1
  6
CONTINUOUS
 62
     2
100
AcDbText
 10
274.0667088120751
 20
26.52412561801867
 30
0.0
 40
4.0
  1
設 計
  7
SIMPLEX
100
AcDbText
  0
TEXT
  5
B3
330
56
100
AcDbEntity
  8
L-1
  6
CONTINUOUS
 62
     2
100
AcDbText
 10
273.9555274586165
 20
21.67368613806994
 30
0.0
 40
4.0
  1
製 図
  7
SIMPLEX
100
AcDbText
  0
TEXT
  5
B4
330
56
100
AcDbEntity
  8
L-1
  6
CONTINUOUS
 62
     2
100
AcDbText
 10
273.8443461051579
 20
16.61930049441493
 30
0.0
 40
4.0
  1
担 当
  7
SIMPLEX
100
AcDbText
  0
TEXT
  5
B5
330
56
100
AcDbEntity
  8
L-1
  6
CONTINUOUS
 62
     2
100
AcDbText
 10
274.0
 20
11.57851126167367
 30
0.0
 40
4.0
  1
査 閲
  7
SIMPLEX
100
AcDbText
  0
TEXT
  5
B6
330
56
100
AcDbEntity
  8
L-1
  6
CONTINUOUS
 62
     2
100
AcDbText
 10
273.8443461051579
 20
6.46973997436366
 30
0.0
 40
4.0
  1
承 認
  7
SIMPLEX
100
AcDbText
  0
TEXT
  5
B7
330
56
100
AcDbEntity
  8
L-1
  6
CONTINUOUS
 62
     2
100
AcDbText
 10
306.5330383154738
 20
19.41535433070865
 30
0.0
 40
4.0
  1
図
  7
SIMPLEX
100
AcDbText
  0
TEXT
  5
B8
330
56
100
AcDbEntity
  8
L-1
  6
CONTINUOUS
 62
     2
100
AcDbText
 10
306.5330383154738
 20
14.41535433070865
 30
0.0
 40
4.0
  1
番
  7
SIMPLEX
100
AcDbText
  0
TEXT
  5
B9
330
56
100
AcDbEntity
  8
L-1
  6
CONTINUOUS
 62
     2
100
AcDbText
 10
319.0980555556825
 20
7.873740483041579
 30
0.0
 40
4.4
  1
東京通信機工業株式会社
  7
SIMPLEX
100
AcDbText
  0
TEXT
  5
BA
330
56
100
AcDbEntity
  8
L-1
  6
CONTINUOUS
 62
     2
100
AcDbText
 10
306.4663295033986
 20
40.94561435634498
 30
0.0
 40
4.0
  1
名
  7
SIMPLEX
100
AcDbText
  0
TEXT
  5
BB
330
56
100
AcDbEntity
  8
L-1
  6
CONTINUOUS
 62
     2
100
AcDbText
 10
306.4663295033986
 20
25.94561435634499
 30
0.0
 40
4.0
  1
称
  7
SIMPLEX
100
AcDbText
  0
LINE
  5
BC
330
56
100
AcDbEntity
  8
L-1
  6
CONTINUOUS
 62
     4
100
AcDbLine
 10
14.0
 20
176.0
 30
0.0
 11
16.0
 21
176.0
 31
0.0
  0
LINE
  5
BD
330
56
100
AcDbEntity
  8
L-1
  6
CONTINUOUS
 62
     4
100
AcDbLine
 10
14.0
 20
126.0
 30
0.0
 11
16.0
 21
126.0
 31
0.0
  0
LINE
  5
BE
330
56
100
AcDbEntity
  8
L-1
  6
CONTINUOUS
 62
     4
100
AcDbLine
 10
14.0
 20
76.0
 30
0.0
 11
16.0
 21
76.0
 31
0.0
  0
LINE
  5
BF
330
56
100
AcDbEntity
  8
L-1
  6
CONTINUOUS
 62
     4
100
AcDbLine
 10
14.0
 20
26.0
 30
0.0
 11
16.0
 21
26.0
 31
0.0
  0
ENDBLK
  5
C1
330
56
100
AcDbEntity
  8
0
100
AcDbBlockEnd
  0
BLOCK
  5
B95
330
7FB
100
AcDbEntity
  8
0
100
AcDbBlockBegin
  2
*D4
 70
     1
 10
0.0
 20
0.0
 30
0.0
  3
*D4
  1

  0
LINE
  5
F4D
330
7FB
100
AcDbEntity
  8
L-2
  6
CONTINUOUS
 62
     4
100
AcDbLine
 10
191.1216706895395
 20
235.5327115473271
 30
0.0
 11
211.9220921261676
 21
235.532711547327
 31
0.0
  0
LINE
  5
F4E
330
7FB
100
AcDbEntity
  8
L-2
  6
CONTINUOUS
 62
     4
100
AcDbLine
 10
191.1216706895396
 20
110.6327115473271
 30
0.0
 11
211.9220921261676
 21
110.6327115473271
 31
0.0
  0
LINE
  5
F4F
330
7FB
100
AcDbEntity
  8
L-2
  6
CONTINUOUS
 62
     4
100
AcDbLine
 10
210.9220921261676
 20
233.032711547327
 30
0.0
 11
210.9220921261676
 21
113.1327115473271
 31
0.0
  0
INSERT
  5
F50
330
7FB
100
AcDbEntity
  8
L-2
  6
CONTINUOUS
 62
     4
100
AcDbBlockReference
  2
_OPEN
 10
210.9220921261676
 20
235.532711547327
 30
0.0
 41
2.5
 42
2.5
 43
2.5
 50
90.0
  0
INSERT
  5
F51
330
7FB
100
AcDbEntity
  8
L-2
  6
CONTINUOUS
 62
     4
100
AcDbBlockReference
  2
_OPEN
 10
210.9220921261676
 20
110.6327115473271
 30
0.0
 41
2.5
 42
2.5
 43
2.5
 50
270.0
  0
MTEXT
  5
F52
330
7FB
100
AcDbEntity
  8
L-2
  6
CONTINUOUS
 62
     2
100
AcDbMText
 10
208.8220921261676
 20
173.0827115473271
 30
0.0
 40
3.2
 41
0.0
 71
     5
 72
     1
  1
\A1;124.9
  7
MSゴシック
 11
0.0000000000000001
 21
1.0
 31
0.0
1001
ACAD
1000
MTEXTBEGIN
1070
    73
1070
     1
1070
    44
1040
1.0
1070
    74
1070
     0
1000
MTEXTEND
  0
POINT
  5
F53
330
7FB
100
AcDbEntity
  8
DEFPOINTS
  6
CONTINUOUS
 62
     0
100
AcDbPoint
 10
190.6216706895395
 20
235.5327115473271
 30
0.0
  0
POINT
  5
F54
330
7FB
100
AcDbEntity
  8
DEFPOINTS
  6
CONTINUOUS
 62
     0
100
AcDbPoint
 10
190.6216706895396
 20
110.6327115473271
 30
0.0
  0
POINT
  5
F55
330
7FB
100
AcDbEntity
  8
DEFPOINTS
  6
CONTINUOUS
 62
     0
100
AcDbPoint
 10
210.9220921261676
 20
110.6327115473271
 30
0.0
  0
ENDBLK
  5
B9F
330
7FB
100
AcDbEntity
  8
0
100
AcDbBlockEnd
  0
BLOCK
  5
AB0
330
807
100
AcDbEntity
  8
0
100
AcDbBlockBegin
  2
*D5
 70
     1
 10
0.0
 20
0.0
 30
0.0
  3
*D5
  1

  0
LINE
  5
F22
330
807
100
AcDbEntity
  8
L-2
  6
CONTINUOUS
 62
     4
100
AcDbLine
 10
189.1216706895395
 20
84.47037614241821
 30
0.0
 11
211.8148639510123
 21
84.47037614241821
 31
0.0
  0
LINE
  5
F23
330
807
100
AcDbEntity
  8
L-2
  6
CONTINUOUS
 62
     4
100
AcDbLine
 10
191.1216706895395
 20
34.47037614241821
 30
0.0
 11
211.8148639510122
 21
34.47037614241821
 31
0.0
  0
LINE
  5
F24
330
807
100
AcDbEntity
  8
L-2
  6
CONTINUOUS
 62
     4
100
AcDbLine
 10
210.8148639510122
 20
81.97037614241821
 30
0.0
 11
210.8148639510122
 21
36.97037614241821
 31
0.0
  0
INSERT
  5
F25
330
807
100
AcDbEntity
  8
L-2
  6
CONTINUOUS
 62
     4
100
AcDbBlockReference
  2
_OPEN
 10
210.8148639510122
 20
84.47037614241821
 30
0.0
 41
2.5
 42
2.5
 43
2.5
 50
90.0
  0
INSERT
  5
F26
330
807
100
AcDbEntity
  8
L-2
  6
CONTINUOUS
 62
     4
100
AcDbBlockReference
  2
_OPEN
 10
210.8148639510122
 20
34.47037614241821
 30
0.0
 41
2.5
 42
2.5
 43
2.5
 50
270.0
  0
MTEXT
  5
F27
330
807
100
AcDbEntity
  8
L-2
  6
CONTINUOUS
 62
     2
100
AcDbMText
 10
208.7148639510123
 20
59.47037614241825
 30
0.0
 40
3.2
 41
0.0
 71
     5
 72
     1
  1
\A1;50
  7
MSゴシック
 11
0.0000000000000001
 21
1.0
 31
0.0
1001
ACAD
1000
MTEXTBEGIN
1070
    73
1070
     1
1070
    44
1040
1.0
1070
    74
1070
     0
1000
MTEXTEND
  0
POINT
  5
F28
330
807
100
AcDbEntity
  8
DEFPOINTS
  6
CONTINUOUS
 62
     0
100
AcDbPoint
 10
188.6216706895395
 20
84.47037614241821
 30
0.0
  0
POINT
  5
F29
330
807
100
AcDbEntity
  8
DEFPOINTS
  6
CONTINUOUS
 62
     0
100
AcDbPoint
 10
190.6216706895395
 20
34.47037614241821
 30
0.0
  0
POINT
  5
F2A
330
807
100
AcDbEntity
  8
DEFPOINTS
  6
CONTINUOUS
 62
     0
100
AcDbPoint
 10
210.8148639510122
 20
34.47037614241821
 30
0.0
  0
ENDBLK
  5
ABA
330
807
100
AcDbEntity
  8
0
100
AcDbBlockEnd
  0
BLOCK
  5
ABB
330
82B
100
AcDbEntity
  8
0
100
AcDbBlockBegin
  2
*D6
 70
     1
 10
0.0
 20
0.0
 30
0.0
  3
*D6
  1

  0
LINE
  5
F19
330
82B
100
AcDbEntity
  8
L-2
  6
CONTINUOUS
 62
     4
100
AcDbLine
 10
178.1216706895395
 20
106.9172316311362
 30
0.0
 11
178.1216706895395
 21
101.4781098829712
 31
0.0
  0
LINE
  5
F1A
330
82B
100
AcDbEntity
  8
L-2
  6
CONTINUOUS
 62
     4
100
AcDbLine
 10
153.1216706895395
 20
106.9172316311362
 30
0.0
 11
153.1216706895395
 21
101.4781098829712
 31
0.0
  0
LINE
  5
F1B
330
82B
100
AcDbEntity
  8
L-2
  6
CONTINUOUS
 62
     4
100
AcDbLine
 10
175.6216706895395
 20
102.4781098829712
 30
0.0
 11
155.6216706895395
 21
102.4781098829712
 31
0.0
  0
INSERT
  5
F1C
330
82B
100
AcDbEntity
  8
L-2
  6
CONTINUOUS
 62
     4
100
AcDbBlockReference
  2
_OPEN
 10
178.1216706895395
 20
102.4781098829712
 30
0.0
 41
2.5
 42
2.5
 43
2.5
  0
INSERT
  5
F1D
330
82B
100
AcDbEntity
  8
L-2
  6
CONTINUOUS
 62
     4
100
AcDbBlockReference
  2
_OPEN
 10
153.1216706895395
 20
102.4781098829712
 30
0.0
 41
2.5
 42
2.5
 43
2.5
 50
180.0
  0
MTEXT
  5
F1E
330
82B
100
AcDbEntity
  8
L-2
  6
CONTINUOUS
 62
     2
100
AcDbMText
 10
165.6216706895395
 20
104.5781098829712
 30
0.0
 40
3.2
 41
0.0
 71
     5
 72
     1
  1
\A1;25
  7
MSゴシック
1001
ACAD
1000
MTEXTBEGIN
1070
    73
1070
     1
1070
    44
1040
1.0
1070
    74
1070
     0
1000
MTEXTEND
  0
POINT
  5
F1F
330
82B
100
AcDbEntity
  8
DEFPOINTS
  6
CONTINUOUS
 62
     0
100
AcDbPoint
 10
178.1216706895395
 20
107.4172316311362
 30
0.0
  0
POINT
  5
F20
330
82B
100
AcDbEntity
  8
DEFPOINTS
  6
CONTINUOUS
 62
     0
100
AcDbPoint
 10
153.1216706895395
 20
107.4172316311362
 30
0.0
  0
POINT
  5
F21
330
82B
100
AcDbEntity
  8
DEFPOINTS
  6
CONTINUOUS
 62
     0
100
AcDbPoint
 10
153.1216706895395
 20
102.4781098829712
 30
0.0
  0
ENDBLK
  5
AC5
330
82B
100
AcDbEntity
  8
0
100
AcDbBlockEnd
  0
BLOCK
  5
AC6
330
837
100
AcDbEntity
  8
0
100
AcDbBlockBegin
  2
*D7
 70
     1
 10
0.0
 20
0.0
 30
0.0
  3
*D7
  1

  0
LINE
  5
F10
330
837
100
AcDbEntity
  8
L-2
  6
CONTINUOUS
 62
     4
100
AcDbLine
 10
190.6216706895395
 20
110.1327115473271
 30
0.0
 11
190.6216706895395
 21
101.4781098829712
 31
0.0
  0
LINE
  5
F11
330
837
100
AcDbEntity
  8
L-2
  6
CONTINUOUS
 62
     4
100
AcDbLine
 10
178.1216706895395
 20
106.9172316311362
 30
0.0
 11
178.1216706895395
 21
101.4781098829712
 31
0.0
  0
LINE
  5
F12
330
837
100
AcDbEntity
  8
L-2
  6
CONTINUOUS
 62
     4
100
AcDbLine
 10
188.1216706895395
 20
102.4781098829712
 30
0.0
 11
180.6216706895395
 21
102.4781098829712
 31
0.0
  0
INSERT
  5
F13
330
837
100
AcDbEntity
  8
L-2
  6
CONTINUOUS
 62
     4
100
AcDbBlockReference
  2
_OPEN
 10
190.6216706895395
 20
102.4781098829712
 30
0.0
 41
2.5
 42
2.5
 43
2.5
  0
INSERT
  5
F14
330
837
100
AcDbEntity
  8
L-2
  6
CONTINUOUS
 62
     4
100
AcDbBlockReference
  2
_OPEN
 10
178.1216706895395
 20
102.4781098829712
 30
0.0
 41
2.5
 42
2.5
 43
2.5
 50
180.0
  0
MTEXT
  5
F15
330
837
100
AcDbEntity
  8
L-2
  6
CONTINUOUS
 62
     2
100
AcDbMText
 10
184.3716706895395
 20
104.5781098829712
 30
0.0
 40
3.2
 41
0.0
 71
     5
 72
     1
  1
\A1;12.5
  7
MSゴシック
1001
ACAD
1000
MTEXTBEGIN
1070
    73
1070
     1
1070
    44
1040
1.0
1070
    74
1070
     0
1000
MTEXTEND
  0
POINT
  5
F16
330
837
100
AcDbEntity
  8
DEFPOINTS
  6
CONTINUOUS
 62
     0
100
AcDbPoint
 10
190.6216706895395
 20
110.6327115473271
 30
0.0
  0
POINT
  5
F17
330
837
100
AcDbEntity
  8
DEFPOINTS
  6
CONTINUOUS
 62
     0
100
AcDbPoint
 10
178.1216706895395
 20
107.4172316311362
 30
0.0
  0
POINT
  5
F18
330
837
100
AcDbEntity
  8
DEFPOINTS
  6
CONTINUOUS
 62
     0
100
AcDbPoint
 10
178.1216706895395
 20
102.4781098829712
 30
0.0
  0
ENDBLK
  5
AD0
330
837
100
AcDbEntity
  8
0
100
AcDbBlockEnd
  0
BLOCK
  5
ADC
330
843
100
AcDbEntity
  8
0
100
AcDbBlockBegin
  2
*D8
 70
     1
 10
0.0
 20
0.0
 30
0.0
  3
*D8
  1

  0
LINE
  5
F2B
330
843
100
AcDbEntity
  8
L-2
  6
CONTINUOUS
 62
     4
100
AcDbLine
 10
280.041263808614
 20
113.1327115473271
 30
0.0
 11
280.041263808614
 21
101.9489604651786
 31
0.0
  0
LINE
  5
F2C
330
843
100
AcDbEntity
  8
L-2
  6
CONTINUOUS
 62
     4
100
AcDbLine
 10
230.0412638086141
 20
110.1327115473271
 30
0.0
 11
230.0412638086141
 21
101.9489604651786
 31
0.0
  0
LINE
  5
F2D
330
843
100
AcDbEntity
  8
L-2
  6
CONTINUOUS
 62
     4
100
AcDbLine
 10
277.5412638086141
 20
102.9489604651786
 30
0.0
 11
232.5412638086141
 21
102.9489604651786
 31
0.0
  0
INSERT
  5
F2E
330
843
100
AcDbEntity
  8
L-2
  6
CONTINUOUS
 62
     4
100
AcDbBlockReference
  2
_OPEN
 10
280.041263808614
 20
102.9489604651786
 30
0.0
 41
2.5
 42
2.5
 43
2.5
  0
INSERT
  5
F2F
330
843
100
AcDbEntity
  8
L-2
  6
CONTINUOUS
 62
     4
100
AcDbBlockReference
  2
_OPEN
 10
230.0412638086141
 20
102.9489604651786
 30
0.0
 41
2.5
 42
2.5
 43
2.5
 50
180.0
  0
MTEXT
  5
F30
330
843
100
AcDbEntity
  8
L-2
  6
CONTINUOUS
 62
     2
100
AcDbMText
 10
255.041263808614
 20
105.0489604651786
 30
0.0
 40
3.2
 41
0.0
 71
     5
 72
     1
  1
\A1;50
  7
MSゴシック
1001
ACAD
1000
MTEXTBEGIN
1070
    73
1070
     1
1070
    44
1040
1.0
1070
    74
1070
     0
1000
MTEXTEND
  0
POINT
  5
F31
330
843
100
AcDbEntity
  8
DEFPOINTS
  6
CONTINUOUS
 62
     0
100
AcDbPoint
 10
280.041263808614
 20
113.6327115473271
 30
0.0
  0
POINT
  5
F32
330
843
100
AcDbEntity
  8
DEFPOINTS
  6
CONTINUOUS
 62
     0
100
AcDbPoint
 10
230.0412638086141
 20
110.6327115473271
 30
0.0
  0
POINT
  5
F33
330
843
100
AcDbEntity
  8
DEFPOINTS
  6
CONTINUOUS
 62
     0
100
AcDbPoint
 10
230.0412638086141
 20
102.9489604651786
 30
0.0
  0
ENDBLK
  5
AE6
330
843
100
AcDbEntity
  8
0
100
AcDbBlockEnd
  0
BLOCK
  5
B7E
330
B7D
100
AcDbEntity
  8
0
100
AcDbBlockBegin
  2
*D9
 70
     1
 10
0.0
 20
0.0
 30
0.0
  3
*D9
  1

  0
LINE
  5
F44
330
B7D
100
AcDbEntity
  8
L-2
  6
CONTINUOUS
 62
     4
100
AcDbLine
 10
183.8484187085522
 20
220.5827115473271
 30
0.0
 11
201.976670609547
 21
220.5827115473271
 31
0.0
  0
LINE
  5
F45
330
B7D
100
AcDbEntity
  8
L-2
  6
CONTINUOUS
 62
     4
100
AcDbLine
 10
183.8484187085522
 20
125.5827115473271
 30
0.0
 11
201.9766706095469
 21
125.5827115473271
 31
0.0
  0
LINE
  5
F46
330
B7D
100
AcDbEntity
  8
L-2
  6
CONTINUOUS
 62
     4
100
AcDbLine
 10
200.976670609547
 20
218.0827115473271
 30
0.0
 11
200.976670609547
 21
128.0827115473271
 31
0.0
  0
INSERT
  5
F47
330
B7D
100
AcDbEntity
  8
L-2
  6
CONTINUOUS
 62
     4
100
AcDbBlockReference
  2
_OPEN
 10
200.976670609547
 20
220.5827115473271
 30
0.0
 41
2.5
 42
2.5
 43
2.5
 50
90.0
  0
INSERT
  5
F48
330
B7D
100
AcDbEntity
  8
L-2
  6
CONTINUOUS
 62
     4
100
AcDbBlockReference
  2
_OPEN
 10
200.976670609547
 20
125.5827115473271
 30
0.0
 41
2.5
 42
2.5
 43
2.5
 50
270.0
  0
MTEXT
  5
F49
330
B7D
100
AcDbEntity
  8
L-2
  6
CONTINUOUS
 62
     2
100
AcDbMText
 10
198.8766706095469
 20
173.0827115473271
 30
0.0
 40
3.2
 41
0.0
 71
     5
 72
     1
  1
\A1;95
  7
MSゴシック
 11
0.0000000000000001
 21
1.0
 31
0.0
1001
ACAD
1000
MTEXTBEGIN
1070
    73
1070
     1
1070
    44
1040
1.0
1070
    74
1070
     0
1000
MTEXTEND
  0
POINT
  5
F4A
330
B7D
100
AcDbEntity
  8
DEFPOINTS
  6
CONTINUOUS
 62
     0
100
AcDbPoint
 10
183.3484187085522
 20
220.5827115473271
 30
0.0
  0
POINT
  5
F4B
330
B7D
100
AcDbEntity
  8
DEFPOINTS
  6
CONTINUOUS
 62
     0
100
AcDbPoint
 10
183.3484187085522
 20
125.5827115473271
 30
0.0
  0
POINT
  5
F4C
330
B7D
100
AcDbEntity
  8
DEFPOINTS
  6
CONTINUOUS
 62
     0
100
AcDbPoint
 10
200.976670609547
 20
125.5827115473271
 30
0.0
  0
ENDBLK
  5
B88
330
B7D
100
AcDbEntity
  8
0
100
AcDbBlockEnd
  0
BLOCK
  5
DD5
330
DC8
100
AcDbEntity
  8
0
100
AcDbBlockBegin
  2
WAKU-A3
 70
     0
 10
0.0
 20
0.0
 30
0.0
  3
WAKU-A3
  1

  0
LINE
  5
DC9
330
DC8
100
AcDbEntity
  8
L-1
  6
CONTINUOUS
 62
     5
100
AcDbLine
 10
235.0
 20
36.0
 30
0.0
 11
385.0
 21
36.0
 31
0.0
  0
LINE
  5
DCA
330
DC8
100
AcDbEntity
  8
L-1
  6
CONTINUOUS
 62
     5
100
AcDbLine
 10
235.0
 20
14.0
 30
0.0
 11
385.0
 21
14.0
 31
0.0
  0
LINE
  5
DCB
330
DC8
100
AcDbEntity
  8
L-1
  6
CONTINUOUS
 62
     5
100
AcDbLine
 10
312.0
 20
36.0
 30
0.0
 11
312.0
 21
6.0
 31
0.0
  0
TEXT
  5
DCC
330
DC8
100
AcDbEntity
  8
L-1
  6
CONTINUOUS
 62
     2
100
AcDbText
 10
326.0980555556824
 20
7.873740483041586
 30
0.0
 40
4.4
  1
東京通信機工業株式会社
  7
SIMPLEX
100
AcDbText
  0
INSERT
  5
DCD
330
DC8
100
AcDbEntity
  8
0
100
AcDbBlockReference
  2
TK
 10
324.0726460431471
 20
9.776842374659864
 30
0.0
  0
TEXT
  5
DCE
330
DC8
100
AcDbEntity
  8
L-2
  6
CONTINUOUS
 62
     2
100
AcDbText
 10
330.0893907430333
 20
18.31158028550066
 30
0.0
 40
4.5
  1
アレスタ端子板
  7
BGS
100
AcDbText
  0
TEXT
  5
DCF
330
DC8
100
AcDbEntity
  8
L-2
  6
CONTINUOUS
 62
     2
100
AcDbText
 10
327.0188661916865
 20
26.800374188055
 30
0.0
 40
4.5
  1
MT20-AR1-8
  7
BGS
100
AcDbText
  0
LINE
  5
DD0
330
DC8
100
AcDbEntity
  8
L-1
  6
CONTINUOUS
 62
     5
100
AcDbLine
 10
385.0
 20
275.0
 30
0.0
 11
385.0
 21
6.0
 31
0.0
  0
LINE
  5
DD1
330
DC8
100
AcDbEntity
  8
L-1
  6
CONTINUOUS
 62
     5
100
AcDbLine
 10
6.0
 20
6.0
 30
0.0
 11
385.0
 21
6.0
 31
0.0
  0
LINE
  5
DD2
330
DC8
100
AcDbEntity
  8
L-1
  6
CONTINUOUS
 62
     5
100
AcDbLine
 10
6.0
 20
275.0
 30
0.0
 11
6.0
 21
6.0
 31
0.0
  0
LINE
  5
DD3
330
DC8
100
AcDbEntity
  8
L-1
  6
CONTINUOUS
 62
     5
100
AcDbLine
 10
385.0
 20
275.0
 30
0.0
 11
6.0
 21
275.0
 31
0.0
  0
LINE
  5
DD4
330
DC8
100
AcDbEntity
  8
L-1
  6
CONTINUOUS
 62
     5
100
AcDbLine
 10
235.0
 20
36.0
 30
0.0
 11
235.0
 21
6.0
 31
0.0
  0
ENDBLK
  5
DD6
330
DC8
100
AcDbEntity
  8
0
100
AcDbBlockEnd
  0
ENDSEC
  0
SECTION
  2
ENTITIES
  0
TEXT
  5
382
330
18
100
AcDbEntity
  8
L-2
  6
CONTINUOUS
 62
     2
100
AcDbText
 10
318.1815079904688
 20
22.96486875478808
 30
0.0
 40
4.5
  1
マウントフレーム「」
  7
MSゴシック
100
AcDbText
  0
LINE
  5
5AB
330
18
100
AcDbEntity
  8
L-1
 62
     7
100
AcDbLine
 10
97.12167068953954
 20
200.0827115473272
 30
0.0
 11
104.6216706895395
 21
200.0827115473271
 31
0.0
  0
LINE
  5
5AC
330
18
100
AcDbEntity
  8
L-1
 62
     7
100
AcDbLine
 10
97.12167068953954
 20
198.0827115473271
 30
0.0
 11
106.1216706895395
 21
198.0827115473271
 31
0.0
  0
LINE
  5
5AD
330
18
100
AcDbEntity
  8
L-1
 62
     7
100
AcDbLine
 10
97.12167068953954
 20
204.0827115473271
 30
0.0
 11
104.6216706895395
 21
204.0827115473272
 31
0.0
  0
LINE
  5
5AE
330
18
100
AcDbEntity
  8
L-1
 62
     7
100
AcDbLine
 10
97.12167068953954
 20
186.0827115473272
 30
0.0
 11
104.6216706895395
 21
186.0827115473271
 31
0.0
  0
LINE
  5
5AF
330
18
100
AcDbEntity
  8
L-1
 62
     7
100
AcDbLine
 10
97.12167068953954
 20
190.0827115473271
 30
0.0
 11
104.6216706895395
 21
190.0827115473271
 31
0.0
  0
LINE
  5
5B0
330
18
100
AcDbEntity
  8
L-1
 62
     7
100
AcDbLine
 10
97.12167068953954
 20
192.0827115473271
 30
0.0
 11
106.1216706895395
 21
192.0827115473271
 31
0.0
  0
ARC
  5
5B1
330
18
100
AcDbEntity
  8
L-1
  6
CONTINUOUS
 62
     7
100
AcDbCircle
 10
103.1216706895395
 20
206.5827115473271
 30
0.0
 40
2.6
100
AcDbArc
 50
0.0
 51
180.0
  0
ARC
  5
5B2
330
18
100
AcDbEntity
  8
L-1
  6
CONTINUOUS
 62
     7
100
AcDbCircle
 10
103.1216706895395
 20
183.5827115473271
 30
0.0
 40
2.6
100
AcDbArc
 50
180.0
 51
0.0
  0
LINE
  5
5B3
330
18
100
AcDbEntity
  8
L-1
 62
     7
100
AcDbLine
 10
97.12167068953954
 20
160.082711547327
 30
0.0
 11
104.6216706895395
 21
160.0827115473271
 31
0.0
  0
LINE
  5
5B4
330
18
100
AcDbEntity
  8
L-1
 62
     7
100
AcDbLine
 10
97.12167068953954
 20
156.0827115473271
 30
0.0
 11
104.6216706895395
 21
156.082711547327
 31
0.0
  0
LINE
  5
5B5
330
18
100
AcDbEntity
  8
L-1
 62
     7
100
AcDbLine
 10
97.12167068953954
 20
154.082711547327
 30
0.0
 11
106.1216706895395
 21
154.082711547327
 31
0.0
  0
LINE
  5
5B6
330
18
100
AcDbEntity
  8
L-1
 62
     7
100
AcDbLine
 10
97.12167068953954
 20
146.082711547327
 30
0.0
 11
104.6216706895395
 21
146.0827115473271
 31
0.0
  0
LINE
  5
5B7
330
18
100
AcDbEntity
  8
L-1
 62
     7
100
AcDbLine
 10
97.12167068953954
 20
142.0827115473271
 30
0.0
 11
104.6216706895395
 21
142.082711547327
 31
0.0
  0
LINE
  5
5B8
330
18
100
AcDbEntity
  8
L-1
 62
     7
100
AcDbLine
 10
97.12167068953954
 20
148.0827115473271
 30
0.0
 11
106.1216706895395
 21
148.082711547327
 31
0.0
  0
ARC
  5
5B9
330
18
100
AcDbEntity
  8
L-1
  6
CONTINUOUS
 62
     7
100
AcDbCircle
 10
103.1216706895395
 20
162.582711547327
 30
0.0
 40
2.6
100
AcDbArc
 50
0.0
 51
180.0
  0
ARC
  5
5BE
330
18
100
AcDbEntity
  8
L-1
  6
CONTINUOUS
 62
     7
100
AcDbCircle
 10
103.1216706895395
 20
139.582711547327
 30
0.0
 40
2.6
100
AcDbArc
 50
180.0
 51
0.0
  0
LINE
  5
5C0
330
18
100
AcDbEntity
  8
L-1
  6
CONTINUOUS
 62
     7
100
AcDbLine
 10
65.62167068953951
 20
34.47037614241821
 30
0.0
 11
83.74300328179083
 21
34.47037614241821
 31
0.0
  0
LINE
  5
5C1
330
18
100
AcDbEntity
  8
L-1
  6
DASHED2
 62
     3
 48
0.7
100
AcDbLine
 10
65.62167068953951
 20
35.47037614241821
 30
0.0
 11
84.7790432503646
 21
35.47037614241821
 31
0.0
  0
LINE
  5
5C2
330
18
100
AcDbEntity
  8
L-1
  6
CONTINUOUS
 62
     7
100
AcDbLine
 10
190.6216706895396
 20
110.6327115473271
 30
0.0
 11
87.67309959593035
 21
110.6327115473271
 31
0.0
  0
LINE
  5
5C3
330
18
100
AcDbEntity
  8
L-1
  6
CONTINUOUS
 62
     7
100
AcDbLine
 10
190.6216706895396
 20
111.6327115473271
 30
0.0
 11
87.95354739849257
 21
111.6327115473271
 31
0.0
  0
LINE
  5
5C4
330
18
100
AcDbEntity
  8
L-1
  6
CONTINUOUS
 62
     7
100
AcDbLine
 10
190.6216706895395
 20
234.5327115473271
 30
0.0
 11
87.90437397627963
 21
234.5327115473271
 31
0.0
  0
LINE
  5
5C5
330
18
100
AcDbEntity
  8
L-1
  6
CONTINUOUS
 62
     7
100
AcDbLine
 10
190.6216706895395
 20
235.5327115473271
 30
0.0
 11
87.67309959593035
 21
235.5327115473271
 31
0.0
  0
CIRCLE
  5
5C6
330
18
100
AcDbEntity
  8
L-1
  6
CONTINUOUS
 62
     7
100
AcDbCircle
 10
103.1216706895395
 20
125.5827115473271
 30
0.0
 40
2.6
  0
CIRCLE
  5
5C7
330
18
100
AcDbEntity
  8
L-1
  6
CONTINUOUS
 62
     7
100
AcDbCircle
 10
103.1216706895395
 20
173.0827115473271
 30
0.0
 40
2.6
  0
CIRCLE
  5
5C8
330
18
100
AcDbEntity
  8
L-1
  6
CONTINUOUS
 62
     7
100
AcDbCircle
 10
103.1216706895395
 20
220.5827115473271
 30
0.0
 40
2.6
  0
CIRCLE
  5
5CB
330
18
100
AcDbEntity
  8
L-1
  6
CONTINUOUS
 62
     7
100
AcDbCircle
 10
103.1216706895395
 20
54.47037614241821
 30
0.0
 40
2.6
  0
CIRCLE
  5
5CC
330
18
100
AcDbEntity
  8
L-1
  6
CONTINUOUS
 62
     7
100
AcDbCircle
 10
103.1216706895395
 20
44.47037614241821
 30
0.0
 40
2.6
  0
LINE
  5
5CE
330
18
100
AcDbEntity
  8
L-1
  6
CONTINUOUS
 62
     7
100
AcDbLine
 10
100.3716706895395
 20
72.97037614241827
 30
0.0
 11
105.8716706895395
 21
72.97037614241822
 31
0.0
  0
LINE
  5
5CF
330
18
100
AcDbEntity
  8
L-1
  6
CONTINUOUS
 62
     7
100
AcDbLine
 10
100.3716706895395
 20
68.97037614241821
 30
0.0
 11
105.8716706895395
 21
68.97037614241821
 31
0.0
  0
CIRCLE
  5
5D2
330
18
100
AcDbEntity
  8
L-1
  6
CONTINUOUS
 62
     7
100
AcDbCircle
 10
78.12167068953954
 20
125.5827115473271
 30
0.0
 40
2.6
  0
LINE
  5
5D3
330
18
100
AcDbEntity
  8
L-1
  6
CONTINUOUS
 62
     7
100
AcDbLine
 10
65.62167068953954
 20
110.6327115473271
 30
0.0
 11
65.62167068953954
 21
235.532711547327
 31
0.0
  0
LINE
  5
5D6
330
18
100
AcDbEntity
  8
L-1
  6
CONTINUOUS
 62
     7
100
AcDbLine
 10
65.62167068953954
 20
34.47037614241821
 30
0.0
 11
65.62167068953954
 21
72.47037614241822
 31
0.0
  0
CIRCLE
  5
5DA
330
18
100
AcDbEntity
  8
L-1
  6
CONTINUOUS
 62
     7
100
AcDbCircle
 10
78.12167068953954
 20
54.47037614241821
 30
0.0
 40
2.6
  0
CIRCLE
  5
5DB
330
18
100
AcDbEntity
  8
L-1
  6
CONTINUOUS
 62
     7
100
AcDbCircle
 10
78.12167068953954
 20
44.47037614241821
 30
0.0
 40
2.6
  0
LINE
  5
5DE
330
18
100
AcDbEntity
  8
L-1
  6
CONTINUOUS
 62
     7
100
AcDbLine
 10
67.62167068953954
 20
84.47037614241821
 30
0.0
 11
72.12167068953954
 21
84.47037614241821
 31
0.0
  0
LINE
  5
5DF
330
18
100
AcDbEntity
  8
L-1
 62
     7
 48
0.5
100
AcDbLine
 10
66.62167068953954
 20
83.47037614241822
 30
0.0
 11
66.62167068953954
 21
73.47037614241822
 31
0.0
  0
ARC
  5
5E0
330
18
100
AcDbEntity
  8
L-1
 62
     7
100
AcDbCircle
 10
65.62167068953954
 20
73.47037614241822
 30
0.0
 40
1.0
100
AcDbArc
 50
270.0
 51
0.0
  0
ARC
  5
5E1
330
18
100
AcDbEntity
  8
L-1
  6
CONTINUOUS
 62
     7
100
AcDbCircle
 10
67.62167068953954
 20
83.47037614241822
 30
0.0
 40
1.0
100
AcDbArc
 50
90.00000000000026
 51
180.0
  0
LINE
  5
5E2
330
18
100
AcDbEntity
  8
L-1
  6
CONTINUOUS
 62
     7
100
AcDbLine
 10
84.12167068953953
 20
84.47037614241821
 30
0.0
 11
85.20123116943659
 21
84.47037614241821
 31
0.0
  0
LINE
  5
5E3
330
18
100
AcDbEntity
  8
L-1
  6
CONTINUOUS
 62
     7
100
AcDbLine
 10
75.37167068953954
 20
72.97037614241827
 30
0.0
 11
80.87167068953954
 21
72.97037614241822
 31
0.0
  0
LINE
  5
5E4
330
18
100
AcDbEntity
  8
L-1
  6
CONTINUOUS
 62
     7
100
AcDbLine
 10
75.37167068953954
 20
68.97037614241821
 30
0.0
 11
80.87167068953954
 21
68.97037614241821
 31
0.0
  0
ARC
  5
5E6
330
18
100
AcDbEntity
  8
L-1
  6
CONTINUOUS
 62
     7
100
AcDbCircle
 10
75.37167068953954
 20
72.47037614241827
 30
0.0
 40
0.5
100
AcDbArc
 50
90.0
 51
180.0
  0
ARC
  5
5E7
330
18
100
AcDbEntity
  8
L-1
  6
CONTINUOUS
 62
     7
100
AcDbCircle
 10
75.37167068953954
 20
69.47037614241821
 30
0.0
 40
0.5
100
AcDbArc
 50
179.9999999999998
 51
270.0
  0
LINE
  5
5E9
330
18
100
AcDbEntity
  8
L-1
  6
CONTINUOUS
 62
     7
100
AcDbLine
 10
74.87167068953954
 20
72.47037614241827
 30
0.0
 11
74.87167068953954
 21
69.47037614241821
 31
0.0
  0
ARC
  5
5EA
330
18
100
AcDbEntity
  8
L-1
  6
CONTINUOUS
 62
     7
100
AcDbCircle
 10
80.87167068953954
 20
72.47037614241822
 30
0.0
 40
0.5
100
AcDbArc
 50
0.0000000000001018
 51
89.99999999999987
  0
ARC
  5
5EB
330
18
100
AcDbEntity
  8
L-1
  6
CONTINUOUS
 62
     7
100
AcDbCircle
 10
80.87167068953954
 20
69.47037614241821
 30
0.0
 40
0.5
100
AcDbArc
 50
270.0
 51
0.0000000000001145
  0
LINE
  5
5EC
330
18
100
AcDbEntity
  8
L-1
  6
CONTINUOUS
 62
     7
100
AcDbLine
 10
81.37167068953955
 20
72.47037614241822
 30
0.0
 11
81.37167068953955
 21
69.47037614241821
 31
0.0
  0
LINE
  5
5F0
330
18
100
AcDbEntity
  8
L-1
  6
CENTER2
 62
     7
100
AcDbLine
 10
73.12167068953954
 20
83.47037614241822
 30
0.0
 11
73.12167068953954
 21
81.47037614241833
 31
0.0
  0
ARC
  5
5F1
330
18
100
AcDbEntity
  8
L-1
  6
CONTINUOUS
 62
     7
100
AcDbCircle
 10
74.12167068953954
 20
81.47037614241833
 30
0.0
 40
1.0
100
AcDbArc
 50
180.0
 51
269.9999999999997
  0
ARC
  5
5F4
330
18
100
AcDbEntity
  8
L-1
  6
CONTINUOUS
 62
     7
100
AcDbCircle
 10
72.12167068953954
 20
83.47037614241822
 30
0.0
 40
1.0
100
AcDbArc
 50
0.0
 51
89.99999999999971
  0
ARC
  5
5F5
330
18
100
AcDbEntity
  8
L-1
  6
CONTINUOUS
 62
     7
100
AcDbCircle
 10
82.12167068953954
 20
81.47037614241828
 30
0.0
 40
1.0
100
AcDbArc
 50
269.9999999999997
 51
0.0
  0
LINE
  5
5F7
330
18
100
AcDbEntity
  8
L-1
  6
CENTER2
 62
     7
100
AcDbLine
 10
83.12167068953954
 20
83.47037614241822
 30
0.0
 11
83.12167068953954
 21
81.47037614241828
 31
0.0
  0
ARC
  5
5F9
330
18
100
AcDbEntity
  8
L-1
  6
CONTINUOUS
 62
     7
100
AcDbCircle
 10
84.12167068953953
 20
83.47037614241822
 30
0.0
 40
1.0
100
AcDbArc
 50
90.00000000000003
 51
180.0000000000002
  0
LINE
  5
5FA
330
18
100
AcDbEntity
  8
L-1
 62
     7
 48
0.5
100
AcDbLine
 10
89.62167068953954
 20
83.47037614241822
 30
0.0
 11
89.62167068953954
 21
73.47037614241822
 31
0.0
  0
LINE
  5
5FB
330
18
100
AcDbEntity
  8
L-1
 62
     7
 48
0.5
100
AcDbLine
 10
91.62167068953953
 20
83.47037614241822
 30
0.0
 11
91.62167068953953
 21
73.47037614241822
 31
0.0
  0
ARC
  5
5FC
330
18
100
AcDbEntity
  8
L-1
 62
     7
100
AcDbCircle
 10
90.62167068953954
 20
73.47037614241822
 30
0.0
 40
1.0
100
AcDbArc
 50
180.0
 51
0.0
  0
ARC
  5
5FD
330
18
100
AcDbEntity
  8
L-1
 62
     7
100
AcDbCircle
 10
90.62167068953954
 20
73.47037614241822
 30
0.0
 40
1.0
100
AcDbArc
 50
270.0
 51
0.0
  0
ARC
  5
5FF
330
18
100
AcDbEntity
  8
L-1
  6
CONTINUOUS
 62
     7
100
AcDbCircle
 10
100.3716706895395
 20
72.47037614241827
 30
0.0
 40
0.5
100
AcDbArc
 50
90.0
 51
180.0
  0
ARC
  5
600
330
18
100
AcDbEntity
  8
L-1
  6
CONTINUOUS
 62
     7
100
AcDbCircle
 10
100.3716706895395
 20
69.47037614241821
 30
0.0
 40
0.5
100
AcDbArc
 50
179.9999999999998
 51
270.0
  0
LINE
  5
601
330
18
100
AcDbEntity
  8
L-1
  6
CONTINUOUS
 62
     7
100
AcDbLine
 10
99.87167068953954
 20
72.47037614241827
 30
0.0
 11
99.87167068953954
 21
69.47037614241821
 31
0.0
  0
LINE
  5
602
330
18
100
AcDbEntity
  8
L-1
  6
CONTINUOUS
 62
     7
100
AcDbLine
 10
92.62167068953955
 20
84.47037614241821
 30
0.0
 11
97.12167068953954
 21
84.47037614241821
 31
0.0
  0
ARC
  5
603
330
18
100
AcDbEntity
  8
L-1
  6
CONTINUOUS
 62
     7
 48
0.5
100
AcDbCircle
 10
88.62167068953954
 20
83.47037614241822
 30
0.0
 40
1.0
100
AcDbArc
 50
0.0
 51
90.0000000000001
  0
ARC
  5
604
330
18
100
AcDbEntity
  8
L-1
  6
CONTINUOUS
 62
     7
100
AcDbCircle
 10
92.62167068953955
 20
83.47037614241822
 30
0.0
 40
1.0
100
AcDbArc
 50
90.00000000000026
 51
180.0
  0
ARC
  5
605
330
18
100
AcDbEntity
  8
L-1
  6
CONTINUOUS
 62
     7
100
AcDbCircle
 10
97.12167068953954
 20
83.47037614241822
 30
0.0
 40
1.0
100
AcDbArc
 50
0.0
 51
89.99999999999971
  0
LINE
  5
608
330
18
100
AcDbEntity
  8
L-1
  6
CENTER2
 62
     7
100
AcDbLine
 10
98.12167068953954
 20
83.47037614241822
 30
0.0
 11
98.12167068953954
 21
81.47037614241833
 31
0.0
  0
ARC
  5
609
330
18
100
AcDbEntity
  8
L-1
  6
CONTINUOUS
 62
     7
100
AcDbCircle
 10
99.12167068953955
 20
81.47037614241833
 30
0.0
 40
1.0
100
AcDbArc
 50
180.0
 51
269.9999999999997
  0
LINE
  5
60B
330
18
100
AcDbEntity
  8
L-1
  6
CONTINUOUS
 62
     7
100
AcDbLine
 10
66.62167068953954
 20
110.6327115473271
 30
0.0
 11
66.62167068953954
 21
111.6327115473271
 31
0.0
  0
LINE
  5
60D
330
18
100
AcDbEntity
  8
L-1
  6
CONTINUOUS
 62
     7
100
AcDbLine
 10
73.12167068953954
 20
110.6327115473271
 30
0.0
 11
73.12167068953954
 21
111.6327115473271
 31
0.0
  0
LINE
  5
60E
330
18
100
AcDbEntity
  8
L-1
  6
CONTINUOUS
 62
     7
100
AcDbLine
 10
83.12167068953954
 20
110.6327115473271
 30
0.0
 11
83.12167068953954
 21
111.6327115473271
 31
0.0
  0
LINE
  5
60F
330
18
100
AcDbEntity
  8
L-1
  6
CONTINUOUS
 62
     7
100
AcDbLine
 10
89.62167068953954
 20
110.6327115473271
 30
0.0
 11
89.62167068953954
 21
111.6327115473271
 31
0.0
  0
LINE
  5
610
330
18
100
AcDbEntity
  8
L-1
  6
CONTINUOUS
 62
     7
100
AcDbLine
 10
91.62167068953953
 20
110.6327115473271
 30
0.0
 11
91.62167068953953
 21
111.6327115473271
 31
0.0
  0
LINE
  5
611
330
18
100
AcDbEntity
  8
L-1
  6
CONTINUOUS
 62
     7
100
AcDbLine
 10
98.12167068953954
 20
110.6327115473271
 30
0.0
 11
98.12167068953954
 21
111.6327115473271
 31
0.0
  0
ARC
  5
614
330
18
100
AcDbEntity
  8
L-1
 62
     7
100
AcDbCircle
 10
81.12167068953954
 20
144.082711547327
 30
0.0
 40
4.0
100
AcDbArc
 50
270.0
 51
90.00000000000003
  0
ARC
  5
615
330
18
100
AcDbEntity
  8
L-1
 62
     7
100
AcDbCircle
 10
72.12167068953954
 20
147.082711547327
 30
0.0
 40
1.0
100
AcDbArc
 50
90.00000000000003
 51
270.0
  0
ARC
  5
616
330
18
100
AcDbEntity
  8
L-1
 62
     7
100
AcDbCircle
 10
97.12167068953954
 20
147.082711547327
 30
0.0
 40
1.0
100
AcDbArc
 50
90.00000000000003
 51
270.0
  0
ARC
  5
617
330
18
100
AcDbEntity
  8
L-1
  6
CONTINUOUS
 62
     7
100
AcDbCircle
 10
78.12167068953954
 20
139.582711547327
 30
0.0
 40
2.6
100
AcDbArc
 50
180.0
 51
0.0
  0
LINE
  5
618
330
18
100
AcDbEntity
  8
L-1
 62
     7
100
AcDbLine
 10
72.12167068953954
 20
142.0827115473271
 30
0.0
 11
79.62167068953954
 21
142.082711547327
 31
0.0
  0
LINE
  5
619
330
18
100
AcDbEntity
  8
L-1
 62
     7
100
AcDbLine
 10
72.12167068953954
 20
146.082711547327
 30
0.0
 11
79.62167068953954
 21
146.0827115473271
 31
0.0
  0
LINE
  5
61A
330
18
100
AcDbEntity
  8
L-1
 62
     7
100
AcDbLine
 10
72.12167068953954
 20
140.082711547327
 30
0.0
 11
75.52167068953952
 21
140.082711547327
 31
0.0
  0
ARC
  5
61B
330
18
100
AcDbEntity
  8
L-1
 62
     7
100
AcDbCircle
 10
72.12167068953954
 20
141.082711547327
 30
0.0
 40
1.0
100
AcDbArc
 50
90.00000000000003
 51
270.0
  0
LINE
  5
61C
330
18
100
AcDbEntity
  8
L-1
  6
CONTINUOUS
 62
     7
100
AcDbLine
 10
75.52167068953952
 20
139.582711547327
 30
0.0
 11
75.52167068953952
 21
140.082711547327
 31
0.0
  0
ARC
  5
61D
330
18
100
AcDbEntity
  8
L-1
 62
     7
100
AcDbCircle
 10
81.12167068953954
 20
144.082711547327
 30
0.0
 40
2.5
100
AcDbArc
 50
233.1301023541548
 51
126.8698976458437
  0
LINE
  5
61E
330
18
100
AcDbEntity
  8
L-1
  6
CONTINUOUS
 62
     7
100
AcDbLine
 10
80.72167068953957
 20
139.582711547327
 30
0.0
 11
80.72167068953957
 21
140.082711547327
 31
0.0
  0
LINE
  5
61F
330
18
100
AcDbEntity
  8
L-1
 62
     7
100
AcDbLine
 10
80.72167068953957
 20
140.082711547327
 30
0.0
 11
81.12167068953954
 21
140.082711547327
 31
0.0
  0
LINE
  5
620
330
18
100
AcDbEntity
  8
L-1
 62
     7
100
AcDbLine
 10
97.12167068953954
 20
140.082711547327
 30
0.0
 11
100.5216706895395
 21
140.082711547327
 31
0.0
  0
ARC
  5
621
330
18
100
AcDbEntity
  8
L-1
 62
     7
100
AcDbCircle
 10
97.12167068953954
 20
141.082711547327
 30
0.0
 40
1.0
100
AcDbArc
 50
90.00000000000003
 51
270.0
  0
LINE
  5
622
330
18
100
AcDbEntity
  8
L-1
  6
CONTINUOUS
 62
     7
100
AcDbLine
 10
100.5216706895395
 20
139.582711547327
 30
0.0
 11
100.5216706895395
 21
140.082711547327
 31
0.0
  0
ARC
  5
623
330
18
100
AcDbEntity
  8
L-1
 62
     7
100
AcDbCircle
 10
81.12167068953954
 20
158.082711547327
 30
0.0
 40
2.5
100
AcDbArc
 50
233.1301023541548
 51
126.8698976458437
  0
ARC
  5
624
330
18
100
AcDbEntity
  8
L-1
 62
     7
100
AcDbCircle
 10
81.12167068953954
 20
158.082711547327
 30
0.0
 40
4.0
100
AcDbArc
 50
270.0
 51
90.00000000000003
  0
LINE
  5
625
330
18
100
AcDbEntity
  8
L-1
 62
     7
100
AcDbLine
 10
72.12167068953954
 20
154.082711547327
 30
0.0
 11
81.12167068953954
 21
154.082711547327
 31
0.0
  0
LINE
  5
626
330
18
100
AcDbEntity
  8
L-1
 62
     7
100
AcDbLine
 10
72.12167068953954
 20
156.0827115473271
 30
0.0
 11
79.62167068953954
 21
156.082711547327
 31
0.0
  0
LINE
  5
627
330
18
100
AcDbEntity
  8
L-1
 62
     7
100
AcDbLine
 10
72.12167068953954
 20
148.0827115473271
 30
0.0
 11
81.12167068953954
 21
148.082711547327
 31
0.0
  0
ARC
  5
628
330
18
100
AcDbEntity
  8
L-1
 62
     7
100
AcDbCircle
 10
72.12167068953954
 20
155.082711547327
 30
0.0
 40
1.0
100
AcDbArc
 50
90.00000000000003
 51
270.0
  0
LINE
  5
629
330
18
100
AcDbEntity
  8
L-1
 62
     7
100
AcDbLine
 10
72.12167068953954
 20
160.082711547327
 30
0.0
 11
79.62167068953954
 21
160.0827115473271
 31
0.0
  0
ARC
  5
62A
330
18
100
AcDbEntity
  8
L-1
  6
CONTINUOUS
 62
     7
100
AcDbCircle
 10
78.12167068953954
 20
162.582711547327
 30
0.0
 40
2.6
100
AcDbArc
 50
0.0
 51
180.0
  0
LINE
  5
62B
330
18
100
AcDbEntity
  8
L-1
 62
     7
100
AcDbLine
 10
72.12167068953954
 20
162.0827115473271
 30
0.0
 11
75.52167068953952
 21
162.0827115473271
 31
0.0
  0
ARC
  5
62C
330
18
100
AcDbEntity
  8
L-1
 62
     7
100
AcDbCircle
 10
72.12167068953954
 20
161.082711547327
 30
0.0
 40
1.0
100
AcDbArc
 50
90.00000000000003
 51
270.0
  0
LINE
  5
62D
330
18
100
AcDbEntity
  8
L-1
  6
CONTINUOUS
 62
     7
100
AcDbLine
 10
75.52167068953952
 20
162.582711547327
 30
0.0
 11
75.52167068953952
 21
162.0827115473271
 31
0.0
  0
LINE
  5
62E
330
18
100
AcDbEntity
  8
L-1
  6
CONTINUOUS
 62
     7
100
AcDbLine
 10
80.72167068953957
 20
162.582711547327
 30
0.0
 11
80.72167068953957
 21
162.082711547327
 31
0.0
  0
LINE
  5
62F
330
18
100
AcDbEntity
  8
L-1
 62
     7
100
AcDbLine
 10
80.72167068953957
 20
162.082711547327
 30
0.0
 11
81.12167068953954
 21
162.082711547327
 31
0.0
  0
ARC
  5
630
330
18
100
AcDbEntity
  8
L-1
 62
     7
100
AcDbCircle
 10
97.12167068953954
 20
155.082711547327
 30
0.0
 40
1.0
100
AcDbArc
 50
90.00000000000003
 51
270.0
  0
LINE
  5
631
330
18
100
AcDbEntity
  8
L-1
 62
     7
100
AcDbLine
 10
97.12167068953954
 20
162.0827115473271
 30
0.0
 11
100.5216706895395
 21
162.0827115473271
 31
0.0
  0
ARC
  5
632
330
18
100
AcDbEntity
  8
L-1
 62
     7
100
AcDbCircle
 10
97.12167068953954
 20
161.082711547327
 30
0.0
 40
1.0
100
AcDbArc
 50
90.00000000000003
 51
270.0
  0
LINE
  5
633
330
18
100
AcDbEntity
  8
L-1
  6
CONTINUOUS
 62
     7
100
AcDbLine
 10
100.5216706895395
 20
162.582711547327
 30
0.0
 11
100.5216706895395
 21
162.0827115473271
 31
0.0
  0
ARC
  5
636
330
18
100
AcDbEntity
  8
L-1
 62
     7
100
AcDbCircle
 10
81.12167068953954
 20
188.0827115473271
 30
0.0
 40
4.0
100
AcDbArc
 50
270.0
 51
90.0
  0
ARC
  5
637
330
18
100
AcDbEntity
  8
L-1
 62
     7
100
AcDbCircle
 10
72.12167068953954
 20
191.0827115473271
 30
0.0
 40
1.0
100
AcDbArc
 50
90.0
 51
270.0
  0
ARC
  5
638
330
18
100
AcDbEntity
  8
L-1
 62
     7
100
AcDbCircle
 10
97.12167068953954
 20
191.0827115473271
 30
0.0
 40
1.0
100
AcDbArc
 50
90.0
 51
270.0
  0
CIRCLE
  5
639
330
18
100
AcDbEntity
  8
L-1
  6
CONTINUOUS
 62
     7
100
AcDbCircle
 10
78.12167068953954
 20
173.0827115473271
 30
0.0
 40
2.6
  0
LINE
  5
63A
330
18
100
AcDbEntity
  8
L-1
 62
     7
100
AcDbLine
 10
72.12167068953954
 20
190.0827115473271
 30
0.0
 11
79.62167068953954
 21
190.0827115473271
 31
0.0
  0
LINE
  5
63B
330
18
100
AcDbEntity
  8
L-1
 62
     7
100
AcDbLine
 10
72.12167068953954
 20
186.0827115473272
 30
0.0
 11
79.62167068953954
 21
186.0827115473271
 31
0.0
  0
ARC
  5
63C
330
18
100
AcDbEntity
  8
L-1
  6
CONTINUOUS
 62
     7
100
AcDbCircle
 10
78.12167068953954
 20
183.5827115473271
 30
0.0
 40
2.6
100
AcDbArc
 50
180.0
 51
0.0
  0
ARC
  5
63D
330
18
100
AcDbEntity
  8
L-1
 62
     7
100
AcDbCircle
 10
72.12167068953954
 20
185.0827115473272
 30
0.0
 40
1.0
100
AcDbArc
 50
90.0
 51
270.0
  0
LINE
  5
63E
330
18
100
AcDbEntity
  8
L-1
 62
     7
100
AcDbLine
 10
72.12167068953954
 20
184.0827115473271
 30
0.0
 11
75.52167068953952
 21
184.0827115473271
 31
0.0
  0
LINE
  5
63F
330
18
100
AcDbEntity
  8
L-1
  6
CONTINUOUS
 62
     7
100
AcDbLine
 10
75.52167068953952
 20
183.5827115473271
 30
0.0
 11
75.52167068953952
 21
184.0827115473271
 31
0.0
  0
ARC
  5
640
330
18
100
AcDbEntity
  8
L-1
 62
     7
100
AcDbCircle
 10
81.12167068953954
 20
188.0827115473271
 30
0.0
 40
2.5
100
AcDbArc
 50
233.1301023541562
 51
126.8698976458451
  0
LINE
  5
641
330
18
100
AcDbEntity
  8
L-1
 62
     7
100
AcDbLine
 10
80.72167068953957
 20
184.0827115473272
 30
0.0
 11
81.12167068953954
 21
184.0827115473272
 31
0.0
  0
LINE
  5
642
330
18
100
AcDbEntity
  8
L-1
  6
CONTINUOUS
 62
     7
100
AcDbLine
 10
80.72167068953957
 20
183.5827115473271
 30
0.0
 11
80.72167068953957
 21
184.0827115473272
 31
0.0
  0
ARC
  5
643
330
18
100
AcDbEntity
  8
L-1
 62
     7
100
AcDbCircle
 10
97.12167068953954
 20
185.0827115473272
 30
0.0
 40
1.0
100
AcDbArc
 50
90.0
 51
270.0
  0
LINE
  5
644
330
18
100
AcDbEntity
  8
L-1
 62
     7
100
AcDbLine
 10
97.12167068953954
 20
184.0827115473271
 30
0.0
 11
100.5216706895395
 21
184.0827115473271
 31
0.0
  0
LINE
  5
645
330
18
100
AcDbEntity
  8
L-1
  6
CONTINUOUS
 62
     7
100
AcDbLine
 10
100.5216706895395
 20
183.5827115473271
 30
0.0
 11
100.5216706895395
 21
184.0827115473271
 31
0.0
  0
ARC
  5
646
330
18
100
AcDbEntity
  8
L-1
 62
     7
100
AcDbCircle
 10
81.12167068953954
 20
202.0827115473271
 30
0.0
 40
2.5
100
AcDbArc
 50
233.1301023541562
 51
126.8698976458451
  0
ARC
  5
647
330
18
100
AcDbEntity
  8
L-1
 62
     7
100
AcDbCircle
 10
81.12167068953954
 20
202.0827115473271
 30
0.0
 40
4.0
100
AcDbArc
 50
270.0
 51
90.0
  0
LINE
  5
648
330
18
100
AcDbEntity
  8
L-1
 62
     7
100
AcDbLine
 10
72.12167068953954
 20
198.0827115473271
 30
0.0
 11
81.12167068953954
 21
198.0827115473271
 31
0.0
  0
LINE
  5
649
330
18
100
AcDbEntity
  8
L-1
 62
     7
100
AcDbLine
 10
72.12167068953954
 20
200.0827115473272
 30
0.0
 11
79.62167068953954
 21
200.0827115473271
 31
0.0
  0
LINE
  5
64A
330
18
100
AcDbEntity
  8
L-1
 62
     7
100
AcDbLine
 10
72.12167068953954
 20
192.0827115473271
 30
0.0
 11
81.12167068953954
 21
192.0827115473271
 31
0.0
  0
ARC
  5
64B
330
18
100
AcDbEntity
  8
L-1
 62
     7
100
AcDbCircle
 10
72.12167068953954
 20
199.0827115473272
 30
0.0
 40
1.0
100
AcDbArc
 50
90.0
 51
270.0
  0
LINE
  5
64C
330
18
100
AcDbEntity
  8
L-1
 62
     7
100
AcDbLine
 10
72.12167068953954
 20
204.0827115473271
 30
0.0
 11
79.62167068953954
 21
204.0827115473272
 31
0.0
  0
ARC
  5
64D
330
18
100
AcDbEntity
  8
L-1
  6
CONTINUOUS
 62
     7
100
AcDbCircle
 10
78.12167068953954
 20
206.5827115473271
 30
0.0
 40
2.6
100
AcDbArc
 50
0.0
 51
180.0
  0
LINE
  5
64E
330
18
100
AcDbEntity
  8
L-1
 62
     7
100
AcDbLine
 10
72.12167068953954
 20
206.0827115473272
 30
0.0
 11
75.52167068953952
 21
206.0827115473272
 31
0.0
  0
ARC
  5
64F
330
18
100
AcDbEntity
  8
L-1
 62
     7
100
AcDbCircle
 10
72.12167068953954
 20
205.0827115473271
 30
0.0
 40
1.0
100
AcDbArc
 50
90.0
 51
270.0
  0
LINE
  5
650
330
18
100
AcDbEntity
  8
L-1
  6
CONTINUOUS
 62
     7
100
AcDbLine
 10
75.52167068953952
 20
206.5827115473271
 30
0.0
 11
75.52167068953952
 21
206.0827115473272
 31
0.0
  0
LINE
  5
651
330
18
100
AcDbEntity
  8
L-1
 62
     7
100
AcDbLine
 10
80.72167068953957
 20
206.0827115473272
 30
0.0
 11
81.12167068953954
 21
206.0827115473272
 31
0.0
  0
LINE
  5
652
330
18
100
AcDbEntity
  8
L-1
  6
CONTINUOUS
 62
     7
100
AcDbLine
 10
80.72167068953957
 20
206.5827115473271
 30
0.0
 11
80.72167068953957
 21
206.0827115473272
 31
0.0
  0
ARC
  5
653
330
18
100
AcDbEntity
  8
L-1
 62
     7
100
AcDbCircle
 10
97.12167068953954
 20
199.0827115473272
 30
0.0
 40
1.0
100
AcDbArc
 50
90.0
 51
270.0
  0
LINE
  5
654
330
18
100
AcDbEntity
  8
L-1
 62
     7
100
AcDbLine
 10
97.12167068953954
 20
206.0827115473272
 30
0.0
 11
100.5216706895395
 21
206.0827115473272
 31
0.0
  0
ARC
  5
655
330
18
100
AcDbEntity
  8
L-1
 62
     7
100
AcDbCircle
 10
97.12167068953954
 20
205.0827115473271
 30
0.0
 40
1.0
100
AcDbArc
 50
90.0
 51
270.0
  0
LINE
  5
656
330
18
100
AcDbEntity
  8
L-1
  6
CONTINUOUS
 62
     7
100
AcDbLine
 10
100.5216706895395
 20
206.5827115473271
 30
0.0
 11
100.5216706895395
 21
206.0827115473272
 31
0.0
  0
LINE
  5
657
330
18
100
AcDbEntity
  8
L-1
  6
CONTINUOUS
 62
     7
100
AcDbLine
 10
66.62167068953954
 20
234.5327115473271
 30
0.0
 11
66.62167068953954
 21
235.5327115473271
 31
0.0
  0
LINE
  5
658
330
18
100
AcDbEntity
  8
L-1
  6
CONTINUOUS
 62
     7
100
AcDbLine
 10
83.12167068953954
 20
234.5327115473271
 30
0.0
 11
83.12167068953954
 21
235.5327115473271
 31
0.0
  0
LINE
  5
659
330
18
100
AcDbEntity
  8
L-1
  6
CONTINUOUS
 62
     7
100
AcDbLine
 10
89.62167068953954
 20
234.5327115473271
 30
0.0
 11
89.62167068953954
 21
235.5327115473271
 31
0.0
  0
LINE
  5
65A
330
18
100
AcDbEntity
  8
L-1
  6
CONTINUOUS
 62
     7
100
AcDbLine
 10
73.12167068953954
 20
234.5327115473271
 30
0.0
 11
73.12167068953954
 21
235.5327115473271
 31
0.0
  0
LINE
  5
65C
330
18
100
AcDbEntity
  8
L-1
  6
CONTINUOUS
 62
     7
100
AcDbLine
 10
98.12167068953954
 20
234.5327115473271
 30
0.0
 11
98.12167068953954
 21
235.5327115473271
 31
0.0
  0
LINE
  5
65D
330
18
100
AcDbEntity
  8
L-1
  6
CONTINUOUS
 62
     7
100
AcDbLine
 10
91.62167068953953
 20
234.5327115473271
 30
0.0
 11
91.62167068953953
 21
235.5327115473271
 31
0.0
  0
CIRCLE
  5
65F
330
18
100
AcDbEntity
  8
L-1
  6
CONTINUOUS
 62
     7
100
AcDbCircle
 10
78.12167068953954
 20
220.5827115473271
 30
0.0
 40
2.6
  0
DIMENSION
  5
660
330
18
100
AcDbEntity
  8
L-2
  6
CONTINUOUS
100
AcDbDimension
  2
*D4
 10
210.9220921261676
 20
110.6327115473271
 30
0.0
 11
208.8220921261676
 21
173.0827115473271
 31
0.0
 70
    32
  3
CAD-STD1
100
AcDbAlignedDimension
 13
190.6216706895395
 23
235.5327115473271
 33
0.0
 14
190.6216706895396
 24
110.6327115473271
 34
0.0
 50
90.0
100
AcDbRotatedDimension
  0
CIRCLE
  5
661
330
18
100
AcDbEntity
  8
L-1
  6
CONTINUOUS
 62
     7
100
AcDbCircle
 10
178.1216706895395
 20
125.5827115473271
 30
0.0
 40
2.6
  0
CIRCLE
  5
662
330
18
100
AcDbEntity
  8
L-1
  6
CONTINUOUS
 62
     7
100
AcDbCircle
 10
153.1216706895395
 20
125.5827115473271
 30
0.0
 40
2.6
  0
CIRCLE
  5
663
330
18
100
AcDbEntity
  8
L-1
  6
CONTINUOUS
 62
     7
100
AcDbCircle
 10
128.1216706895395
 20
125.5827115473271
 30
0.0
 40
2.6
  0
LINE
  5
664
330
18
100
AcDbEntity
  8
L-1
  6
CENTER2
 62
     1
 48
0.5
100
AcDbLine
 10
178.1216706895395
 20
118.3167976086984
 30
0.0
 11
178.1216706895395
 21
226.2507602861544
 31
0.0
  0
LINE
  5
668
330
18
100
AcDbEntity
  8
L-1
  6
CONTINUOUS
 62
     7
100
AcDbLine
 10
190.6216706895395
 20
110.6327115473271
 30
0.0
 11
190.6216706895395
 21
235.532711547327
 31
0.0
  0
DIMENSION
  5
669
330
18
100
AcDbEntity
  8
L-2
  6
CONTINUOUS
100
AcDbDimension
  2
*D5
 10
210.8148639510122
 20
34.47037614241821
 30
0.0
 11
208.7148639510123
 21
59.47037614241825
 31
0.0
 70
    32
  3
CAD-STD1
100
AcDbAlignedDimension
 13
188.6216706895395
 23
84.47037614241821
 33
0.0
 14
190.6216706895395
 24
34.47037614241821
 34
0.0
 50
90.0
100
AcDbRotatedDimension
  0
LINE
  5
66A
330
18
100
AcDbEntity
  8
L-1
  6
CONTINUOUS
 62
     7
100
AcDbLine
 10
190.6216706895395
 20
34.47037614241821
 30
0.0
 11
190.6216706895395
 21
72.47037614241822
 31
0.0
  0
CIRCLE
  5
677
330
18
100
AcDbEntity
  8
L-1
  6
CONTINUOUS
 62
     7
100
AcDbCircle
 10
128.1216706895395
 20
54.47037614241821
 30
0.0
 40
2.6
  0
CIRCLE
  5
678
330
18
100
AcDbEntity
  8
L-1
  6
CONTINUOUS
 62
     7
100
AcDbCircle
 10
128.1216706895395
 20
44.47037614241821
 30
0.0
 40
2.6
  0
CIRCLE
  5
67C
330
18
100
AcDbEntity
  8
L-1
  6
CONTINUOUS
 62
     7
100
AcDbCircle
 10
153.1216706895395
 20
54.47037614241821
 30
0.0
 40
2.6
  0
CIRCLE
  5
67E
330
18
100
AcDbEntity
  8
L-1
  6
CONTINUOUS
 62
     7
100
AcDbCircle
 10
153.1216706895395
 20
44.47037614241821
 30
0.0
 40
2.6
  0
CIRCLE
  5
686
330
18
100
AcDbEntity
  8
L-1
  6
CONTINUOUS
 62
     7
100
AcDbCircle
 10
178.1216706895395
 20
54.47037614241821
 30
0.0
 40
2.6
  0
CIRCLE
  5
687
330
18
100
AcDbEntity
  8
L-1
  6
CONTINUOUS
 62
     7
100
AcDbCircle
 10
178.1216706895395
 20
44.47037614241821
 30
0.0
 40
2.6
  0
DIMENSION
  5
689
330
18
100
AcDbEntity
  8
L-2
  6
CONTINUOUS
100
AcDbDimension
  2
*D6
 10
153.1216706895395
 20
102.4781098829712
 30
0.0
 11
165.6216706895395
 21
104.5781098829712
 31
0.0
 70
    32
  3
CAD-STD1
100
AcDbAlignedDimension
 13
178.1216706895395
 23
107.4172316311362
 33
0.0
 14
153.1216706895395
 24
107.4172316311362
 34
0.0
100
AcDbRotatedDimension
  0
LINE
  5
68A
330
18
100
AcDbEntity
  8
L-1
  6
CONTINUOUS
 62
     7
100
AcDbLine
 10
159.1216706895395
 20
84.47037614241821
 30
0.0
 11
163.6216706895395
 21
84.47037614241821
 31
0.0
  0
ARC
  5
68E
330
18
100
AcDbEntity
  8
L-1
  6
CONTINUOUS
 62
     7
100
AcDbCircle
 10
130.8716706895395
 20
72.47037614241822
 30
0.0
 40
0.5
100
AcDbArc
 50
0.0000000000001018
 51
89.99999999999987
  0
ARC
  5
68F
330
18
100
AcDbEntity
  8
L-1
  6
CONTINUOUS
 62
     7
100
AcDbCircle
 10
130.8716706895395
 20
69.47037614241821
 30
0.0
 40
0.5
100
AcDbArc
 50
270.0
 51
0.0000000000001145
  0
ARC
  5
690
330
18
100
AcDbEntity
  8
L-1
 62
     7
100
AcDbCircle
 10
115.6216706895395
 20
73.47037614241822
 30
0.0
 40
1.0
100
AcDbArc
 50
180.0
 51
0.0
  0
LINE
  5
691
330
18
100
AcDbEntity
  8
L-1
 62
     7
 48
0.5
100
AcDbLine
 10
114.6216706895395
 20
83.47037614241822
 30
0.0
 11
114.6216706895395
 21
73.47037614241822
 31
0.0
  0
ARC
  5
693
330
18
100
AcDbEntity
  8
L-1
  6
CONTINUOUS
 62
     7
100
AcDbCircle
 10
105.8716706895395
 20
72.47037614241822
 30
0.0
 40
0.5
100
AcDbArc
 50
0.0000000000001018
 51
89.99999999999987
  0
ARC
  5
694
330
18
100
AcDbEntity
  8
L-1
  6
CONTINUOUS
 62
     7
100
AcDbCircle
 10
105.8716706895395
 20
69.47037614241821
 30
0.0
 40
0.5
100
AcDbArc
 50
270.0
 51
0.0000000000001145
  0
LINE
  5
695
330
18
100
AcDbEntity
  8
L-1
  6
CONTINUOUS
 62
     7
100
AcDbLine
 10
106.3716706895395
 20
72.47037614241822
 30
0.0
 11
106.3716706895395
 21
69.47037614241821
 31
0.0
  0
ARC
  5
696
330
18
100
AcDbEntity
  8
L-1
  6
CONTINUOUS
 62
     7
100
AcDbCircle
 10
109.1216706895395
 20
83.47037614241822
 30
0.0
 40
1.0
100
AcDbArc
 50
90.00000000000003
 51
180.0000000000002
  0
LINE
  5
699
330
18
100
AcDbEntity
  8
L-1
  6
CENTER2
 62
     7
100
AcDbLine
 10
108.1216706895395
 20
83.47037614241822
 30
0.0
 11
108.1216706895395
 21
81.47037614241828
 31
0.0
  0
ARC
  5
69A
330
18
100
AcDbEntity
  8
L-1
  6
CONTINUOUS
 62
     7
100
AcDbCircle
 10
107.1216706895395
 20
81.47037614241828
 30
0.0
 40
1.0
100
AcDbArc
 50
269.9999999999997
 51
0.0
  0
LINE
  5
69B
330
18
100
AcDbEntity
  8
L-1
  6
CONTINUOUS
 62
     7
100
AcDbLine
 10
109.1216706895395
 20
84.47037614241821
 30
0.0
 11
113.6216706895395
 21
84.47037614241821
 31
0.0
  0
ARC
  5
69C
330
18
100
AcDbEntity
  8
L-1
  6
CONTINUOUS
 62
     7
 48
0.5
100
AcDbCircle
 10
113.6216706895395
 20
83.47037614241822
 30
0.0
 40
1.0
100
AcDbArc
 50
0.0
 51
90.0000000000001
  0
LINE
  5
69D
330
18
100
AcDbEntity
  8
L-1
 62
     7
 48
0.5
100
AcDbLine
 10
116.6216706895395
 20
83.47037614241822
 30
0.0
 11
116.6216706895395
 21
73.47037614241822
 31
0.0
  0
LINE
  5
69F
330
18
100
AcDbEntity
  8
L-1
  6
CONTINUOUS
 62
     7
100
AcDbLine
 10
125.3716706895395
 20
72.97037614241827
 30
0.0
 11
130.8716706895395
 21
72.97037614241822
 31
0.0
  0
LINE
  5
6A0
330
18
100
AcDbEntity
  8
L-1
  6
CONTINUOUS
 62
     7
100
AcDbLine
 10
125.3716706895395
 20
68.97037614241821
 30
0.0
 11
130.8716706895395
 21
68.97037614241821
 31
0.0
  0
ARC
  5
6A2
330
18
100
AcDbEntity
  8
L-1
  6
CONTINUOUS
 62
     7
100
AcDbCircle
 10
125.3716706895395
 20
72.47037614241827
 30
0.0
 40
0.5
100
AcDbArc
 50
90.0
 51
180.0
  0
ARC
  5
6A3
330
18
100
AcDbEntity
  8
L-1
  6
CONTINUOUS
 62
     7
100
AcDbCircle
 10
125.3716706895395
 20
69.47037614241821
 30
0.0
 40
0.5
100
AcDbArc
 50
179.9999999999998
 51
270.0
  0
LINE
  5
6A4
330
18
100
AcDbEntity
  8
L-1
  6
CONTINUOUS
 62
     7
100
AcDbLine
 10
124.8716706895395
 20
72.47037614241827
 30
0.0
 11
124.8716706895395
 21
69.47037614241821
 31
0.0
  0
ARC
  5
6A6
330
18
100
AcDbEntity
  8
L-1
  6
CONTINUOUS
 62
     7
100
AcDbCircle
 10
124.1216706895395
 20
81.47037614241833
 30
0.0
 40
1.0
100
AcDbArc
 50
180.0
 51
269.9999999999997
  0
LINE
  5
6A7
330
18
100
AcDbEntity
  8
L-1
  6
CONTINUOUS
 62
     7
100
AcDbLine
 10
117.6216706895395
 20
84.47037614241821
 30
0.0
 11
122.1216706895395
 21
84.47037614241821
 31
0.0
  0
ARC
  5
6A8
330
18
100
AcDbEntity
  8
L-1
  6
CONTINUOUS
 62
     7
100
AcDbCircle
 10
117.6216706895395
 20
83.47037614241822
 30
0.0
 40
1.0
100
AcDbArc
 50
90.00000000000026
 51
180.0
  0
LINE
  5
6AA
330
18
100
AcDbEntity
  8
L-1
  6
CENTER2
 62
     7
100
AcDbLine
 10
123.1216706895395
 20
83.47037614241822
 30
0.0
 11
123.1216706895395
 21
81.47037614241833
 31
0.0
  0
ARC
  5
6AB
330
18
100
AcDbEntity
  8
L-1
  6
CONTINUOUS
 62
     7
100
AcDbCircle
 10
122.1216706895395
 20
83.47037614241822
 30
0.0
 40
1.0
100
AcDbArc
 50
0.0
 51
89.99999999999971
  0
LINE
  5
6AC
330
18
100
AcDbEntity
  8
L-1
  6
CONTINUOUS
 62
     7
100
AcDbLine
 10
142.6216706895395
 20
84.47037614241821
 30
0.0
 11
147.1216706895395
 21
84.47037614241821
 31
0.0
  0
LINE
  5
6AD
330
18
100
AcDbEntity
  8
L-1
 62
     7
 48
0.5
100
AcDbLine
 10
141.6216706895395
 20
83.47037614241822
 30
0.0
 11
141.6216706895395
 21
73.47037614241822
 31
0.0
  0
LINE
  5
6AE
330
18
100
AcDbEntity
  8
L-1
 62
     7
 48
0.5
100
AcDbLine
 10
139.6216706895395
 20
83.47037614241822
 30
0.0
 11
139.6216706895395
 21
73.47037614241822
 31
0.0
  0
LINE
  5
6AF
330
18
100
AcDbEntity
  8
L-1
  6
CONTINUOUS
 62
     7
100
AcDbLine
 10
131.3716706895395
 20
72.47037614241822
 30
0.0
 11
131.3716706895395
 21
69.47037614241821
 31
0.0
  0
ARC
  5
6B0
330
18
100
AcDbEntity
  8
L-1
 62
     7
100
AcDbCircle
 10
140.6216706895395
 20
73.47037614241822
 30
0.0
 40
1.0
100
AcDbArc
 50
180.0
 51
0.0
  0
ARC
  5
6B1
330
18
100
AcDbEntity
  8
L-1
  6
CONTINUOUS
 62
     7
 48
0.5
100
AcDbCircle
 10
138.6216706895395
 20
83.47037614241822
 30
0.0
 40
1.0
100
AcDbArc
 50
0.0
 51
90.0000000000001
  0
LINE
  5
6B2
330
18
100
AcDbEntity
  8
L-1
  6
CONTINUOUS
 62
     7
100
AcDbLine
 10
134.1216706895395
 20
84.47037614241821
 30
0.0
 11
138.6216706895395
 21
84.47037614241821
 31
0.0
  0
LINE
  5
6B5
330
18
100
AcDbEntity
  8
L-1
  6
CENTER2
 62
     7
100
AcDbLine
 10
133.1216706895395
 20
83.47037614241822
 30
0.0
 11
133.1216706895395
 21
81.47037614241828
 31
0.0
  0
ARC
  5
6B6
330
18
100
AcDbEntity
  8
L-1
  6
CONTINUOUS
 62
     7
100
AcDbCircle
 10
132.1216706895395
 20
81.47037614241828
 30
0.0
 40
1.0
100
AcDbArc
 50
269.9999999999997
 51
0.0
  0
ARC
  5
6B7
330
18
100
AcDbEntity
  8
L-1
  6
CONTINUOUS
 62
     7
100
AcDbCircle
 10
134.1216706895395
 20
83.47037614241822
 30
0.0
 40
1.0
100
AcDbArc
 50
90.00000000000003
 51
180.0000000000002
  0
ARC
  5
6B8
330
18
100
AcDbEntity
  8
L-1
  6
CONTINUOUS
 62
     7
100
AcDbCircle
 10
142.6216706895395
 20
83.47037614241822
 30
0.0
 40
1.0
100
AcDbArc
 50
90.00000000000026
 51
180.0
  0
LINE
  5
6BA
330
18
100
AcDbEntity
  8
L-1
  6
CONTINUOUS
 62
     7
100
AcDbLine
 10
150.3716706895395
 20
72.97037614241827
 30
0.0
 11
155.8716706895395
 21
72.97037614241822
 31
0.0
  0
LINE
  5
6BB
330
18
100
AcDbEntity
  8
L-1
  6
CONTINUOUS
 62
     7
100
AcDbLine
 10
150.3716706895395
 20
68.97037614241821
 30
0.0
 11
155.8716706895395
 21
68.97037614241821
 31
0.0
  0
ARC
  5
6BD
330
18
100
AcDbEntity
  8
L-1
  6
CONTINUOUS
 62
     7
100
AcDbCircle
 10
150.3716706895395
 20
72.47037614241827
 30
0.0
 40
0.5
100
AcDbArc
 50
90.0
 51
180.0
  0
ARC
  5
6BE
330
18
100
AcDbEntity
  8
L-1
  6
CONTINUOUS
 62
     7
100
AcDbCircle
 10
150.3716706895395
 20
69.47037614241821
 30
0.0
 40
0.5
100
AcDbArc
 50
179.9999999999998
 51
270.0
  0
LINE
  5
6BF
330
18
100
AcDbEntity
  8
L-1
  6
CONTINUOUS
 62
     7
100
AcDbLine
 10
149.8716706895395
 20
72.47037614241827
 30
0.0
 11
149.8716706895395
 21
69.47037614241821
 31
0.0
  0
ARC
  5
6C1
330
18
100
AcDbEntity
  8
L-1
  6
CONTINUOUS
 62
     7
100
AcDbCircle
 10
155.8716706895395
 20
72.47037614241822
 30
0.0
 40
0.5
100
AcDbArc
 50
0.0000000000001018
 51
89.99999999999987
  0
ARC
  5
6C2
330
18
100
AcDbEntity
  8
L-1
  6
CONTINUOUS
 62
     7
100
AcDbCircle
 10
155.8716706895395
 20
69.47037614241821
 30
0.0
 40
0.5
100
AcDbArc
 50
270.0
 51
0.0000000000001145
  0
LINE
  5
6C3
330
18
100
AcDbEntity
  8
L-1
  6
CONTINUOUS
 62
     7
100
AcDbLine
 10
156.3716706895395
 20
72.47037614241822
 30
0.0
 11
156.3716706895395
 21
69.47037614241821
 31
0.0
  0
LINE
  5
6C8
330
18
100
AcDbEntity
  8
L-1
  6
CENTER2
 62
     7
100
AcDbLine
 10
148.1216706895395
 20
83.47037614241822
 30
0.0
 11
148.1216706895395
 21
81.47037614241833
 31
0.0
  0
ARC
  5
6C9
330
18
100
AcDbEntity
  8
L-1
  6
CONTINUOUS
 62
     7
100
AcDbCircle
 10
149.1216706895395
 20
81.47037614241833
 30
0.0
 40
1.0
100
AcDbArc
 50
180.0
 51
269.9999999999997
  0
ARC
  5
6CA
330
18
100
AcDbEntity
  8
L-1
  6
CONTINUOUS
 62
     7
100
AcDbCircle
 10
147.1216706895395
 20
83.47037614241822
 30
0.0
 40
1.0
100
AcDbArc
 50
0.0
 51
89.99999999999971
  0
ARC
  5
6CC
330
18
100
AcDbEntity
  8
L-1
  6
CONTINUOUS
 62
     7
100
AcDbCircle
 10
157.1216706895395
 20
81.47037614241828
 30
0.0
 40
1.0
100
AcDbArc
 50
269.9999999999997
 51
0.0
  0
LINE
  5
6CE
330
18
100
AcDbEntity
  8
L-1
  6
CENTER2
 62
     7
100
AcDbLine
 10
158.1216706895395
 20
83.47037614241822
 30
0.0
 11
158.1216706895395
 21
81.47037614241828
 31
0.0
  0
ARC
  5
6CF
330
18
100
AcDbEntity
  8
L-1
  6
CONTINUOUS
 62
     7
100
AcDbCircle
 10
159.1216706895395
 20
83.47037614241822
 30
0.0
 40
1.0
100
AcDbArc
 50
90.00000000000003
 51
180.0000000000002
  0
LINE
  5
6D2
330
18
100
AcDbEntity
  8
L-1
  6
CONTINUOUS
 62
     7
100
AcDbLine
 10
108.1216706895395
 20
110.6327115473271
 30
0.0
 11
108.1216706895395
 21
111.6327115473271
 31
0.0
  0
LINE
  5
6D3
330
18
100
AcDbEntity
  8
L-1
  6
CONTINUOUS
 62
     7
100
AcDbLine
 10
114.6216706895395
 20
110.6327115473271
 30
0.0
 11
114.6216706895395
 21
111.6327115473271
 31
0.0
  0
LINE
  5
6D5
330
18
100
AcDbEntity
  8
L-1
  6
CONTINUOUS
 62
     7
100
AcDbLine
 10
116.6216706895395
 20
110.6327115473271
 30
0.0
 11
116.6216706895395
 21
111.6327115473271
 31
0.0
  0
LINE
  5
6D6
330
18
100
AcDbEntity
  8
L-1
  6
CONTINUOUS
 62
     7
100
AcDbLine
 10
123.1216706895395
 20
110.6327115473271
 30
0.0
 11
123.1216706895395
 21
111.6327115473271
 31
0.0
  0
LINE
  5
6D8
330
18
100
AcDbEntity
  8
L-1
  6
CONTINUOUS
 62
     7
100
AcDbLine
 10
133.1216706895395
 20
110.6327115473271
 30
0.0
 11
133.1216706895395
 21
111.6327115473271
 31
0.0
  0
LINE
  5
6D9
330
18
100
AcDbEntity
  8
L-1
  6
CONTINUOUS
 62
     7
100
AcDbLine
 10
141.6216706895395
 20
110.6327115473271
 30
0.0
 11
141.6216706895395
 21
111.6327115473271
 31
0.0
  0
LINE
  5
6DA
330
18
100
AcDbEntity
  8
L-1
  6
CONTINUOUS
 62
     7
100
AcDbLine
 10
139.6216706895395
 20
110.6327115473271
 30
0.0
 11
139.6216706895395
 21
111.6327115473271
 31
0.0
  0
LINE
  5
6DB
330
18
100
AcDbEntity
  8
L-1
  6
CENTER2
 62
     1
 48
0.2
100
AcDbLine
 10
153.1216706895395
 20
115.879863631211
 30
0.0
 11
153.1216706895395
 21
107.4172316311362
 31
0.0
  0
LINE
  5
6DC
330
18
100
AcDbEntity
  8
L-1
  6
CONTINUOUS
 62
     7
100
AcDbLine
 10
148.1216706895395
 20
110.6327115473271
 30
0.0
 11
148.1216706895395
 21
111.6327115473271
 31
0.0
  0
LINE
  5
6DD
330
18
100
AcDbEntity
  8
L-1
  6
CONTINUOUS
 62
     7
100
AcDbLine
 10
158.1216706895395
 20
110.6327115473271
 30
0.0
 11
158.1216706895395
 21
111.6327115473271
 31
0.0
  0
LINE
  5
6E4
330
18
100
AcDbEntity
  8
L-1
  6
CONTINUOUS
 62
     7
100
AcDbLine
 10
175.3716706895395
 20
72.97037614241827
 30
0.0
 11
180.8716706895395
 21
72.97037614241822
 31
0.0
  0
LINE
  5
6E5
330
18
100
AcDbEntity
  8
L-1
  6
CONTINUOUS
 62
     7
100
AcDbLine
 10
175.3716706895395
 20
68.97037614241821
 30
0.0
 11
180.8716706895395
 21
68.97037614241821
 31
0.0
  0
LINE
  5
6E6
330
18
100
AcDbEntity
  8
L-1
 62
     7
 48
0.5
100
AcDbLine
 10
166.6216706895395
 20
83.47037614241822
 30
0.0
 11
166.6216706895395
 21
73.47037614241822
 31
0.0
  0
LINE
  5
6E7
330
18
100
AcDbEntity
  8
L-1
 62
     7
 48
0.5
100
AcDbLine
 10
164.6216706895395
 20
83.47037614241822
 30
0.0
 11
164.6216706895395
 21
73.47037614241822
 31
0.0
  0
ARC
  5
6E8
330
18
100
AcDbEntity
  8
L-1
 62
     7
100
AcDbCircle
 10
165.6216706895395
 20
73.47037614241822
 30
0.0
 40
1.0
100
AcDbArc
 50
180.0
 51
0.0
  0
ARC
  5
6EA
330
18
100
AcDbEntity
  8
L-1
  6
CONTINUOUS
 62
     7
100
AcDbCircle
 10
175.3716706895395
 20
72.47037614241827
 30
0.0
 40
0.5
100
AcDbArc
 50
90.0
 51
180.0
  0
ARC
  5
6EB
330
18
100
AcDbEntity
  8
L-1
  6
CONTINUOUS
 62
     7
100
AcDbCircle
 10
175.3716706895395
 20
69.47037614241821
 30
0.0
 40
0.5
100
AcDbArc
 50
179.9999999999998
 51
270.0
  0
LINE
  5
6EC
330
18
100
AcDbEntity
  8
L-1
  6
CONTINUOUS
 62
     7
100
AcDbLine
 10
174.8716706895395
 20
72.47037614241827
 30
0.0
 11
174.8716706895395
 21
69.47037614241821
 31
0.0
  0
LINE
  5
6ED
330
18
100
AcDbEntity
  8
L-1
  6
CONTINUOUS
 62
     7
100
AcDbLine
 10
167.6216706895395
 20
84.47037614241821
 30
0.0
 11
172.1216706895395
 21
84.47037614241821
 31
0.0
  0
ARC
  5
6EE
330
18
100
AcDbEntity
  8
L-1
  6
CONTINUOUS
 62
     7
 48
0.5
100
AcDbCircle
 10
163.6216706895395
 20
83.47037614241822
 30
0.0
 40
1.0
100
AcDbArc
 50
0.0
 51
90.0000000000001
  0
ARC
  5
6EF
330
18
100
AcDbEntity
  8
L-1
  6
CONTINUOUS
 62
     7
100
AcDbCircle
 10
167.6216706895395
 20
83.47037614241822
 30
0.0
 40
1.0
100
AcDbArc
 50
90.00000000000026
 51
180.0
  0
ARC
  5
6F0
330
18
100
AcDbEntity
  8
L-1
  6
CONTINUOUS
 62
     7
100
AcDbCircle
 10
172.1216706895395
 20
83.47037614241822
 30
0.0
 40
1.0
100
AcDbArc
 50
0.0
 51
89.99999999999971
  0
LINE
  5
6F3
330
18
100
AcDbEntity
  8
L-1
  6
CENTER2
 62
     7
100
AcDbLine
 10
173.1216706895395
 20
83.47037614241822
 30
0.0
 11
173.1216706895395
 21
81.47037614241833
 31
0.0
  0
ARC
  5
6F4
330
18
100
AcDbEntity
  8
L-1
  6
CONTINUOUS
 62
     7
100
AcDbCircle
 10
174.1216706895395
 20
81.47037614241833
 30
0.0
 40
1.0
100
AcDbArc
 50
180.0
 51
269.9999999999997
  0
LINE
  5
6F5
330
18
100
AcDbEntity
  8
L-1
 62
     7
 48
0.5
100
AcDbLine
 10
189.6216706895395
 20
83.47037614241822
 30
0.0
 11
189.6216706895395
 21
73.47037614241822
 31
0.0
  0
LINE
  5
6F7
330
18
100
AcDbEntity
  8
L-1
  6
CONTINUOUS
 62
     7
100
AcDbLine
 10
181.3716706895395
 20
72.47037614241822
 30
0.0
 11
181.3716706895395
 21
69.47037614241821
 31
0.0
  0
ARC
  5
6F8
330
18
100
AcDbEntity
  8
L-1
  6
CONTINUOUS
 62
     7
100
AcDbCircle
 10
180.8716706895395
 20
69.47037614241821
 30
0.0
 40
0.5
100
AcDbArc
 50
270.0
 51
0.0000000000001145
  0
ARC
  5
6F9
330
18
100
AcDbEntity
  8
L-1
  6
CONTINUOUS
 62
     7
100
AcDbCircle
 10
180.8716706895395
 20
72.47037614241822
 30
0.0
 40
0.5
100
AcDbArc
 50
0.0000000000001018
 51
89.99999999999987
  0
ARC
  5
6FA
330
18
100
AcDbEntity
  8
L-1
 62
     7
100
AcDbCircle
 10
190.6216706895395
 20
73.47037614241822
 30
0.0
 40
1.0
100
AcDbArc
 50
180.0
 51
270.0
  0
ARC
  5
6FB
330
18
100
AcDbEntity
  8
L-1
  6
CONTINUOUS
 62
     7
100
AcDbCircle
 10
184.1216706895395
 20
83.47037614241822
 30
0.0
 40
1.0
100
AcDbArc
 50
90.00000000000003
 51
180.0000000000002
  0
LINE
  5
6FE
330
18
100
AcDbEntity
  8
L-1
  6
CENTER2
 62
     7
100
AcDbLine
 10
183.1216706895395
 20
83.47037614241822
 30
0.0
 11
183.1216706895395
 21
81.47037614241828
 31
0.0
  0
ARC
  5
6FF
330
18
100
AcDbEntity
  8
L-1
  6
CONTINUOUS
 62
     7
100
AcDbCircle
 10
182.1216706895395
 20
81.47037614241828
 30
0.0
 40
1.0
100
AcDbArc
 50
269.9999999999997
 51
0.0
  0
LINE
  5
700
330
18
100
AcDbEntity
  8
L-1
  6
CONTINUOUS
 62
     7
100
AcDbLine
 10
184.1216706895395
 20
84.47037614241821
 30
0.0
 11
188.6216706895395
 21
84.47037614241821
 31
0.0
  0
ARC
  5
701
330
18
100
AcDbEntity
  8
L-1
  6
CONTINUOUS
 62
     7
 48
0.5
100
AcDbCircle
 10
188.6216706895395
 20
83.47037614241822
 30
0.0
 40
1.0
100
AcDbArc
 50
0.0
 51
90.0000000000001
  0
DIMENSION
  5
702
330
18
100
AcDbEntity
  8
L-2
  6
CONTINUOUS
100
AcDbDimension
  2
*D7
 10
178.1216706895395
 20
102.4781098829712
 30
0.0
 11
184.3716706895395
 21
104.5781098829712
 31
0.0
 70
    32
  3
CAD-STD1
100
AcDbAlignedDimension
 13
190.6216706895395
 23
110.6327115473271
 33
0.0
 14
178.1216706895395
 24
107.4172316311362
 34
0.0
100
AcDbRotatedDimension
  0
LINE
  5
704
330
18
100
AcDbEntity
  8
L-1
  6
CONTINUOUS
 62
     7
100
AcDbLine
 10
164.6216706895395
 20
110.6327115473271
 30
0.0
 11
164.6216706895395
 21
111.6327115473271
 31
0.0
  0
LINE
  5
705
330
18
100
AcDbEntity
  8
L-1
  6
CONTINUOUS
 62
     7
100
AcDbLine
 10
166.6216706895395
 20
110.6327115473271
 30
0.0
 11
166.6216706895395
 21
111.6327115473271
 31
0.0
  0
LINE
  5
706
330
18
100
AcDbEntity
  8
L-1
  6
CONTINUOUS
 62
     7
100
AcDbLine
 10
173.1216706895395
 20
110.6327115473271
 30
0.0
 11
173.1216706895395
 21
111.6327115473271
 31
0.0
  0
LINE
  5
707
330
18
100
AcDbEntity
  8
L-1
  6
CENTER2
 62
     1
 48
0.2
100
AcDbLine
 10
178.1216706895395
 20
115.879863631211
 30
0.0
 11
178.1216706895395
 21
107.4172316311362
 31
0.0
  0
LINE
  5
708
330
18
100
AcDbEntity
  8
L-1
  6
CONTINUOUS
 62
     7
100
AcDbLine
 10
183.1216706895395
 20
110.6327115473271
 30
0.0
 11
183.1216706895395
 21
111.6327115473271
 31
0.0
  0
LINE
  5
709
330
18
100
AcDbEntity
  8
L-1
  6
CONTINUOUS
 62
     7
100
AcDbLine
 10
189.6216706895395
 20
110.6327115473271
 30
0.0
 11
189.6216706895395
 21
111.6327115473271
 31
0.0
  0
ARC
  5
70E
330
18
100
AcDbEntity
  8
L-1
 62
     7
100
AcDbCircle
 10
131.1216706895395
 20
158.082711547327
 30
0.0
 40
2.5
100
AcDbArc
 50
233.1301023541548
 51
126.8698976458437
  0
ARC
  5
70F
330
18
100
AcDbEntity
  8
L-1
 62
     7
100
AcDbCircle
 10
131.1216706895395
 20
158.082711547327
 30
0.0
 40
4.0
100
AcDbArc
 50
270.0
 51
90.00000000000003
  0
ARC
  5
710
330
18
100
AcDbEntity
  8
L-1
 62
     7
100
AcDbCircle
 10
131.1216706895395
 20
144.082711547327
 30
0.0
 40
2.5
100
AcDbArc
 50
233.1301023541548
 51
126.8698976458437
  0
ARC
  5
711
330
18
100
AcDbEntity
  8
L-1
 62
     7
100
AcDbCircle
 10
131.1216706895395
 20
144.082711547327
 30
0.0
 40
4.0
100
AcDbArc
 50
270.0
 51
90.00000000000003
  0
ARC
  5
714
330
18
100
AcDbEntity
  8
L-1
 62
     7
100
AcDbCircle
 10
122.1216706895395
 20
147.082711547327
 30
0.0
 40
1.0
100
AcDbArc
 50
90.00000000000003
 51
270.0
  0
ARC
  5
715
330
18
100
AcDbEntity
  8
L-1
 62
     7
100
AcDbCircle
 10
106.1216706895395
 20
144.082711547327
 30
0.0
 40
4.0
100
AcDbArc
 50
270.0
 51
90.00000000000003
  0
ARC
  5
716
330
18
100
AcDbEntity
  8
L-1
 62
     7
100
AcDbCircle
 10
106.1216706895395
 20
144.082711547327
 30
0.0
 40
2.5
100
AcDbArc
 50
233.1301023541548
 51
126.8698976458437
  0
LINE
  5
717
330
18
100
AcDbEntity
  8
L-1
 62
     7
100
AcDbLine
 10
105.7216706895395
 20
140.082711547327
 30
0.0
 11
106.1216706895395
 21
140.082711547327
 31
0.0
  0
LINE
  5
718
330
18
100
AcDbEntity
  8
L-1
  6
CONTINUOUS
 62
     7
100
AcDbLine
 10
105.7216706895395
 20
139.582711547327
 30
0.0
 11
105.7216706895395
 21
140.082711547327
 31
0.0
  0
ARC
  5
719
330
18
100
AcDbEntity
  8
L-1
  6
CONTINUOUS
 62
     7
100
AcDbCircle
 10
128.1216706895395
 20
139.582711547327
 30
0.0
 40
2.6
100
AcDbArc
 50
180.0
 51
0.0
  0
LINE
  5
71A
330
18
100
AcDbEntity
  8
L-1
 62
     7
100
AcDbLine
 10
122.1216706895395
 20
140.082711547327
 30
0.0
 11
125.5216706895395
 21
140.082711547327
 31
0.0
  0
LINE
  5
71B
330
18
100
AcDbEntity
  8
L-1
 62
     7
100
AcDbLine
 10
122.1216706895395
 20
142.0827115473271
 30
0.0
 11
129.6216706895395
 21
142.082711547327
 31
0.0
  0
LINE
  5
71C
330
18
100
AcDbEntity
  8
L-1
 62
     7
100
AcDbLine
 10
122.1216706895395
 20
146.082711547327
 30
0.0
 11
129.6216706895395
 21
146.0827115473271
 31
0.0
  0
ARC
  5
71D
330
18
100
AcDbEntity
  8
L-1
 62
     7
100
AcDbCircle
 10
122.1216706895395
 20
141.082711547327
 30
0.0
 40
1.0
100
AcDbArc
 50
90.00000000000003
 51
270.0
  0
LINE
  5
71E
330
18
100
AcDbEntity
  8
L-1
  6
CONTINUOUS
 62
     7
100
AcDbLine
 10
125.5216706895395
 20
139.582711547327
 30
0.0
 11
125.5216706895395
 21
140.082711547327
 31
0.0
  0
LINE
  5
71F
330
18
100
AcDbEntity
  8
L-1
  6
CONTINUOUS
 62
     7
100
AcDbLine
 10
130.7216706895395
 20
139.582711547327
 30
0.0
 11
130.7216706895395
 21
140.082711547327
 31
0.0
  0
LINE
  5
720
330
18
100
AcDbEntity
  8
L-1
 62
     7
100
AcDbLine
 10
130.7216706895395
 20
140.082711547327
 30
0.0
 11
131.1216706895395
 21
140.082711547327
 31
0.0
  0
ARC
  5
721
330
18
100
AcDbEntity
  8
L-1
 62
     7
100
AcDbCircle
 10
106.1216706895395
 20
158.082711547327
 30
0.0
 40
4.0
100
AcDbArc
 50
270.0
 51
90.00000000000003
  0
ARC
  5
722
330
18
100
AcDbEntity
  8
L-1
 62
     7
100
AcDbCircle
 10
106.1216706895395
 20
158.082711547327
 30
0.0
 40
2.5
100
AcDbArc
 50
233.1301023541548
 51
126.8698976458437
  0
LINE
  5
723
330
18
100
AcDbEntity
  8
L-1
 62
     7
100
AcDbLine
 10
105.7216706895395
 20
162.082711547327
 30
0.0
 11
106.1216706895395
 21
162.082711547327
 31
0.0
  0
LINE
  5
724
330
18
100
AcDbEntity
  8
L-1
  6
CONTINUOUS
 62
     7
100
AcDbLine
 10
105.7216706895395
 20
162.582711547327
 30
0.0
 11
105.7216706895395
 21
162.082711547327
 31
0.0
  0
LINE
  5
725
330
18
100
AcDbEntity
  8
L-1
 62
     7
100
AcDbLine
 10
122.1216706895395
 20
154.082711547327
 30
0.0
 11
131.1216706895395
 21
154.082711547327
 31
0.0
  0
LINE
  5
726
330
18
100
AcDbEntity
  8
L-1
 62
     7
100
AcDbLine
 10
122.1216706895395
 20
156.0827115473271
 30
0.0
 11
129.6216706895395
 21
156.082711547327
 31
0.0
  0
LINE
  5
727
330
18
100
AcDbEntity
  8
L-1
 62
     7
100
AcDbLine
 10
122.1216706895395
 20
148.0827115473271
 30
0.0
 11
131.1216706895395
 21
148.082711547327
 31
0.0
  0
ARC
  5
728
330
18
100
AcDbEntity
  8
L-1
 62
     7
100
AcDbCircle
 10
122.1216706895395
 20
155.082711547327
 30
0.0
 40
1.0
100
AcDbArc
 50
90.00000000000003
 51
270.0
  0
LINE
  5
729
330
18
100
AcDbEntity
  8
L-1
 62
     7
100
AcDbLine
 10
122.1216706895395
 20
162.0827115473271
 30
0.0
 11
125.5216706895395
 21
162.0827115473271
 31
0.0
  0
LINE
  5
72A
330
18
100
AcDbEntity
  8
L-1
 62
     7
100
AcDbLine
 10
122.1216706895395
 20
160.082711547327
 30
0.0
 11
129.6216706895395
 21
160.0827115473271
 31
0.0
  0
ARC
  5
72B
330
18
100
AcDbEntity
  8
L-1
 62
     7
100
AcDbCircle
 10
122.1216706895395
 20
161.082711547327
 30
0.0
 40
1.0
100
AcDbArc
 50
90.00000000000003
 51
270.0
  0
ARC
  5
72C
330
18
100
AcDbEntity
  8
L-1
  6
CONTINUOUS
 62
     7
100
AcDbCircle
 10
128.1216706895395
 20
162.582711547327
 30
0.0
 40
2.6
100
AcDbArc
 50
0.0
 51
180.0
  0
LINE
  5
72D
330
18
100
AcDbEntity
  8
L-1
  6
CONTINUOUS
 62
     7
100
AcDbLine
 10
125.5216706895395
 20
162.582711547327
 30
0.0
 11
125.5216706895395
 21
162.0827115473271
 31
0.0
  0
LINE
  5
72E
330
18
100
AcDbEntity
  8
L-1
  6
CONTINUOUS
 62
     7
100
AcDbLine
 10
130.7216706895395
 20
162.582711547327
 30
0.0
 11
130.7216706895395
 21
162.082711547327
 31
0.0
  0
LINE
  5
72F
330
18
100
AcDbEntity
  8
L-1
 62
     7
100
AcDbLine
 10
130.7216706895395
 20
162.082711547327
 30
0.0
 11
131.1216706895395
 21
162.082711547327
 31
0.0
  0
ARC
  5
730
330
18
100
AcDbEntity
  8
L-1
 62
     7
100
AcDbCircle
 10
156.1216706895395
 20
144.082711547327
 30
0.0
 40
4.0
100
AcDbArc
 50
270.0
 51
90.00000000000003
  0
ARC
  5
731
330
18
100
AcDbEntity
  8
L-1
 62
     7
100
AcDbCircle
 10
147.1216706895395
 20
147.082711547327
 30
0.0
 40
1.0
100
AcDbArc
 50
90.00000000000003
 51
270.0
  0
ARC
  5
732
330
18
100
AcDbEntity
  8
L-1
 62
     7
100
AcDbCircle
 10
147.1216706895395
 20
141.082711547327
 30
0.0
 40
1.0
100
AcDbArc
 50
90.00000000000003
 51
270.0
  0
ARC
  5
733
330
18
100
AcDbEntity
  8
L-1
  6
CONTINUOUS
 62
     7
100
AcDbCircle
 10
153.1216706895395
 20
139.582711547327
 30
0.0
 40
2.6
100
AcDbArc
 50
180.0
 51
0.0
  0
ARC
  5
734
330
18
100
AcDbEntity
  8
L-1
 62
     7
100
AcDbCircle
 10
156.1216706895395
 20
144.082711547327
 30
0.0
 40
2.5
100
AcDbArc
 50
233.1301023541548
 51
126.8698976458437
  0
LINE
  5
735
330
18
100
AcDbEntity
  8
L-1
 62
     7
100
AcDbLine
 10
147.1216706895395
 20
142.0827115473271
 30
0.0
 11
154.6216706895395
 21
142.082711547327
 31
0.0
  0
LINE
  5
736
330
18
100
AcDbEntity
  8
L-1
 62
     7
100
AcDbLine
 10
147.1216706895395
 20
146.082711547327
 30
0.0
 11
154.6216706895395
 21
146.0827115473271
 31
0.0
  0
LINE
  5
737
330
18
100
AcDbEntity
  8
L-1
 62
     7
100
AcDbLine
 10
147.1216706895395
 20
140.082711547327
 30
0.0
 11
150.5216706895395
 21
140.082711547327
 31
0.0
  0
LINE
  5
738
330
18
100
AcDbEntity
  8
L-1
  6
CONTINUOUS
 62
     7
100
AcDbLine
 10
150.5216706895395
 20
139.582711547327
 30
0.0
 11
150.5216706895395
 21
140.082711547327
 31
0.0
  0
LINE
  5
739
330
18
100
AcDbEntity
  8
L-1
  6
CONTINUOUS
 62
     7
100
AcDbLine
 10
155.7216706895395
 20
139.582711547327
 30
0.0
 11
155.7216706895395
 21
140.082711547327
 31
0.0
  0
LINE
  5
73A
330
18
100
AcDbEntity
  8
L-1
 62
     7
100
AcDbLine
 10
155.7216706895395
 20
140.082711547327
 30
0.0
 11
156.1216706895395
 21
140.082711547327
 31
0.0
  0
ARC
  5
73B
330
18
100
AcDbEntity
  8
L-1
 62
     7
100
AcDbCircle
 10
147.1216706895395
 20
161.082711547327
 30
0.0
 40
1.0
100
AcDbArc
 50
90.00000000000003
 51
270.0
  0
ARC
  5
73C
330
18
100
AcDbEntity
  8
L-1
 62
     7
100
AcDbCircle
 10
147.1216706895395
 20
155.082711547327
 30
0.0
 40
1.0
100
AcDbArc
 50
90.00000000000003
 51
270.0
  0
ARC
  5
73D
330
18
100
AcDbEntity
  8
L-1
 62
     7
100
AcDbCircle
 10
156.1216706895395
 20
158.082711547327
 30
0.0
 40
2.5
100
AcDbArc
 50
233.1301023541548
 51
126.8698976458437
  0
ARC
  5
73E
330
18
100
AcDbEntity
  8
L-1
 62
     7
100
AcDbCircle
 10
156.1216706895395
 20
158.082711547327
 30
0.0
 40
4.0
100
AcDbArc
 50
270.0
 51
90.00000000000003
  0
LINE
  5
73F
330
18
100
AcDbEntity
  8
L-1
 62
     7
100
AcDbLine
 10
147.1216706895395
 20
154.082711547327
 30
0.0
 11
156.1216706895395
 21
154.082711547327
 31
0.0
  0
LINE
  5
740
330
18
100
AcDbEntity
  8
L-1
 62
     7
100
AcDbLine
 10
147.1216706895395
 20
156.0827115473271
 30
0.0
 11
154.6216706895395
 21
156.082711547327
 31
0.0
  0
LINE
  5
741
330
18
100
AcDbEntity
  8
L-1
 62
     7
100
AcDbLine
 10
147.1216706895395
 20
148.0827115473271
 30
0.0
 11
156.1216706895395
 21
148.082711547327
 31
0.0
  0
LINE
  5
742
330
18
100
AcDbEntity
  8
L-1
 62
     7
100
AcDbLine
 10
147.1216706895395
 20
160.082711547327
 30
0.0
 11
154.6216706895395
 21
160.0827115473271
 31
0.0
  0
ARC
  5
743
330
18
100
AcDbEntity
  8
L-1
  6
CONTINUOUS
 62
     7
100
AcDbCircle
 10
153.1216706895395
 20
162.582711547327
 30
0.0
 40
2.6
100
AcDbArc
 50
0.0
 51
180.0
  0
LINE
  5
744
330
18
100
AcDbEntity
  8
L-1
 62
     7
100
AcDbLine
 10
147.1216706895395
 20
162.0827115473271
 30
0.0
 11
150.5216706895395
 21
162.0827115473271
 31
0.0
  0
LINE
  5
745
330
18
100
AcDbEntity
  8
L-1
  6
CONTINUOUS
 62
     7
100
AcDbLine
 10
150.5216706895395
 20
162.582711547327
 30
0.0
 11
150.5216706895395
 21
162.0827115473271
 31
0.0
  0
LINE
  5
746
330
18
100
AcDbEntity
  8
L-1
  6
CONTINUOUS
 62
     7
100
AcDbLine
 10
155.7216706895395
 20
162.582711547327
 30
0.0
 11
155.7216706895395
 21
162.082711547327
 31
0.0
  0
LINE
  5
747
330
18
100
AcDbEntity
  8
L-1
 62
     7
100
AcDbLine
 10
155.7216706895395
 20
162.082711547327
 30
0.0
 11
156.1216706895395
 21
162.082711547327
 31
0.0
  0
ARC
  5
748
330
18
100
AcDbEntity
  8
L-1
 62
     7
100
AcDbCircle
 10
131.1216706895395
 20
202.0827115473271
 30
0.0
 40
2.5
100
AcDbArc
 50
233.1301023541562
 51
126.8698976458451
  0
ARC
  5
749
330
18
100
AcDbEntity
  8
L-1
 62
     7
100
AcDbCircle
 10
131.1216706895395
 20
202.0827115473271
 30
0.0
 40
4.0
100
AcDbArc
 50
270.0
 51
90.0
  0
ARC
  5
74A
330
18
100
AcDbEntity
  8
L-1
 62
     7
100
AcDbCircle
 10
131.1216706895395
 20
188.0827115473271
 30
0.0
 40
2.5
100
AcDbArc
 50
233.1301023541562
 51
126.8698976458451
  0
ARC
  5
74B
330
18
100
AcDbEntity
  8
L-1
 62
     7
100
AcDbCircle
 10
131.1216706895395
 20
188.0827115473271
 30
0.0
 40
4.0
100
AcDbArc
 50
270.0
 51
90.0
  0
ARC
  5
74E
330
18
100
AcDbEntity
  8
L-1
 62
     7
100
AcDbCircle
 10
122.1216706895395
 20
191.0827115473271
 30
0.0
 40
1.0
100
AcDbArc
 50
90.0
 51
270.0
  0
ARC
  5
74F
330
18
100
AcDbEntity
  8
L-1
 62
     7
100
AcDbCircle
 10
106.1216706895395
 20
188.0827115473271
 30
0.0
 40
4.0
100
AcDbArc
 50
270.0
 51
90.0
  0
ARC
  5
750
330
18
100
AcDbEntity
  8
L-1
 62
     7
100
AcDbCircle
 10
106.1216706895395
 20
188.0827115473271
 30
0.0
 40
2.5
100
AcDbArc
 50
233.1301023541562
 51
126.8698976458451
  0
LINE
  5
751
330
18
100
AcDbEntity
  8
L-1
  6
CONTINUOUS
 62
     7
100
AcDbLine
 10
105.7216706895395
 20
183.5827115473271
 30
0.0
 11
105.7216706895395
 21
184.0827115473272
 31
0.0
  0
LINE
  5
752
330
18
100
AcDbEntity
  8
L-1
 62
     7
100
AcDbLine
 10
105.7216706895395
 20
184.0827115473272
 30
0.0
 11
106.1216706895395
 21
184.0827115473272
 31
0.0
  0
CIRCLE
  5
753
330
18
100
AcDbEntity
  8
L-1
  6
CONTINUOUS
 62
     7
100
AcDbCircle
 10
128.1216706895395
 20
173.0827115473271
 30
0.0
 40
2.6
  0
LINE
  5
754
330
18
100
AcDbEntity
  8
L-1
 62
     7
100
AcDbLine
 10
122.1216706895395
 20
184.0827115473271
 30
0.0
 11
125.5216706895395
 21
184.0827115473271
 31
0.0
  0
LINE
  5
755
330
18
100
AcDbEntity
  8
L-1
 62
     7
100
AcDbLine
 10
122.1216706895395
 20
190.0827115473271
 30
0.0
 11
129.6216706895395
 21
190.0827115473271
 31
0.0
  0
LINE
  5
756
330
18
100
AcDbEntity
  8
L-1
 62
     7
100
AcDbLine
 10
122.1216706895395
 20
186.0827115473272
 30
0.0
 11
129.6216706895395
 21
186.0827115473271
 31
0.0
  0
ARC
  5
757
330
18
100
AcDbEntity
  8
L-1
 62
     7
100
AcDbCircle
 10
122.1216706895395
 20
185.0827115473272
 30
0.0
 40
1.0
100
AcDbArc
 50
90.0
 51
270.0
  0
ARC
  5
758
330
18
100
AcDbEntity
  8
L-1
  6
CONTINUOUS
 62
     7
100
AcDbCircle
 10
128.1216706895395
 20
183.5827115473271
 30
0.0
 40
2.6
100
AcDbArc
 50
180.0
 51
0.0
  0
LINE
  5
759
330
18
100
AcDbEntity
  8
L-1
  6
CONTINUOUS
 62
     7
100
AcDbLine
 10
125.5216706895395
 20
183.5827115473271
 30
0.0
 11
125.5216706895395
 21
184.0827115473271
 31
0.0
  0
LINE
  5
75A
330
18
100
AcDbEntity
  8
L-1
 62
     7
100
AcDbLine
 10
130.7216706895395
 20
184.0827115473272
 30
0.0
 11
131.1216706895395
 21
184.0827115473272
 31
0.0
  0
LINE
  5
75B
330
18
100
AcDbEntity
  8
L-1
  6
CONTINUOUS
 62
     7
100
AcDbLine
 10
130.7216706895395
 20
183.5827115473271
 30
0.0
 11
130.7216706895395
 21
184.0827115473272
 31
0.0
  0
ARC
  5
75C
330
18
100
AcDbEntity
  8
L-1
 62
     7
100
AcDbCircle
 10
106.1216706895395
 20
202.0827115473271
 30
0.0
 40
4.0
100
AcDbArc
 50
270.0
 51
90.0
  0
ARC
  5
75D
330
18
100
AcDbEntity
  8
L-1
 62
     7
100
AcDbCircle
 10
106.1216706895395
 20
202.0827115473271
 30
0.0
 40
2.5
100
AcDbArc
 50
233.1301023541562
 51
126.8698976458451
  0
LINE
  5
75E
330
18
100
AcDbEntity
  8
L-1
  6
CONTINUOUS
 62
     7
100
AcDbLine
 10
105.7216706895395
 20
206.5827115473271
 30
0.0
 11
105.7216706895395
 21
206.0827115473272
 31
0.0
  0
LINE
  5
75F
330
18
100
AcDbEntity
  8
L-1
 62
     7
100
AcDbLine
 10
105.7216706895395
 20
206.0827115473272
 30
0.0
 11
106.1216706895395
 21
206.0827115473272
 31
0.0
  0
LINE
  5
760
330
18
100
AcDbEntity
  8
L-1
 62
     7
100
AcDbLine
 10
122.1216706895395
 20
198.0827115473271
 30
0.0
 11
131.1216706895395
 21
198.0827115473271
 31
0.0
  0
LINE
  5
761
330
18
100
AcDbEntity
  8
L-1
 62
     7
100
AcDbLine
 10
122.1216706895395
 20
200.0827115473272
 30
0.0
 11
129.6216706895395
 21
200.0827115473271
 31
0.0
  0
LINE
  5
762
330
18
100
AcDbEntity
  8
L-1
 62
     7
100
AcDbLine
 10
122.1216706895395
 20
192.0827115473271
 30
0.0
 11
131.1216706895395
 21
192.0827115473271
 31
0.0
  0
ARC
  5
763
330
18
100
AcDbEntity
  8
L-1
 62
     7
100
AcDbCircle
 10
122.1216706895395
 20
199.0827115473272
 30
0.0
 40
1.0
100
AcDbArc
 50
90.0
 51
270.0
  0
LINE
  5
764
330
18
100
AcDbEntity
  8
L-1
 62
     7
100
AcDbLine
 10
122.1216706895395
 20
206.0827115473272
 30
0.0
 11
125.5216706895395
 21
206.0827115473272
 31
0.0
  0
LINE
  5
765
330
18
100
AcDbEntity
  8
L-1
 62
     7
100
AcDbLine
 10
122.1216706895395
 20
204.0827115473271
 30
0.0
 11
129.6216706895395
 21
204.0827115473272
 31
0.0
  0
ARC
  5
766
330
18
100
AcDbEntity
  8
L-1
 62
     7
100
AcDbCircle
 10
122.1216706895395
 20
205.0827115473271
 30
0.0
 40
1.0
100
AcDbArc
 50
90.0
 51
270.0
  0
ARC
  5
767
330
18
100
AcDbEntity
  8
L-1
  6
CONTINUOUS
 62
     7
100
AcDbCircle
 10
128.1216706895395
 20
206.5827115473271
 30
0.0
 40
2.6
100
AcDbArc
 50
0.0
 51
180.0
  0
LINE
  5
768
330
18
100
AcDbEntity
  8
L-1
  6
CONTINUOUS
 62
     7
100
AcDbLine
 10
125.5216706895395
 20
206.5827115473271
 30
0.0
 11
125.5216706895395
 21
206.0827115473272
 31
0.0
  0
LINE
  5
769
330
18
100
AcDbEntity
  8
L-1
 62
     7
100
AcDbLine
 10
130.7216706895395
 20
206.0827115473272
 30
0.0
 11
131.1216706895395
 21
206.0827115473272
 31
0.0
  0
LINE
  5
76A
330
18
100
AcDbEntity
  8
L-1
  6
CONTINUOUS
 62
     7
100
AcDbLine
 10
130.7216706895395
 20
206.5827115473271
 30
0.0
 11
130.7216706895395
 21
206.0827115473272
 31
0.0
  0
ARC
  5
76B
330
18
100
AcDbEntity
  8
L-1
 62
     7
100
AcDbCircle
 10
156.1216706895395
 20
188.0827115473271
 30
0.0
 40
4.0
100
AcDbArc
 50
270.0
 51
90.0
  0
ARC
  5
76C
330
18
100
AcDbEntity
  8
L-1
 62
     7
100
AcDbCircle
 10
147.1216706895395
 20
191.0827115473271
 30
0.0
 40
1.0
100
AcDbArc
 50
90.0
 51
270.0
  0
ARC
  5
76D
330
18
100
AcDbEntity
  8
L-1
 62
     7
100
AcDbCircle
 10
147.1216706895395
 20
185.0827115473272
 30
0.0
 40
1.0
100
AcDbArc
 50
90.0
 51
270.0
  0
CIRCLE
  5
76E
330
18
100
AcDbEntity
  8
L-1
  6
CONTINUOUS
 62
     7
100
AcDbCircle
 10
153.1216706895395
 20
173.0827115473271
 30
0.0
 40
2.6
  0
ARC
  5
76F
330
18
100
AcDbEntity
  8
L-1
 62
     7
100
AcDbCircle
 10
156.1216706895395
 20
188.0827115473271
 30
0.0
 40
2.5
100
AcDbArc
 50
233.1301023541562
 51
126.8698976458451
  0
LINE
  5
770
330
18
100
AcDbEntity
  8
L-1
 62
     7
100
AcDbLine
 10
147.1216706895395
 20
190.0827115473271
 30
0.0
 11
154.6216706895395
 21
190.0827115473271
 31
0.0
  0
LINE
  5
771
330
18
100
AcDbEntity
  8
L-1
 62
     7
100
AcDbLine
 10
147.1216706895395
 20
186.0827115473272
 30
0.0
 11
154.6216706895395
 21
186.0827115473271
 31
0.0
  0
ARC
  5
772
330
18
100
AcDbEntity
  8
L-1
  6
CONTINUOUS
 62
     7
100
AcDbCircle
 10
153.1216706895395
 20
183.5827115473271
 30
0.0
 40
2.6
100
AcDbArc
 50
180.0
 51
0.0
  0
LINE
  5
773
330
18
100
AcDbEntity
  8
L-1
 62
     7
100
AcDbLine
 10
147.1216706895395
 20
184.0827115473271
 30
0.0
 11
150.5216706895395
 21
184.0827115473271
 31
0.0
  0
LINE
  5
774
330
18
100
AcDbEntity
  8
L-1
  6
CONTINUOUS
 62
     7
100
AcDbLine
 10
150.5216706895395
 20
183.5827115473271
 30
0.0
 11
150.5216706895395
 21
184.0827115473271
 31
0.0
  0
LINE
  5
775
330
18
100
AcDbEntity
  8
L-1
 62
     7
100
AcDbLine
 10
155.7216706895395
 20
184.0827115473272
 30
0.0
 11
156.1216706895395
 21
184.0827115473272
 31
0.0
  0
LINE
  5
776
330
18
100
AcDbEntity
  8
L-1
  6
CONTINUOUS
 62
     7
100
AcDbLine
 10
155.7216706895395
 20
183.5827115473271
 30
0.0
 11
155.7216706895395
 21
184.0827115473272
 31
0.0
  0
ARC
  5
777
330
18
100
AcDbEntity
  8
L-1
 62
     7
100
AcDbCircle
 10
147.1216706895395
 20
205.0827115473271
 30
0.0
 40
1.0
100
AcDbArc
 50
90.0
 51
270.0
  0
ARC
  5
778
330
18
100
AcDbEntity
  8
L-1
 62
     7
100
AcDbCircle
 10
147.1216706895395
 20
199.0827115473272
 30
0.0
 40
1.0
100
AcDbArc
 50
90.0
 51
270.0
  0
ARC
  5
779
330
18
100
AcDbEntity
  8
L-1
 62
     7
100
AcDbCircle
 10
156.1216706895395
 20
202.0827115473271
 30
0.0
 40
2.5
100
AcDbArc
 50
233.1301023541562
 51
126.8698976458451
  0
ARC
  5
77A
330
18
100
AcDbEntity
  8
L-1
 62
     7
100
AcDbCircle
 10
156.1216706895395
 20
202.0827115473271
 30
0.0
 40
4.0
100
AcDbArc
 50
270.0
 51
90.0
  0
LINE
  5
77B
330
18
100
AcDbEntity
  8
L-1
 62
     7
100
AcDbLine
 10
147.1216706895395
 20
198.0827115473271
 30
0.0
 11
156.1216706895395
 21
198.0827115473271
 31
0.0
  0
LINE
  5
77C
330
18
100
AcDbEntity
  8
L-1
 62
     7
100
AcDbLine
 10
147.1216706895395
 20
200.0827115473272
 30
0.0
 11
154.6216706895395
 21
200.0827115473271
 31
0.0
  0
LINE
  5
77D
330
18
100
AcDbEntity
  8
L-1
 62
     7
100
AcDbLine
 10
147.1216706895395
 20
192.0827115473271
 30
0.0
 11
156.1216706895395
 21
192.0827115473271
 31
0.0
  0
LINE
  5
77E
330
18
100
AcDbEntity
  8
L-1
 62
     7
100
AcDbLine
 10
147.1216706895395
 20
204.0827115473271
 30
0.0
 11
154.6216706895395
 21
204.0827115473272
 31
0.0
  0
ARC
  5
77F
330
18
100
AcDbEntity
  8
L-1
  6
CONTINUOUS
 62
     7
100
AcDbCircle
 10
153.1216706895395
 20
206.5827115473271
 30
0.0
 40
2.6
100
AcDbArc
 50
0.0
 51
180.0
  0
LINE
  5
780
330
18
100
AcDbEntity
  8
L-1
 62
     7
100
AcDbLine
 10
147.1216706895395
 20
206.0827115473272
 30
0.0
 11
150.5216706895395
 21
206.0827115473272
 31
0.0
  0
LINE
  5
781
330
18
100
AcDbEntity
  8
L-1
  6
CONTINUOUS
 62
     7
100
AcDbLine
 10
150.5216706895395
 20
206.5827115473271
 30
0.0
 11
150.5216706895395
 21
206.0827115473272
 31
0.0
  0
LINE
  5
782
330
18
100
AcDbEntity
  8
L-1
 62
     7
100
AcDbLine
 10
155.7216706895395
 20
206.0827115473272
 30
0.0
 11
156.1216706895395
 21
206.0827115473272
 31
0.0
  0
LINE
  5
783
330
18
100
AcDbEntity
  8
L-1
  6
CONTINUOUS
 62
     7
100
AcDbLine
 10
155.7216706895395
 20
206.5827115473271
 30
0.0
 11
155.7216706895395
 21
206.0827115473272
 31
0.0
  0
ARC
  5
784
330
18
100
AcDbEntity
  8
L-1
 62
     7
100
AcDbCircle
 10
181.1216706895395
 20
144.082711547327
 30
0.0
 40
4.0
100
AcDbArc
 50
270.0
 51
90.00000000000003
  0
ARC
  5
785
330
18
100
AcDbEntity
  8
L-1
 62
     7
100
AcDbCircle
 10
172.1216706895395
 20
147.082711547327
 30
0.0
 40
1.0
100
AcDbArc
 50
90.00000000000003
 51
270.0
  0
ARC
  5
787
330
18
100
AcDbEntity
  8
L-1
  6
CONTINUOUS
 62
     7
100
AcDbCircle
 10
178.1216706895395
 20
139.582711547327
 30
0.0
 40
2.6
100
AcDbArc
 50
180.0
 51
0.0
  0
LINE
  5
788
330
18
100
AcDbEntity
  8
L-1
 62
     7
100
AcDbLine
 10
172.1216706895395
 20
142.0827115473271
 30
0.0
 11
179.6216706895395
 21
142.082711547327
 31
0.0
  0
LINE
  5
789
330
18
100
AcDbEntity
  8
L-1
 62
     7
100
AcDbLine
 10
172.1216706895395
 20
146.082711547327
 30
0.0
 11
179.6216706895395
 21
146.0827115473271
 31
0.0
  0
LINE
  5
78A
330
18
100
AcDbEntity
  8
L-1
 62
     7
100
AcDbLine
 10
172.1216706895395
 20
140.082711547327
 30
0.0
 11
175.5216706895395
 21
140.082711547327
 31
0.0
  0
ARC
  5
78B
330
18
100
AcDbEntity
  8
L-1
 62
     7
100
AcDbCircle
 10
172.1216706895395
 20
141.082711547327
 30
0.0
 40
1.0
100
AcDbArc
 50
90.00000000000003
 51
270.0
  0
LINE
  5
78C
330
18
100
AcDbEntity
  8
L-1
  6
CONTINUOUS
 62
     7
100
AcDbLine
 10
175.5216706895395
 20
139.582711547327
 30
0.0
 11
175.5216706895395
 21
140.082711547327
 31
0.0
  0
ARC
  5
78D
330
18
100
AcDbEntity
  8
L-1
 62
     7
100
AcDbCircle
 10
181.1216706895395
 20
144.082711547327
 30
0.0
 40
2.5
100
AcDbArc
 50
233.1301023541548
 51
126.8698976458437
  0
LINE
  5
78E
330
18
100
AcDbEntity
  8
L-1
  6
CONTINUOUS
 62
     7
100
AcDbLine
 10
180.7216706895395
 20
139.582711547327
 30
0.0
 11
180.7216706895395
 21
140.082711547327
 31
0.0
  0
LINE
  5
78F
330
18
100
AcDbEntity
  8
L-1
 62
     7
100
AcDbLine
 10
180.7216706895395
 20
140.082711547327
 30
0.0
 11
181.1216706895395
 21
140.082711547327
 31
0.0
  0
LINE
  5
791
330
18
100
AcDbEntity
  8
L-1
 62
     7
100
AcDbLine
 10
172.1216706895395
 20
154.082711547327
 30
0.0
 11
181.1216706895395
 21
154.082711547327
 31
0.0
  0
LINE
  5
792
330
18
100
AcDbEntity
  8
L-1
 62
     7
100
AcDbLine
 10
172.1216706895395
 20
156.0827115473271
 30
0.0
 11
179.6216706895395
 21
156.082711547327
 31
0.0
  0
LINE
  5
793
330
18
100
AcDbEntity
  8
L-1
 62
     7
100
AcDbLine
 10
172.1216706895395
 20
148.0827115473271
 30
0.0
 11
181.1216706895395
 21
148.082711547327
 31
0.0
  0
LINE
  5
794
330
18
100
AcDbEntity
  8
L-1
 62
     7
100
AcDbLine
 10
172.1216706895395
 20
160.082711547327
 30
0.0
 11
179.6216706895395
 21
160.0827115473271
 31
0.0
  0
ARC
  5
795
330
18
100
AcDbEntity
  8
L-1
  6
CONTINUOUS
 62
     7
100
AcDbCircle
 10
178.1216706895395
 20
162.582711547327
 30
0.0
 40
2.6
100
AcDbArc
 50
0.0
 51
180.0
  0
ARC
  5
796
330
18
100
AcDbEntity
  8
L-1
 62
     7
100
AcDbCircle
 10
172.1216706895395
 20
155.082711547327
 30
0.0
 40
1.0
100
AcDbArc
 50
90.00000000000003
 51
270.0
  0
LINE
  5
797
330
18
100
AcDbEntity
  8
L-1
 62
     7
100
AcDbLine
 10
172.1216706895395
 20
162.0827115473271
 30
0.0
 11
175.5216706895395
 21
162.0827115473271
 31
0.0
  0
ARC
  5
798
330
18
100
AcDbEntity
  8
L-1
 62
     7
100
AcDbCircle
 10
172.1216706895395
 20
161.082711547327
 30
0.0
 40
1.0
100
AcDbArc
 50
90.00000000000003
 51
270.0
  0
LINE
  5
799
330
18
100
AcDbEntity
  8
L-1
  6
CONTINUOUS
 62
     7
100
AcDbLine
 10
175.5216706895395
 20
162.582711547327
 30
0.0
 11
175.5216706895395
 21
162.0827115473271
 31
0.0
  0
ARC
  5
79A
330
18
100
AcDbEntity
  8
L-1
 62
     7
100
AcDbCircle
 10
181.1216706895395
 20
158.082711547327
 30
0.0
 40
2.5
100
AcDbArc
 50
233.1301023541548
 51
126.8698976458437
  0
ARC
  5
79B
330
18
100
AcDbEntity
  8
L-1
 62
     7
100
AcDbCircle
 10
181.1216706895395
 20
158.082711547327
 30
0.0
 40
4.0
100
AcDbArc
 50
270.0
 51
90.00000000000003
  0
LINE
  5
79C
330
18
100
AcDbEntity
  8
L-1
  6
CONTINUOUS
 62
     7
100
AcDbLine
 10
180.7216706895395
 20
162.582711547327
 30
0.0
 11
180.7216706895395
 21
162.082711547327
 31
0.0
  0
LINE
  5
79D
330
18
100
AcDbEntity
  8
L-1
 62
     7
100
AcDbLine
 10
180.7216706895395
 20
162.082711547327
 30
0.0
 11
181.1216706895395
 21
162.082711547327
 31
0.0
  0
ARC
  5
79E
330
18
100
AcDbEntity
  8
L-1
 62
     7
100
AcDbCircle
 10
181.1216706895395
 20
188.0827115473271
 30
0.0
 40
4.0
100
AcDbArc
 50
270.0
 51
90.0
  0
ARC
  5
79F
330
18
100
AcDbEntity
  8
L-1
 62
     7
100
AcDbCircle
 10
172.1216706895395
 20
191.0827115473271
 30
0.0
 40
1.0
100
AcDbArc
 50
90.0
 51
270.0
  0
LINE
  5
7A1
330
18
100
AcDbEntity
  8
L-1
 62
     7
100
AcDbLine
 10
172.1216706895395
 20
190.0827115473271
 30
0.0
 11
179.6216706895395
 21
190.0827115473271
 31
0.0
  0
LINE
  5
7A2
330
18
100
AcDbEntity
  8
L-1
 62
     7
100
AcDbLine
 10
172.1216706895395
 20
186.0827115473272
 30
0.0
 11
179.6216706895395
 21
186.0827115473271
 31
0.0
  0
ARC
  5
7A3
330
18
100
AcDbEntity
  8
L-1
  6
CONTINUOUS
 62
     7
100
AcDbCircle
 10
178.1216706895395
 20
183.5827115473271
 30
0.0
 40
2.6
100
AcDbArc
 50
180.0
 51
0.0
  0
CIRCLE
  5
7A4
330
18
100
AcDbEntity
  8
L-1
  6
CONTINUOUS
 62
     7
100
AcDbCircle
 10
178.1216706895395
 20
173.0827115473271
 30
0.0
 40
2.6
  0
ARC
  5
7A5
330
18
100
AcDbEntity
  8
L-1
 62
     7
100
AcDbCircle
 10
172.1216706895395
 20
185.0827115473272
 30
0.0
 40
1.0
100
AcDbArc
 50
90.0
 51
270.0
  0
LINE
  5
7A6
330
18
100
AcDbEntity
  8
L-1
 62
     7
100
AcDbLine
 10
172.1216706895395
 20
184.0827115473271
 30
0.0
 11
175.5216706895395
 21
184.0827115473271
 31
0.0
  0
LINE
  5
7A7
330
18
100
AcDbEntity
  8
L-1
  6
CONTINUOUS
 62
     7
100
AcDbLine
 10
175.5216706895395
 20
183.5827115473271
 30
0.0
 11
175.5216706895395
 21
184.0827115473271
 31
0.0
  0
ARC
  5
7A8
330
18
100
AcDbEntity
  8
L-1
 62
     7
100
AcDbCircle
 10
181.1216706895395
 20
188.0827115473271
 30
0.0
 40
2.5
100
AcDbArc
 50
233.1301023541562
 51
126.8698976458451
  0
LINE
  5
7A9
330
18
100
AcDbEntity
  8
L-1
 62
     7
100
AcDbLine
 10
180.7216706895395
 20
184.0827115473272
 30
0.0
 11
181.1216706895395
 21
184.0827115473272
 31
0.0
  0
LINE
  5
7AA
330
18
100
AcDbEntity
  8
L-1
  6
CONTINUOUS
 62
     7
100
AcDbLine
 10
180.7216706895395
 20
183.5827115473271
 30
0.0
 11
180.7216706895395
 21
184.0827115473272
 31
0.0
  0
LINE
  5
7AC
330
18
100
AcDbEntity
  8
L-1
 62
     7
100
AcDbLine
 10
172.1216706895395
 20
198.0827115473271
 30
0.0
 11
181.1216706895395
 21
198.0827115473271
 31
0.0
  0
LINE
  5
7AD
330
18
100
AcDbEntity
  8
L-1
 62
     7
100
AcDbLine
 10
172.1216706895395
 20
200.0827115473272
 30
0.0
 11
179.6216706895395
 21
200.0827115473271
 31
0.0
  0
LINE
  5
7AE
330
18
100
AcDbEntity
  8
L-1
 62
     7
100
AcDbLine
 10
172.1216706895395
 20
192.0827115473271
 30
0.0
 11
181.1216706895395
 21
192.0827115473271
 31
0.0
  0
LINE
  5
7AF
330
18
100
AcDbEntity
  8
L-1
 62
     7
100
AcDbLine
 10
172.1216706895395
 20
204.0827115473271
 30
0.0
 11
179.6216706895395
 21
204.0827115473272
 31
0.0
  0
ARC
  5
7B0
330
18
100
AcDbEntity
  8
L-1
  6
CONTINUOUS
 62
     7
100
AcDbCircle
 10
178.1216706895395
 20
206.5827115473271
 30
0.0
 40
2.6
100
AcDbArc
 50
0.0
 51
180.0
  0
ARC
  5
7B1
330
18
100
AcDbEntity
  8
L-1
 62
     7
100
AcDbCircle
 10
172.1216706895395
 20
199.0827115473272
 30
0.0
 40
1.0
100
AcDbArc
 50
90.0
 51
270.0
  0
LINE
  5
7B2
330
18
100
AcDbEntity
  8
L-1
 62
     7
100
AcDbLine
 10
172.1216706895395
 20
206.0827115473272
 30
0.0
 11
175.5216706895395
 21
206.0827115473272
 31
0.0
  0
ARC
  5
7B3
330
18
100
AcDbEntity
  8
L-1
 62
     7
100
AcDbCircle
 10
172.1216706895395
 20
205.0827115473271
 30
0.0
 40
1.0
100
AcDbArc
 50
90.0
 51
270.0
  0
LINE
  5
7B4
330
18
100
AcDbEntity
  8
L-1
  6
CONTINUOUS
 62
     7
100
AcDbLine
 10
175.5216706895395
 20
206.5827115473271
 30
0.0
 11
175.5216706895395
 21
206.0827115473272
 31
0.0
  0
ARC
  5
7B5
330
18
100
AcDbEntity
  8
L-1
 62
     7
100
AcDbCircle
 10
181.1216706895395
 20
202.0827115473271
 30
0.0
 40
2.5
100
AcDbArc
 50
233.1301023541562
 51
126.8698976458451
  0
ARC
  5
7B6
330
18
100
AcDbEntity
  8
L-1
 62
     7
100
AcDbCircle
 10
181.1216706895395
 20
202.0827115473271
 30
0.0
 40
4.0
100
AcDbArc
 50
270.0
 51
90.0
  0
LINE
  5
7B7
330
18
100
AcDbEntity
  8
L-1
 62
     7
100
AcDbLine
 10
180.7216706895395
 20
206.0827115473272
 30
0.0
 11
181.1216706895395
 21
206.0827115473272
 31
0.0
  0
LINE
  5
7B8
330
18
100
AcDbEntity
  8
L-1
  6
CONTINUOUS
 62
     7
100
AcDbLine
 10
180.7216706895395
 20
206.5827115473271
 30
0.0
 11
180.7216706895395
 21
206.0827115473272
 31
0.0
  0
LINE
  5
7BC
330
18
100
AcDbEntity
  8
L-1
  6
CONTINUOUS
 62
     7
100
AcDbLine
 10
123.1216706895395
 20
234.5327115473271
 30
0.0
 11
123.1216706895395
 21
235.5327115473271
 31
0.0
  0
LINE
  5
7BD
330
18
100
AcDbEntity
  8
L-1
  6
CONTINUOUS
 62
     7
100
AcDbLine
 10
116.6216706895395
 20
234.5327115473271
 30
0.0
 11
116.6216706895395
 21
235.5327115473271
 31
0.0
  0
LINE
  5
7BE
330
18
100
AcDbEntity
  8
L-1
  6
CONTINUOUS
 62
     7
100
AcDbLine
 10
114.6216706895395
 20
234.5327115473271
 30
0.0
 11
114.6216706895395
 21
235.5327115473271
 31
0.0
  0
LINE
  5
7BF
330
18
100
AcDbEntity
  8
L-1
  6
CONTINUOUS
 62
     7
100
AcDbLine
 10
108.1216706895395
 20
234.5327115473271
 30
0.0
 11
108.1216706895395
 21
235.5327115473271
 31
0.0
  0
CIRCLE
  5
7C0
330
18
100
AcDbEntity
  8
L-1
  6
CONTINUOUS
 62
     7
100
AcDbCircle
 10
128.1216706895395
 20
220.5827115473271
 30
0.0
 40
2.6
  0
LINE
  5
7C2
330
18
100
AcDbEntity
  8
L-1
  6
CONTINUOUS
 62
     7
100
AcDbLine
 10
158.1216706895395
 20
234.5327115473271
 30
0.0
 11
158.1216706895395
 21
235.5327115473271
 31
0.0
  0
LINE
  5
7C3
330
18
100
AcDbEntity
  8
L-1
  6
CONTINUOUS
 62
     7
100
AcDbLine
 10
148.1216706895395
 20
234.5327115473271
 30
0.0
 11
148.1216706895395
 21
235.5327115473271
 31
0.0
  0
LINE
  5
7C4
330
18
100
AcDbEntity
  8
L-1
  6
CONTINUOUS
 62
     7
100
AcDbLine
 10
141.6216706895395
 20
234.5327115473271
 30
0.0
 11
141.6216706895395
 21
235.5327115473271
 31
0.0
  0
LINE
  5
7C5
330
18
100
AcDbEntity
  8
L-1
  6
CONTINUOUS
 62
     7
100
AcDbLine
 10
139.6216706895395
 20
234.5327115473271
 30
0.0
 11
139.6216706895395
 21
235.5327115473271
 31
0.0
  0
LINE
  5
7C6
330
18
100
AcDbEntity
  8
L-1
  6
CONTINUOUS
 62
     7
100
AcDbLine
 10
133.1216706895395
 20
234.5327115473271
 30
0.0
 11
133.1216706895395
 21
235.5327115473271
 31
0.0
  0
CIRCLE
  5
7C7
330
18
100
AcDbEntity
  8
L-1
  6
CONTINUOUS
 62
     7
100
AcDbCircle
 10
153.1216706895395
 20
220.5827115473271
 30
0.0
 40
2.6
  0
LINE
  5
7C9
330
18
100
AcDbEntity
  8
L-1
  6
CENTER2
 62
     1
 48
0.2
100
AcDbLine
 10
178.1216706895395
 20
239.779863631211
 30
0.0
 11
178.1216706895395
 21
231.3172316311362
 31
0.0
  0
LINE
  5
7CA
330
18
100
AcDbEntity
  8
L-1
  6
CONTINUOUS
 62
     7
100
AcDbLine
 10
189.6216706895395
 20
234.5327115473271
 30
0.0
 11
189.6216706895395
 21
235.5327115473271
 31
0.0
  0
LINE
  5
7CB
330
18
100
AcDbEntity
  8
L-1
  6
CONTINUOUS
 62
     7
100
AcDbLine
 10
183.1216706895395
 20
234.5327115473271
 30
0.0
 11
183.1216706895395
 21
235.5327115473271
 31
0.0
  0
LINE
  5
7CC
330
18
100
AcDbEntity
  8
L-1
  6
CONTINUOUS
 62
     7
100
AcDbLine
 10
173.1216706895395
 20
234.5327115473271
 30
0.0
 11
173.1216706895395
 21
235.5327115473271
 31
0.0
  0
LINE
  5
7CD
330
18
100
AcDbEntity
  8
L-1
  6
CONTINUOUS
 62
     7
100
AcDbLine
 10
166.6216706895395
 20
234.5327115473271
 30
0.0
 11
166.6216706895395
 21
235.5327115473271
 31
0.0
  0
LINE
  5
7CE
330
18
100
AcDbEntity
  8
L-1
  6
CONTINUOUS
 62
     7
100
AcDbLine
 10
164.6216706895395
 20
234.5327115473271
 30
0.0
 11
164.6216706895395
 21
235.5327115473271
 31
0.0
  0
CIRCLE
  5
7CF
330
18
100
AcDbEntity
  8
L-1
  6
CONTINUOUS
 62
     7
100
AcDbCircle
 10
178.1216706895395
 20
220.5827115473271
 30
0.0
 40
2.6
  0
LINE
  5
7D1
330
18
100
AcDbEntity
  8
L-1
  6
CONTINUOUS
 62
     7
100
AcDbLine
 10
279.041263808614
 20
113.6327115473271
 30
0.0
 11
279.041263808614
 21
232.8327115473272
 31
0.0
  0
LINE
  5
7D2
330
18
100
AcDbEntity
  8
L-1
  6
CONTINUOUS
 62
     7
100
AcDbLine
 10
280.041263808614
 20
113.6327115473271
 30
0.0
 11
280.041263808614
 21
232.8327115473272
 31
0.0
  0
DIMENSION
  5
7D3
330
18
100
AcDbEntity
  8
L-2
  6
CONTINUOUS
100
AcDbDimension
  2
*D8
 10
230.0412638086141
 20
102.9489604651786
 30
0.0
 11
255.041263808614
 21
105.0489604651786
 31
0.0
 70
    32
  3
CAD-STD1
100
AcDbAlignedDimension
 13
280.041263808614
 23
113.6327115473271
 33
0.0
 14
230.0412638086141
 24
110.6327115473271
 34
0.0
100
AcDbRotatedDimension
  0
LINE
  5
7D4
330
18
100
AcDbEntity
  8
L-1
  6
CONTINUOUS
 62
     7
100
AcDbLine
 10
230.0412638086141
 20
111.6327115473271
 30
0.0
 11
277.041263808614
 21
111.6327115473271
 31
0.0
  0
LINE
  5
7D5
330
18
100
AcDbEntity
  8
L-1
  6
CONTINUOUS
 62
     7
100
AcDbLine
 10
230.0412638086141
 20
110.6327115473271
 30
0.0
 11
277.041263808614
 21
110.6327115473271
 31
0.0
  0
LINE
  5
7D6
330
18
100
AcDbEntity
  8
L-1
  6
CONTINUOUS
 62
     7
100
AcDbLine
 10
230.0412638086141
 20
110.6327115473271
 30
0.0
 11
230.0412638086141
 21
111.6327115473271
 31
0.0
  0
LINE
  5
7D7
330
18
100
AcDbEntity
  8
L-1
  6
CONTINUOUS
 62
     7
100
AcDbLine
 10
230.0412638086141
 20
110.6327115473271
 30
0.0
 11
230.0412638086141
 21
111.6327115473271
 31
0.0
  0
LINE
  5
7D8
330
18
100
AcDbEntity
  8
L-1
  6
CONTINUOUS
 62
     7
100
AcDbLine
 10
242.0412638086141
 20
110.6327115473271
 30
0.0
 11
242.0412638086141
 21
111.6327115473271
 31
0.0
  0
ARC
  5
7DC
330
18
100
AcDbEntity
  8
L-1
  6
CONTINUOUS
 62
     7
100
AcDbCircle
 10
277.0412638086139
 20
113.6327115473271
 30
0.0
 40
2.0
100
AcDbArc
 50
270.0
 51
0.0
  0
ARC
  5
7DD
330
18
100
AcDbEntity
  8
L-1
  6
CONTINUOUS
 62
     7
100
AcDbCircle
 10
277.0412638086139
 20
113.6327115473271
 30
0.0
 40
3.0
100
AcDbArc
 50
270.0
 51
0.0
  0
LINE
  5
7E5
330
18
100
AcDbEntity
  8
L-1
  6
CONTINUOUS
 62
     7
100
AcDbLine
 10
230.0412638086139
 20
235.532711547327
 30
0.0
 11
277.041263808614
 21
235.5327115473271
 31
0.0
  0
LINE
  5
7E6
330
18
100
AcDbEntity
  8
L-1
  6
CONTINUOUS
 62
     7
100
AcDbLine
 10
230.0412638086139
 20
234.5327115473271
 30
0.0
 11
277.041263808614
 21
234.5327115473271
 31
0.0
  0
LINE
  5
7E7
330
18
100
AcDbEntity
  8
L-1
  6
CONTINUOUS
 62
     7
100
AcDbLine
 10
242.041263808614
 20
234.5327115473271
 30
0.0
 11
242.041263808614
 21
235.5327115473271
 31
0.0
  0
LINE
  5
7E8
330
18
100
AcDbEntity
  8
L-1
  6
CONTINUOUS
 62
     7
100
AcDbLine
 10
230.0412638086141
 20
235.5327115473271
 30
0.0
 11
230.0412638086142
 21
234.5327115473271
 31
0.0
  0
LINE
  5
7E9
330
18
100
AcDbEntity
  8
L-1
  6
CONTINUOUS
 62
     7
100
AcDbLine
 10
230.041263808614
 20
234.5327115473271
 30
0.0
 11
230.041263808614
 21
235.5327115473271
 31
0.0
  0
ARC
  5
7EA
330
18
100
AcDbEntity
  8
L-1
  6
CONTINUOUS
 62
     7
100
AcDbCircle
 10
277.041263808614
 20
232.5327115473272
 30
0.0
 40
3.0
100
AcDbArc
 50
0.0
 51
90.0
  0
ARC
  5
7EB
330
18
100
AcDbEntity
  8
L-1
  6
CONTINUOUS
 62
     7
100
AcDbCircle
 10
277.0412638086139
 20
232.5327115473272
 30
0.0
 40
2.0
100
AcDbArc
 50
0.0
 51
90.00000000000005
  0
LINE
  5
8A7
330
18
100
AcDbEntity
  8
L-2
  6
CONTINUOUS
 62
     4
100
AcDbLine
 10
385.0
 20
269.0
 30
0.0
 11
328.2023283086426
 21
269.0
 31
0.0
  0
LINE
  5
8A8
330
18
100
AcDbEntity
  8
L-2
  6
CONTINUOUS
 62
     4
100
AcDbLine
 10
385.0
 20
263.0
 30
0.0
 11
328.2023283086426
 21
263.0
 31
0.0
  0
LINE
  5
8A9
330
18
100
AcDbEntity
  8
L-2
  6
CONTINUOUS
 62
     4
100
AcDbLine
 10
385.0
 20
257.0
 30
0.0
 11
328.2023283086426
 21
257.0
 31
0.0
  0
LINE
  5
8AA
330
18
100
AcDbEntity
  8
L-2
  6
CONTINUOUS
 62
     4
100
AcDbLine
 10
385.0
 20
251.0
 30
0.0
 11
328.2023283086426
 21
251.0000000000001
 31
0.0
  0
LINE
  5
8AB
330
18
100
AcDbEntity
  8
L-2
  6
CONTINUOUS
 62
     4
100
AcDbLine
 10
385.0
 20
245.0
 30
0.0
 11
328.2023283086426
 21
245.0
 31
0.0
  0
LINE
  5
8AC
330
18
100
AcDbEntity
  8
L-2
  6
CONTINUOUS
 62
     4
100
AcDbLine
 10
385.0
 20
239.0
 30
0.0
 11
328.2023283086426
 21
238.9999999999999
 31
0.0
  0
LINE
  5
8AD
330
18
100
AcDbEntity
  8
L-2
  6
CONTINUOUS
 62
     4
100
AcDbLine
 10
385.0
 20
233.0
 30
0.0
 11
328.2023283086426
 21
233.0
 31
0.0
  0
LINE
  5
8B1
330
18
100
AcDbEntity
  8
L-2
  6
CONTINUOUS
 62
     4
100
AcDbLine
 10
328.2023283086426
 20
275.0
 30
0.0
 11
328.2023283086426
 21
202.9999999999999
 31
0.0
  0
TEXT
  5
8B4
330
18
100
AcDbEntity
  8
L-2
  6
CONTINUOUS
 62
     2
100
AcDbText
 10
360.3809366445327
 20
264.7840903232213
 30
0.0
 40
3.0
  1
A寸法(mm)
  7
MSゴシック
100
AcDbText
  0
TEXT
  5
8BD
330
18
100
AcDbEntity
  8
L-2
  6
CONTINUOUS
 62
     2
100
AcDbText
 10
369.2352732707845
 20
257.7998883123977
 30
0.0
 40
3.0
  1
25
  7
MSゴシック
100
AcDbText
  0
TEXT
  5
8BE
330
18
100
AcDbEntity
  8
L-2
  6
CONTINUOUS
 62
     2
100
AcDbText
 10
369.2352732707845
 20
251.7998883123977
 30
0.0
 40
3.0
  1
50
  7
MSゴシック
100
AcDbText
  0
TEXT
  5
8BF
330
18
100
AcDbEntity
  8
L-2
  6
CONTINUOUS
 62
     2
100
AcDbText
 10
369.2352732707846
 20
245.7998883123977
 30
0.0
 40
3.0
  1
75
  7
MSゴシック
100
AcDbText
  0
TEXT
  5
8C2
330
18
100
AcDbEntity
  8
L-2
  6
CONTINUOUS
 62
     2
100
AcDbText
 10
366.5146924046524
 20
203.7998883123977
 30
0.0
 40
3.0
  1
250
  7
MSゴシック
100
AcDbText
  0
TEXT
  5
8C3
330
18
100
AcDbEntity
  8
L-2
  6
CONTINUOUS
 62
     2
100
AcDbText
 10
366.5146924046524
 20
233.7998883123977
 30
0.0
 40
3.0
  1
125
  7
MSゴシック
100
AcDbText
  0
TEXT
  5
8C4
330
18
100
AcDbEntity
  8
L-2
  6
CONTINUOUS
 62
     2
100
AcDbText
 10
366.5146924046524
 20
239.7998883123977
 30
0.0
 40
3.0
  1
100
  7
MSゴシック
100
AcDbText
  0
TEXT
  5
8C5
330
18
100
AcDbEntity
  8
L-2
  6
CONTINUOUS
 62
     2
100
AcDbText
 10
330.0616099827435
 20
264.7840903232213
 30
0.0
 40
3.0
  1
MT20実装数量
  7
MSゴシック
100
AcDbText
  0
TEXT
  5
8CE
330
18
100
AcDbEntity
  8
L-2
  6
CONTINUOUS
 62
     2
100
AcDbText
 10
340.7105997380667
 20
258.3700918678474
 30
0.0
 40
3.0
  1
1
  7
MSゴシック
100
AcDbText
  0
TEXT
  5
8CF
330
18
100
AcDbEntity
  8
L-2
  6
CONTINUOUS
 62
     2
100
AcDbText
 10
340.4500445733021
 20
252.4568787521749
 30
0.0
 40
3.0
  1
2
  7
MSゴシック
100
AcDbText
  0
TEXT
  5
8D0
330
18
100
AcDbEntity
  8
L-2
  6
CONTINUOUS
 62
     2
100
AcDbText
 10
340.4500445733021
 20
246.456878752175
 30
0.0
 40
3.0
  1
3
  7
MSゴシック
100
AcDbText
  0
TEXT
  5
8D1
330
18
100
AcDbEntity
  8
L-2
  6
CONTINUOUS
 62
     2
100
AcDbText
 10
340.4500445733021
 20
240.4568787521749
 30
0.0
 40
3.0
  1
4
  7
MSゴシック
100
AcDbText
  0
TEXT
  5
8D2
330
18
100
AcDbEntity
  8
L-2
  6
CONTINUOUS
 62
     2
100
AcDbText
 10
340.4500445733021
 20
234.4568787521749
 30
0.0
 40
3.0
  1
5
  7
MSゴシック
100
AcDbText
  0
TEXT
  5
8D3
330
18
100
AcDbEntity
  8
L-2
  6
CONTINUOUS
 62
     2
100
AcDbText
 10
338.226823578549
 20
204.4568787521749
 30
0.0
 40
3.0
  1
10
  7
MSゴシック
100
AcDbText
  0
LINE
  5
958
330
18
100
AcDbEntity
  8
L-1
  6
PHANTOM
 62
     3
 48
0.5
100
AcDbLine
 10
165.6216706895395
 20
110.6327115473271
 30
0.0
 11
165.6216706895395
 21
235.532711547327
 31
0.0
  0
SPLINE
  5
998
330
18
100
AcDbEntity
  8
L-1
  6
CONTINUOUS
 62
     3
 48
0.1
100
AcDbSpline
210
0.0
220
0.0
230
1.0
 70
     8
 71
     3
 72
    11
 73
     7
 74
     5
 42
0.0000000001
 43
0.0000000001
 44
0.0000000001
 40
0.0
 40
0.0
 40
0.0
 40
0.0
 40
20.68753505732162
 40
54.56109985675857
 40
100.4351598064751
 40
125.8896153727909
 40
125.8896153727909
 40
125.8896153727909
 40
125.8896153727909
 10
85.72287917999734
 20
235.5327115473271
 30
0.0
 10
87.28886484825199
 20
228.765284699486
 30
0.0
 10
91.41897992397995
 20
210.9169402256148
 30
0.0
 10
85.68872584348939
 20
177.2999024884591
 30
0.0
 10
94.53682413503653
 20
142.048923898972
 30
0.0
 10
88.04099534974278
 20
118.8953487904685
 30
0.0
 10
85.72287917999734
 20
110.6327115473271
 30
0.0
 11
85.72287917999734
 21
235.5327115473271
 31
0.0
 11
89.3795424598718
 21
215.1709110275909
 31
0.0
 11
88.40443225190529
 21
181.3113842691736
 31
0.0
 11
91.08598532381325
 21
135.5157660356272
 31
0.0
 11
85.72287917999734
 21
110.6327115473271
 31
0.0
  0
SPLINE
  5
99A
330
18
100
AcDbEntity
  8
L-1
  6
CONTINUOUS
 62
     3
 48
0.1
100
AcDbSpline
210
0.0
220
0.0
230
1.0
 70
     8
 71
     3
 72
    11
 73
     7
 74
     5
 42
0.0000000001
 43
0.0000000001
 44
0.0000000001
 40
0.0
 40
0.0
 40
0.0
 40
0.0
 40
20.68753505732162
 40
54.56109985675857
 40
100.4351598064751
 40
125.8896153727909
 40
125.8896153727909
 40
125.8896153727909
 40
125.8896153727909
 10
87.67309959593035
 20
235.5327115473271
 30
0.0
 10
89.239085264185
 20
228.765284699486
 30
0.0
 10
93.36920033991297
 20
210.9169402256148
 30
0.0
 10
87.63894625942242
 20
177.2999024884591
 30
0.0
 10
96.48704455096952
 20
142.048923898972
 30
0.0
 10
89.99121576567581
 20
118.8953487904685
 30
0.0
 10
87.67309959593035
 20
110.6327115473271
 30
0.0
 11
87.67309959593035
 21
235.5327115473271
 31
0.0
 11
91.32976287580481
 21
215.1709110275909
 31
0.0
 11
90.3546526678383
 21
181.3113842691736
 31
0.0
 11
93.03620573974626
 21
135.5157660356272
 31
0.0
 11
87.67309959593035
 21
110.6327115473271
 31
0.0
  0
LINE
  5
99B
330
18
100
AcDbEntity
  8
L-1
  6
CONTINUOUS
 62
     7
100
AcDbLine
 10
85.95415356034664
 20
234.5327115473271
 30
0.0
 11
65.62167068953954
 21
234.5327115473271
 31
0.0
  0
LINE
  5
99C
330
18
100
AcDbEntity
  8
L-1
  6
CONTINUOUS
 62
     7
100
AcDbLine
 10
85.72287917999734
 20
235.5327115473271
 30
0.0
 11
65.62167068953954
 21
235.5327115473271
 31
0.0
  0
LINE
  5
99D
330
18
100
AcDbEntity
  8
L-1
  6
CONTINUOUS
 62
     7
100
AcDbLine
 10
86.00332698255954
 20
111.6327115473271
 30
0.0
 11
65.62167068953954
 21
111.6327115473271
 31
0.0
  0
LINE
  5
99E
330
18
100
AcDbEntity
  8
L-1
  6
CONTINUOUS
 62
     7
100
AcDbLine
 10
85.72287917999734
 20
110.6327115473271
 30
0.0
 11
65.62167068953954
 21
110.6327115473271
 31
0.0
  0
SPLINE
  5
99F
330
18
100
AcDbEntity
  8
L-1
  6
CONTINUOUS
 62
     3
 48
0.1
100
AcDbSpline
210
0.0
220
0.0
230
1.0
 70
     8
 71
     3
 72
    11
 73
     7
 74
     5
 42
0.0000000001
 43
0.0000000001
 44
0.0000000001
 12
-0.1280432516814572
 22
-0.9917685847509181
 32
0.0
 13
-0.7794264765074516
 23
-0.6264937092415048
 33
0.0
 40
0.0
 40
0.0
 40
0.0
 40
0.0
 40
15.64326374802244
 40
30.74768697366303
 40
44.34247381755406
 40
51.27748615617884
 40
51.27748615617884
 40
51.27748615617884
 40
51.27748615617884
 10
85.20123116943659
 20
84.47037614241821
 30
0.0
 10
84.53355971703411
 20
79.29887695966437
 30
0.0
 10
88.34054181942647
 20
69.02857116127332
 30
0.0
 10
81.77144481911861
 20
54.29111476096929
 30
0.0
 10
89.13403727744476
 20
42.82818388259118
 30
0.0
 10
85.54478069233416
 20
35.91862334363843
 30
0.0
 10
83.74300328179083
 20
34.47037614241821
 30
0.0
 11
85.20123116943659
 21
84.47037614241821
 31
0.0
 11
86.24282325039644
 21
68.86182763119927
 31
0.0
 11
84.36795827394211
 21
53.87421667083152
 31
0.0
 11
87.07609614589092
 21
40.55189635501005
 31
0.0
 11
83.74300328179083
 21
34.47037614241821
 31
0.0
  0
SPLINE
  5
9A0
330
18
100
AcDbEntity
  8
L-1
  6
CONTINUOUS
 62
     3
 48
0.1
100
AcDbSpline
210
0.0
220
0.0
230
1.0
 70
     8
 71
     3
 72
    11
 73
     7
 74
     5
 42
0.0000000001
 43
0.0000000001
 44
0.0000000001
 12
-0.1280432516814572
 22
-0.9917685847509181
 32
0.0
 13
-0.7794264765074516
 23
-0.6264937092415048
 33
0.0
 40
0.0
 40
0.0
 40
0.0
 40
0.0
 40
15.64326374802244
 40
30.74768697366303
 40
44.34247381755406
 40
51.27748615617884
 40
51.27748615617884
 40
51.27748615617884
 40
51.27748615617884
 10
86.86777824254773
 20
84.47037614241821
 30
0.0
 10
86.20010679014525
 20
79.29887695966437
 30
0.0
 10
90.00708889253761
 20
69.02857116127332
 30
0.0
 10
83.43799189222975
 20
54.29111476096929
 30
0.0
 10
90.80058435055589
 20
42.82818388259118
 30
0.0
 10
87.2113277654453
 20
35.91862334363843
 30
0.0
 10
85.40955035490197
 20
34.47037614241821
 30
0.0
 11
86.86777824254773
 21
84.47037614241821
 31
0.0
 11
87.90937032350758
 21
68.86182763119927
 31
0.0
 11
86.03450534705325
 21
53.87421667083152
 31
0.0
 11
88.74264321900204
 21
40.55189635501005
 31
0.0
 11
85.40955035490197
 21
34.47037614241821
 31
0.0
  0
LINE
  5
9A1
330
18
100
AcDbEntity
  8
L-1
  6
CONTINUOUS
 62
     7
100
AcDbLine
 10
86.86777824254773
 20
84.47037614241821
 30
0.0
 11
88.62167068953954
 21
84.47037614241821
 31
0.0
  0
LINE
  5
9A2
330
18
100
AcDbEntity
  8
L-1
  6
DASHED2
 62
     3
 48
0.7
100
AcDbLine
 10
86.44559032347572
 20
35.47037614241821
 30
0.0
 11
190.6216706895395
 21
35.47037614241821
 31
0.0
  0
LINE
  5
9A3
330
18
100
AcDbEntity
  8
L-1
  6
CONTINUOUS
 62
     7
100
AcDbLine
 10
85.40955035490197
 20
34.47037614241821
 30
0.0
 11
190.6216706895395
 21
34.47037614241821
 31
0.0
  0
LINE
  5
A7A
330
18
100
AcDbEntity
  8
L-1
  6
PHANTOM
 62
     3
 48
0.3
100
AcDbLine
 10
165.6216706895395
 20
72.47037614241822
 30
0.0
 11
165.6216706895395
 21
34.47037614241821
 31
0.0
  0
LINE
  5
AA7
330
18
100
AcDbEntity
  8
L-2
  6
BYBLOCK
 62
     4
100
AcDbLine
 10
190.6216706895395
 20
236.0327115473271
 30
0.0
 11
190.6216706895395
 21
252.5992210665117
 31
0.0
  0
LINE
  5
AA8
330
18
100
AcDbEntity
  8
L-2
  6
BYBLOCK
 62
     4
100
AcDbLine
 10
65.62167068953954
 20
236.0327115473271
 30
0.0
 11
65.62167068953954
 21
252.5992210665117
 31
0.0
  0
LINE
  5
AA9
330
18
100
AcDbEntity
  8
L-2
  6
BYBLOCK
 62
     4
100
AcDbLine
 10
188.1216706895395
 20
251.5992210665117
 30
0.0
 11
68.12167068953954
 21
251.5992210665117
 31
0.0
  0
INSERT
  5
AAA
330
18
100
AcDbEntity
  8
L-2
  6
BYBLOCK
 62
     4
100
AcDbBlockReference
  2
_OPEN
 10
190.6216706895395
 20
251.5992210665117
 30
0.0
 41
2.5
 42
2.5
 43
2.5
  0
INSERT
  5
AAB
330
18
100
AcDbEntity
  8
L-2
  6
BYBLOCK
 62
     4
100
AcDbBlockReference
  2
_OPEN
 10
65.62167068953954
 20
251.5992210665117
 30
0.0
 41
2.5
 42
2.5
 43
2.5
 50
180.0
  0
MTEXT
  5
AAC
330
18
100
AcDbEntity
  8
L-2
  6
BYBLOCK
 62
     2
100
AcDbMText
 10
131.5579495806516
 20
254.2234310404954
 30
0.0
 40
4.0
 41
0.0
 71
     5
 72
     1
  1
A
  7
MSゴシック
1001
ACAD
1000
MTEXTBEGIN
1070
    73
1070
     1
1070
    44
1040
1.0
1070
    74
1070
     0
1000
MTEXTEND
  0
POINT
  5
AAE
330
18
100
AcDbEntity
  8
DEFPOINTS
  6
BYBLOCK
 62
     0
100
AcDbPoint
 10
65.62167068953954
 20
235.5327115473271
 30
0.0
  0
POINT
  5
AAF
330
18
100
AcDbEntity
  8
L-2
  6
BYBLOCK
 62
     0
100
AcDbPoint
 10
65.62167068953954
 20
251.5992210665117
 30
0.0
  0
DIMENSION
  5
B89
330
18
100
AcDbEntity
  8
L-2
  6
CONTINUOUS
100
AcDbDimension
  2
*D9
 10
200.976670609547
 20
125.5827115473271
 30
0.0
 11
198.8766706095469
 21
173.0827115473271
 31
0.0
 70
    32
  3
CAD-STD1
100
AcDbAlignedDimension
 13
183.3484187085522
 23
220.5827115473271
 33
0.0
 14
183.3484187085522
 24
125.5827115473271
 34
0.0
 50
90.0
100
AcDbRotatedDimension
  0
LINE
  5
C2B
330
18
100
AcDbEntity
  8
L-2
  6
CONTINUOUS
 62
     4
100
AcDbLine
 10
385.0
 20
227.0
 30
0.0
 11
328.2023283086426
 21
227.0
 31
0.0
  0
LINE
  5
C5C
330
18
100
AcDbEntity
  8
L-2
  6
CONTINUOUS
 62
     4
100
AcDbLine
 10
385.0
 20
208.9999999999999
 30
0.0
 11
328.2023283086426
 21
208.9999999999999
 31
0.0
  0
LINE
  5
C5E
330
18
100
AcDbEntity
  8
L-2
  6
CONTINUOUS
 62
     4
100
AcDbLine
 10
385.0
 20
214.9999999999999
 30
0.0
 11
328.2023283086426
 21
214.9999999999999
 31
0.0
  0
LINE
  5
C5F
330
18
100
AcDbEntity
  8
L-2
  6
CONTINUOUS
 62
     4
100
AcDbLine
 10
385.0
 20
220.9999999999999
 30
0.0
 11
328.2023283086426
 21
220.9999999999999
 31
0.0
  0
TEXT
  5
C61
330
18
100
AcDbEntity
  8
L-2
  6
CONTINUOUS
 62
     2
100
AcDbText
 10
340.4500445733021
 20
228.4568787521749
 30
0.0
 40
3.0
  1
6
  7
MSゴシック
100
AcDbText
  0
TEXT
  5
C63
330
18
100
AcDbEntity
  8
L-2
  6
CONTINUOUS
 62
     2
100
AcDbText
 10
366.5146924046524
 20
227.7998883123977
 30
0.0
 40
3.0
  1
150
  7
MSゴシック
100
AcDbText
  0
TEXT
  5
C66
330
18
100
AcDbEntity
  8
L-2
  6
CONTINUOUS
 62
     2
100
AcDbText
 10
340.4500445733021
 20
222.456878752175
 30
0.0
 40
3.0
  1
7
  7
MSゴシック
100
AcDbText
  0
TEXT
  5
C68
330
18
100
AcDbEntity
  8
L-2
  6
CONTINUOUS
 62
     2
100
AcDbText
 10
366.5146924046524
 20
221.7998883123977
 30
0.0
 40
3.0
  1
175
  7
MSゴシック
100
AcDbText
  0
TEXT
  5
C6B
330
18
100
AcDbEntity
  8
L-2
  6
CONTINUOUS
 62
     2
100
AcDbText
 10
340.4500445733021
 20
216.4568787521749
 30
0.0
 40
3.0
  1
8
  7
MSゴシック
100
AcDbText
  0
TEXT
  5
C6D
330
18
100
AcDbEntity
  8
L-2
  6
CONTINUOUS
 62
     2
100
AcDbText
 10
366.5146924046524
 20
215.7998883123977
 30
0.0
 40
3.0
  1
200
  7
MSゴシック
100
AcDbText
  0
TEXT
  5
C70
330
18
100
AcDbEntity
  8
L-2
  6
CONTINUOUS
 62
     2
100
AcDbText
 10
340.4500445733021
 20
210.4568787521749
 30
0.0
 40
3.0
  1
9
  7
MSゴシック
100
AcDbText
  0
TEXT
  5
C72
330
18
100
AcDbEntity
  8
L-2
  6
CONTINUOUS
 62
     2
100
AcDbText
 10
366.5146924046524
 20
209.7998883123977
 30
0.0
 40
3.0
  1
225
  7
MSゴシック
100
AcDbText
  0
LINE
  5
DD8
330
18
100
AcDbEntity
  8
L-1
  6
CONTINUOUS
 62
     5
100
AcDbLine
 10
305.0
 20
36.0
 30
0.0
 11
385.0
 21
36.0
 31
0.0
  0
LINE
  5
DD9
330
18
100
AcDbEntity
  8
L-1
  6
CONTINUOUS
 62
     5
100
AcDbLine
 10
305.0
 20
14.0
 30
0.0
 11
385.0
 21
14.0
 31
0.0
  0
TEXT
  5
DDB
330
18
100
AcDbEntity
  8
L-1
  6
CONTINUOUS
 62
     2
100
AcDbText
 10
319.7336383125916
 20
7.873740483041586
 30
0.0
 40
4.4
  1
東京通信機工業株式会社
  7
MSゴシック
100
AcDbText
  0
INSERT
  5
DDC
330
18
100
AcDbEntity
  8
L-1
100
AcDbBlockReference
  2
TK
 10
317.7082288000562
 20
9.776842374659864
 30
0.0
  0
LINE
  5
DDF
330
18
100
AcDbEntity
  8
L-1
  6
CONTINUOUS
 62
     5
100
AcDbLine
 10
385.0
 20
275.0
 30
0.0
 11
385.0
 21
6.0
 31
0.0
  0
LINE
  5
DE0
330
18
100
AcDbEntity
  8
L-1
  6
CONTINUOUS
 62
     5
100
AcDbLine
 10
6.0
 20
6.0
 30
0.0
 11
385.0
 21
6.0
 31
0.0
  0
LINE
  5
DE1
330
18
100
AcDbEntity
  8
L-1
  6
CONTINUOUS
 62
     5
100
AcDbLine
 10
6.0
 20
275.0
 30
0.0
 11
6.0
 21
6.0
 31
0.0
  0
LINE
  5
DE2
330
18
100
AcDbEntity
  8
L-1
  6
CONTINUOUS
 62
     5
100
AcDbLine
 10
385.0
 20
275.0
 30
0.0
 11
6.0
 21
275.0
 31
0.0
  0
LINE
  5
DE4
330
18
100
AcDbEntity
  8
L-1
  6
CONTINUOUS
 62
     5
100
AcDbLine
 10
305.0
 20
36.0
 30
0.0
 11
305.0
 21
6.0
 31
0.0
  0
LINE
  5
DE5
330
18
100
AcDbEntity
  8
L-2
  6
CONTINUOUS
 62
     4
100
AcDbLine
 10
385.0
 20
202.9999999999999
 30
0.0
 11
328.2023283086426
 21
202.9999999999999
 31
0.0
  0
LINE
  5
DE6
330
18
100
AcDbEntity
  8
L-2
  6
CONTINUOUS
 62
     4
100
AcDbLine
 10
355.6584657815822
 20
269.0
 30
0.0
 11
355.6584657815822
 21
202.9999999999999
 31
0.0
  0
TEXT
  5
DE7
330
18
100
AcDbEntity
  8
L-2
  6
CONTINUOUS
 62
     2
100
AcDbText
 10
344.2666551517007
 20
270.3858121092654
 30
0.0
 40
3.0
  1
Ａ寸法一覧
  7
MSゴシック
100
AcDbText
  0
LEADER
  5
E8E
330
18
100
AcDbEntity
  8
L-1
  6
CONTINUOUS
100
AcDbLeader
  3
CAD-STD1
 73
     0
 74
     0
 40
4.266666666666666
 41
9.323857868020306
 76
     3
 10
179.9723092489952
 20
222.4089472720504
 30
0.0
 10
204.4130068836381
 20
247.8113278268638
 30
0.0
 10
212.0494040483591
 20
247.8113278268638
 30
0.0
340
E8F
213
5.988516557046239
223
0.0
233
0.0
1001
ACAD
1000
DSTYLE
1002
{
1070
     6
1000
OPEN
1070
    77
1070
     1
1070
   147
1040
0.2
1002
}
1000
LEANOF
1010
5.988516557046239
1020
0.0
1030
0.0
  0
MTEXT
  5
E8F
330
18
100
AcDbEntity
  8
L-1
  6
CONTINUOUS
 62
     2
100
AcDbMText
 10
206.2608874913129
 20
248.0113278268638
 30
0.0
 40
3.2
 41
0.0
 71
     7
 72
     1
  1
\A1;φ5.2
  7
MSゴシック
1001
ACAD
1000
MTEXTBEGIN
1070
    73
1070
     2
1070
    44
1040
1.0
1070
    74
1070
     0
1000
MTEXTEND
  0
TEXT
  5
E90
330
18
100
AcDbEntity
  8
L-2
  6
CONTINUOUS
 62
     2
100
AcDbText
 10
206.1409220352569
 20
243.4260701420468
 30
0.0
 40
3.5
  1
取付用穴
  7
MSゴシック
100
AcDbText
  0
TEXT
  5
E99
330
18
100
AcDbEntity
  8
L-2
  6
CONTINUOUS
 62
     2
100
AcDbText
 10
349.6157375164546
 20
37.86276833231591
 30
0.0
 40
4.0
  1
（単位：ｍｍ）
  7
MSゴシック
100
AcDbText
  0
LINE
  5
EB6
330
18
100
AcDbEntity
  8
L-1
  6
CONTINUOUS
 62
     7
 48
0.5
100
AcDbLine
 10
174.8716706895395
 20
79.97037614241833
 30
0.0
 11
174.8716706895395
 21
76.97037614241833
 31
0.0
  0
LINE
  5
EB7
330
18
100
AcDbEntity
  8
L-1
  6
CONTINUOUS
 62
     7
 48
0.5
100
AcDbLine
 10
181.3716706895395
 20
79.9703761424179
 30
0.0
 11
181.3716706895395
 21
76.97037614241827
 31
0.0
  0
LINE
  5
EB8
330
18
100
AcDbEntity
  8
L-1
  6
CONTINUOUS
 62
     7
100
AcDbLine
 10
174.8716706895395
 20
76.97037614241833
 30
0.0
 11
181.3716706895395
 21
76.97037614241827
 31
0.0
  0
ARC
  5
EB9
330
18
100
AcDbEntity
  8
L-1
  6
CONTINUOUS
 62
     7
100
AcDbCircle
 10
174.1216706895395
 20
81.47037614241833
 30
0.0
 40
1.0
100
AcDbArc
 50
180.0
 51
270.0
  0
ARC
  5
EBA
330
18
100
AcDbEntity
  8
L-1
  6
CONTINUOUS
 48
0.5
100
AcDbCircle
 10
174.3716706895395
 20
79.97037614241833
 30
0.0
 40
0.5
100
AcDbArc
 50
0.0
 51
90.0
  0
LINE
  5
EBC
330
18
100
AcDbEntity
  8
L-1
  6
CONTINUOUS
 62
     7
100
AcDbLine
 10
174.1216706895394
 20
80.47037614241878
 30
0.0
 11
174.3716706895396
 21
80.47037614241876
 31
0.0
  0
ARC
  5
EBD
330
18
100
AcDbEntity
  8
L-1
  6
CONTINUOUS
 62
     7
100
AcDbCircle
 10
182.1216706895395
 20
81.47037614241828
 30
0.0
 40
1.0
100
AcDbArc
 50
270.0
 51
0.0
  0
ARC
  5
EBE
330
18
100
AcDbEntity
  8
L-1
  6
CONTINUOUS
 48
0.5
100
AcDbCircle
 10
181.8716706895395
 20
79.9703761424179
 30
0.0
 40
0.5
100
AcDbArc
 50
89.99999999999349
 51
180.0
  0
LINE
  5
EC0
330
18
100
AcDbEntity
  8
L-1
  6
CONTINUOUS
 62
     7
100
AcDbLine
 10
181.8716706895396
 20
80.47037614241791
 30
0.0
 11
182.1216706895394
 21
80.47037614241787
 31
0.0
  0
LINE
  5
EC2
330
18
100
AcDbEntity
  8
L-1
  6
CONTINUOUS
 62
     7
100
AcDbLine
 10
149.8716706895395
 20
76.97037614241833
 30
0.0
 11
156.3716706895395
 21
76.97037614241827
 31
0.0
  0
LINE
  5
EC3
330
18
100
AcDbEntity
  8
L-1
  6
CONTINUOUS
 62
     7
 48
0.5
100
AcDbLine
 10
149.8716706895395
 20
79.97037614241833
 30
0.0
 11
149.8716706895395
 21
76.97037614241833
 31
0.0
  0
LINE
  5
EC4
330
18
100
AcDbEntity
  8
L-1
  6
CONTINUOUS
 62
     7
100
AcDbLine
 10
149.1216706895395
 20
80.47037614241833
 30
0.0
 11
149.3716706895395
 21
80.47037614241833
 31
0.0
  0
ARC
  5
EC7
330
18
100
AcDbEntity
  8
L-1
  6
CONTINUOUS
 48
0.5
100
AcDbCircle
 10
149.3716706895395
 20
79.97037614241833
 30
0.0
 40
0.5
100
AcDbArc
 50
0.0
 51
90.0
  0
LINE
  5
EC8
330
18
100
AcDbEntity
  8
L-1
  6
CONTINUOUS
 62
     7
 48
0.5
100
AcDbLine
 10
156.3716706895395
 20
79.9703761424179
 30
0.0
 11
156.3716706895395
 21
76.97037614241827
 31
0.0
  0
ARC
  5
EC9
330
18
100
AcDbEntity
  8
L-1
  6
CONTINUOUS
 48
0.5
100
AcDbCircle
 10
156.8716706895395
 20
79.9703761424179
 30
0.0
 40
0.5
100
AcDbArc
 50
89.99999999999349
 51
180.0
  0
LINE
  5
ECA
330
18
100
AcDbEntity
  8
L-1
  6
CONTINUOUS
 62
     7
100
AcDbLine
 10
156.8716706895395
 20
80.47037614241828
 30
0.0
 11
157.1216706895395
 21
80.47037614241828
 31
0.0
  0
LINE
  5
ECD
330
18
100
AcDbEntity
  8
L-1
  6
CONTINUOUS
 62
     7
100
AcDbLine
 10
124.8716706895395
 20
76.97037614241833
 30
0.0
 11
131.3716706895395
 21
76.97037614241827
 31
0.0
  0
LINE
  5
ECE
330
18
100
AcDbEntity
  8
L-1
  6
CONTINUOUS
 62
     7
 48
0.5
100
AcDbLine
 10
124.8716706895395
 20
79.97037614241833
 30
0.0
 11
124.8716706895395
 21
76.97037614241833
 31
0.0
  0
LINE
  5
ECF
330
18
100
AcDbEntity
  8
L-1
  6
CONTINUOUS
 62
     7
100
AcDbLine
 10
124.1216706895395
 20
80.47037614241833
 30
0.0
 11
124.3716706895395
 21
80.47037614241833
 31
0.0
  0
ARC
  5
ED0
330
18
100
AcDbEntity
  8
L-1
  6
CONTINUOUS
 48
0.5
100
AcDbCircle
 10
124.3716706895395
 20
79.97037614241833
 30
0.0
 40
0.5
100
AcDbArc
 50
0.0
 51
90.0
  0
LINE
  5
ED1
330
18
100
AcDbEntity
  8
L-1
  6
CONTINUOUS
 62
     7
 48
0.5
100
AcDbLine
 10
131.3716706895395
 20
79.9703761424179
 30
0.0
 11
131.3716706895395
 21
76.97037614241827
 31
0.0
  0
LINE
  5
ED2
330
18
100
AcDbEntity
  8
L-1
  6
CONTINUOUS
 62
     7
100
AcDbLine
 10
131.8716706895395
 20
80.47037614241828
 30
0.0
 11
132.1216706895395
 21
80.47037614241828
 31
0.0
  0
ARC
  5
ED3
330
18
100
AcDbEntity
  8
L-1
  6
CONTINUOUS
 48
0.5
100
AcDbCircle
 10
131.8716706895395
 20
79.9703761424179
 30
0.0
 40
0.5
100
AcDbArc
 50
89.99999999999349
 51
180.0
  0
LINE
  5
ED4
330
18
100
AcDbEntity
  8
L-1
  6
CONTINUOUS
 62
     7
100
AcDbLine
 10
99.87167068953954
 20
76.97037614241833
 30
0.0
 11
106.3716706895395
 21
76.97037614241827
 31
0.0
  0
LINE
  5
ED5
330
18
100
AcDbEntity
  8
L-1
  6
CONTINUOUS
 62
     7
 48
0.5
100
AcDbLine
 10
99.87167068953954
 20
79.97037614241833
 30
0.0
 11
99.87167068953954
 21
76.97037614241833
 31
0.0
  0
ARC
  5
ED6
330
18
100
AcDbEntity
  8
L-1
  6
CONTINUOUS
 48
0.5
100
AcDbCircle
 10
99.37167068953954
 20
79.97037614241833
 30
0.0
 40
0.5
100
AcDbArc
 50
0.0
 51
90.0
  0
LINE
  5
ED7
330
18
100
AcDbEntity
  8
L-1
  6
CONTINUOUS
 62
     7
100
AcDbLine
 10
99.12167068953955
 20
80.47037614241833
 30
0.0
 11
99.37167068953954
 21
80.47037614241833
 31
0.0
  0
LINE
  5
ED8
330
18
100
AcDbEntity
  8
L-1
  6
CONTINUOUS
 62
     7
 48
0.5
100
AcDbLine
 10
106.3716706895395
 20
79.9703761424179
 30
0.0
 11
106.3716706895395
 21
76.97037614241827
 31
0.0
  0
ARC
  5
ED9
330
18
100
AcDbEntity
  8
L-1
  6
CONTINUOUS
 48
0.5
100
AcDbCircle
 10
106.8716706895395
 20
79.9703761424179
 30
0.0
 40
0.5
100
AcDbArc
 50
89.99999999999349
 51
180.0
  0
LINE
  5
EDA
330
18
100
AcDbEntity
  8
L-1
  6
CONTINUOUS
 62
     7
100
AcDbLine
 10
106.8716706895395
 20
80.47037614241828
 30
0.0
 11
107.1216706895395
 21
80.47037614241828
 31
0.0
  0
LINE
  5
EDB
330
18
100
AcDbEntity
  8
L-1
  6
CONTINUOUS
 62
     7
100
AcDbLine
 10
74.87167068953954
 20
76.97037614241833
 30
0.0
 11
81.37167068953955
 21
76.97037614241827
 31
0.0
  0
LINE
  5
EDC
330
18
100
AcDbEntity
  8
L-1
  6
CONTINUOUS
 62
     7
 48
0.5
100
AcDbLine
 10
74.87167068953954
 20
79.97037614241833
 30
0.0
 11
74.87167068953954
 21
76.97037614241833
 31
0.0
  0
LINE
  5
EDD
330
18
100
AcDbEntity
  8
L-1
  6
CONTINUOUS
 62
     7
100
AcDbLine
 10
74.12167068953954
 20
80.47037614241833
 30
0.0
 11
74.37167068953954
 21
80.47037614241833
 31
0.0
  0
ARC
  5
EDE
330
18
100
AcDbEntity
  8
L-1
  6
CONTINUOUS
 48
0.5
100
AcDbCircle
 10
74.37167068953954
 20
79.97037614241833
 30
0.0
 40
0.5
100
AcDbArc
 50
0.0
 51
90.0
  0
LINE
  5
EDF
330
18
100
AcDbEntity
  8
L-1
  6
CONTINUOUS
 62
     7
 48
0.5
100
AcDbLine
 10
81.37167068953955
 20
79.9703761424179
 30
0.0
 11
81.37167068953955
 21
76.97037614241827
 31
0.0
  0
ARC
  5
EE0
330
18
100
AcDbEntity
  8
L-1
  6
CONTINUOUS
 48
0.5
100
AcDbCircle
 10
81.87167068953954
 20
79.9703761424179
 30
0.0
 40
0.5
100
AcDbArc
 50
89.99999999999349
 51
180.0
  0
LINE
  5
EE1
330
18
100
AcDbEntity
  8
L-1
  6
CONTINUOUS
 62
     7
100
AcDbLine
 10
81.87167068953954
 20
80.47037614241828
 30
0.0
 11
82.12167068953954
 21
80.47037614241828
 31
0.0
  0
LINE
  5
EE2
330
18
100
AcDbEntity
  8
L-1
  6
CONTINUOUS
 62
     7
100
AcDbLine
 10
74.87167068953953
 20
110.6327115473271
 30
0.0
 11
74.87167068953953
 21
111.6327115473271
 31
0.0
  0
LINE
  5
EE3
330
18
100
AcDbEntity
  8
L-1
  6
CONTINUOUS
 62
     7
100
AcDbLine
 10
81.37167068953955
 20
110.6327115473271
 30
0.0
 11
81.37167068953955
 21
111.6327115473271
 31
0.0
  0
LINE
  5
EE4
330
18
100
AcDbEntity
  8
L-1
  6
CONTINUOUS
 62
     7
100
AcDbLine
 10
106.3716706895395
 20
110.6327115473271
 30
0.0
 11
106.3716706895395
 21
111.6327115473271
 31
0.0
  0
LINE
  5
EE5
330
18
100
AcDbEntity
  8
L-1
  6
CONTINUOUS
 62
     7
100
AcDbLine
 10
99.87167068953953
 20
110.6327115473271
 30
0.0
 11
99.87167068953953
 21
111.6327115473271
 31
0.0
  0
LINE
  5
EE6
330
18
100
AcDbEntity
  8
L-1
  6
CONTINUOUS
 62
     7
100
AcDbLine
 10
131.3716706895395
 20
110.6327115473271
 30
0.0
 11
131.3716706895395
 21
111.6327115473271
 31
0.0
  0
LINE
  5
EE7
330
18
100
AcDbEntity
  8
L-1
  6
CONTINUOUS
 62
     7
100
AcDbLine
 10
124.8716706895395
 20
110.6327115473271
 30
0.0
 11
124.8716706895395
 21
111.6327115473271
 31
0.0
  0
LINE
  5
EE8
330
18
100
AcDbEntity
  8
L-1
  6
CONTINUOUS
 62
     7
100
AcDbLine
 10
156.3716706895395
 20
110.6327115473271
 30
0.0
 11
156.3716706895395
 21
111.6327115473271
 31
0.0
  0
LINE
  5
EE9
330
18
100
AcDbEntity
  8
L-1
  6
CONTINUOUS
 62
     7
100
AcDbLine
 10
149.8716706895395
 20
110.6327115473271
 30
0.0
 11
149.8716706895395
 21
111.6327115473271
 31
0.0
  0
LINE
  5
EEA
330
18
100
AcDbEntity
  8
L-1
  6
CONTINUOUS
 62
     7
100
AcDbLine
 10
181.3716706895395
 20
110.6327115473271
 30
0.0
 11
181.3716706895395
 21
111.6327115473271
 31
0.0
  0
LINE
  5
EEB
330
18
100
AcDbEntity
  8
L-1
  6
CONTINUOUS
 62
     7
100
AcDbLine
 10
174.8716706895395
 20
110.6327115473271
 30
0.0
 11
174.8716706895395
 21
111.6327115473271
 31
0.0
  0
LINE
  5
EEC
330
18
100
AcDbEntity
  8
L-1
  6
CONTINUOUS
 62
     7
100
AcDbLine
 10
174.8716706895395
 20
235.532711547327
 30
0.0
 11
174.8716706895395
 21
234.532711547327
 31
0.0
  0
LINE
  5
EED
330
18
100
AcDbEntity
  8
L-1
  6
CONTINUOUS
 62
     7
100
AcDbLine
 10
181.3716706895395
 20
235.532711547327
 30
0.0
 11
181.3716706895395
 21
234.532711547327
 31
0.0
  0
LINE
  5
EEE
330
18
100
AcDbEntity
  8
L-1
  6
CONTINUOUS
 62
     7
100
AcDbLine
 10
149.8716706895395
 20
235.532711547327
 30
0.0
 11
149.8716706895395
 21
234.532711547327
 31
0.0
  0
LINE
  5
EEF
330
18
100
AcDbEntity
  8
L-1
  6
CONTINUOUS
 62
     7
100
AcDbLine
 10
156.3716706895395
 20
235.532711547327
 30
0.0
 11
156.3716706895395
 21
234.532711547327
 31
0.0
  0
LINE
  5
EF0
330
18
100
AcDbEntity
  8
L-1
  6
CONTINUOUS
 62
     7
100
AcDbLine
 10
124.8716706895395
 20
235.532711547327
 30
0.0
 11
124.8716706895395
 21
234.532711547327
 31
0.0
  0
LINE
  5
EF1
330
18
100
AcDbEntity
  8
L-1
  6
CONTINUOUS
 62
     7
100
AcDbLine
 10
131.3716706895395
 20
235.532711547327
 30
0.0
 11
131.3716706895395
 21
234.532711547327
 31
0.0
  0
LINE
  5
EF2
330
18
100
AcDbEntity
  8
L-1
  6
CONTINUOUS
 62
     7
100
AcDbLine
 10
99.87167068953954
 20
235.532711547327
 30
0.0
 11
99.87167068953954
 21
234.532711547327
 31
0.0
  0
LINE
  5
EF3
330
18
100
AcDbEntity
  8
L-1
  6
CONTINUOUS
 62
     7
100
AcDbLine
 10
106.3716706895395
 20
235.532711547327
 30
0.0
 11
106.3716706895395
 21
234.532711547327
 31
0.0
  0
LINE
  5
EF4
330
18
100
AcDbEntity
  8
L-1
  6
CONTINUOUS
 62
     7
100
AcDbLine
 10
74.87167068953954
 20
235.532711547327
 30
0.0
 11
74.87167068953954
 21
234.532711547327
 31
0.0
  0
LINE
  5
EF5
330
18
100
AcDbEntity
  8
L-1
  6
CONTINUOUS
 62
     7
100
AcDbLine
 10
81.37167068953955
 20
235.532711547327
 30
0.0
 11
81.37167068953955
 21
234.532711547327
 31
0.0
  0
LINE
  5
F39
330
18
100
AcDbEntity
  8
L-1
  6
CENTER2
 62
     1
 48
0.3
100
AcDbLine
 10
172.8949226705268
 20
220.5827115473271
 30
0.0
 11
183.3484187085522
 21
220.5827115473271
 31
0.0
  0
LINE
  5
F3A
330
18
100
AcDbEntity
  8
L-1
  6
CENTER2
 62
     1
 48
0.3
100
AcDbLine
 10
172.8949226705268
 20
125.5827115473271
 30
0.0
 11
183.3484187085522
 21
125.5827115473271
 31
0.0
  0
LINE
  5
F56
330
18
100
AcDbEntity
  8
L-1
  6
CENTER2
 62
     1
 48
0.5
100
AcDbLine
 10
153.1216706895395
 20
118.3167976086984
 30
0.0
 11
153.1216706895395
 21
226.2507602861544
 31
0.0
  0
LINE
  5
F57
330
18
100
AcDbEntity
  8
L-1
  6
CENTER2
 62
     1
 48
0.2
100
AcDbLine
 10
153.1216706895395
 20
239.779863631211
 30
0.0
 11
153.1216706895395
 21
231.3172316311362
 31
0.0
  0
ENDSEC
  0
SECTION
  2
OBJECTS
  0
DICTIONARY
  5
C
330
0
100
AcDbDictionary
  3
ACAD_GROUP
350
D
  3
ACAD_LAYOUT
350
DAA
  3
ACAD_MLINESTYLE
350
E
  3
ACAD_PLOTSETTINGS
350
DAB
  3
ACADDIM
350
E8D
  3
CONTENTDICTIONARY
350
C8D
1001
ACAD
1000
TREAT_AS_HARD
1070
     0
  0
DICTIONARY
  5
F71
330
18
100
AcDbDictionary
  3
ACAD_LAYOUTSELFREF
350
F72
  0
DICTIONARY
  5
F6F
330
15
100
AcDbDictionary
  3
ACAD_LAYOUTSELFREF
350
F70
  0
DICTIONARY
  5
D
102
{ACAD_REACTORS
330
C
102
}
330
C
100
AcDbDictionary
1001
ACAD
1000
TREAT_AS_HARD
1070
     0
  0
DICTIONARY
  5
DAA
102
{ACAD_REACTORS
330
C
102
}
330
C
100
AcDbDictionary
1001
ACAD
1000
TREAT_AS_HARD
1070
     0
  0
DICTIONARY
  5
E
102
{ACAD_REACTORS
330
C
102
}
330
C
100
AcDbDictionary
  3
STANDARD
350
1B
1001
ACAD
1000
TREAT_AS_HARD
1070
     0
  0
DICTIONARY
  5
DAB
102
{ACAD_REACTORS
330
C
102
}
330
C
100
AcDbDictionary
  3
A2
350
DC5
  3
A3
350
DC6
  3
A4
350
DC7
  3
PDFA2TOA4
350
F59
  3
PDFA2TOA4_1OF2
350
F5A
  3
PDFA3TOA4
350
F5B
  3
PDFA3TOA4_1OF2
350
F5C
1001
ACAD
1000
TREAT_AS_HARD
1070
     0
  0
XRECORD
  5
E8D
102
{ACAD_REACTORS
330
C
102
}
330
C
100
AcDbXrecord
 90
   990106
  3
OPEN
 60
     0
 61
     0
 62
     1
 63
     3
 64
     1
 65
     0
 66
     0
 67
     3
 68
     1
 69
     0
 70
     0
 71
     0
 72
     0
 40
0.0
170
     0
340
E8F
  0
DICTIONARY
  5
C8D
102
{ACAD_REACTORS
330
C
102
}
330
C
100
AcDbDictionary
1001
ACAD
1000
TREAT_AS_HARD
1070
     0
  0
XRECORD
  5
F72
102
{ACAD_REACTORS
330
F71
102
}
330
F71
100
AcDbXrecord
340
18
  0
XRECORD
  5
F70
102
{ACAD_REACTORS
330
F6F
102
}
330
F6F
100
AcDbXrecord
340
15
  0
MLINESTYLE
  5
1B
102
{ACAD_REACTORS
330
E
102
}
330
E
100
AcDbMlineStyle
  2
STANDARD
 70
     0
  3

 62
     0
 51
90.0
 52
90.0
 71
     2
 49
0.5
 62
   256
  6
BYLAYER
 49
-0.5
 62
   256
  6
BYLAYER
  0
PLOTSETTINGS
  5
DC5
102
{ACAD_REACTORS
330
DAB
102
}
330
DAB
100
AcDbPlotSettings
  1
A2
  2
Graphtec JC8100-A2.pc3
  4
User260
  6

 40
21.6781940460205
 41
6.649852275848388
 42
6.57928466796875
 43
6.649871826171875
 44
593.9366455078125
 45
419.9466552734374
 46
0.0
 47
-3.0
 48
0.0
 49
0.0
140
0.0
141
0.0
142
1.0
143
1.0
 70
  1712
 72
     1
 73
     0
 74
     0
  7
JC8100.ctb
 75
    16
147
1.0
148
0.0
149
0.0
  0
PLOTSETTINGS
  5
DC6
102
{ACAD_REACTORS
330
DAB
102
}
330
DAB
100
AcDbPlotSettings
  1
A3
  2
Graphtec JC8100-A3.pc3
  4
User261
  6

 40
21.6781940460205
 41
6.649852275848388
 42
6.649871826171875
 43
6.649871826171875
 44
419.9466552734374
 45
296.9683227539062
 46
0.0
 47
0.0
 48
0.0
 49
0.0
140
0.0
141
0.0
142
1.0
143
1.0
 70
  1712
 72
     1
 73
     0
 74
     0
  7
JC8100.ctb
 75
    16
147
1.0
148
0.0
149
0.0
  0
PLOTSETTINGS
  5
DC7
102
{ACAD_REACTORS
330
DAB
102
}
330
DAB
100
AcDbPlotSettings
  1
A4
  2
Graphtec JC8100-A4.pc3
  4
User262
  6

 40
21.6781940460205
 41
6.649852275848388
 42
6.649856567382812
 43
6.649871826171875
 44
209.9733276367187
 45
296.9683227539062
 46
0.0
 47
0.0
 48
0.0
 49
0.0
140
0.0
141
0.0
142
1.0
143
1.0
 70
  1712
 72
     1
 73
     1
 74
     0
  7
JC8100.ctb
 75
    16
147
1.0
148
0.0
149
0.0
  0
PLOTSETTINGS
  5
F59
102
{ACAD_REACTORS
330
DAB
102
}
330
DAB
100
AcDbPlotSettings
  1
PDFA2toA4
  2
Acrobat Distiller.pc3
  4
A4
  6

 40
3.174999952316284
 41
3.174999952316284
 42
3.17498779296875
 43
3.175003051757812
 44
297.0530090332031
 45
209.8886566162109
 46
10.0
 47
-3.0
 48
0.0
 49
0.0
140
0.0
141
0.0
142
0.5
143
1.0
 70
  1696
 72
     1
 73
     0
 74
     0
  7
JC8100.ctb
 75
     0
147
0.5
148
0.0
149
0.0
  0
PLOTSETTINGS
  5
F5A
102
{ACAD_REACTORS
330
DAB
102
}
330
DAB
100
AcDbPlotSettings
  1
PDFA2toA4_1of2
  2
Acrobat Distiller.pc3
  4
A4
  6

 40
3.174999952316284
 41
3.174999952316284
 42
3.17498779296875
 43
3.175003051757812
 44
297.0530090332031
 45
209.8886566162109
 46
10.0
 47
-3.0
 48
0.0
 49
0.0
140
0.0
141
0.0
142
0.25
143
1.0
 70
  1696
 72
     1
 73
     0
 74
     0
  7
JC8100.ctb
 75
     0
147
0.25
148
0.0
149
0.0
  0
PLOTSETTINGS
  5
F5B
102
{ACAD_REACTORS
330
DAB
102
}
330
DAB
100
AcDbPlotSettings
  1
PDFA3toA4
  2
Acrobat Distiller.pc3
  4
A4
  6

 40
3.174999952316284
 41
3.174999952316284
 42
3.17498779296875
 43
3.175003051757812
 44
297.0530090332031
 45
209.8886566162109
 46
12.0
 47
0.0
 48
0.0
 49
0.0
140
0.0
141
0.0
142
0.7
143
1.0
 70
  1696
 72
     1
 73
     0
 74
     0
  7
JC8100.ctb
 75
     0
147
0.7
148
0.0
149
0.0
  0
PLOTSETTINGS
  5
F5C
102
{ACAD_REACTORS
330
DAB
102
}
330
DAB
100
AcDbPlotSettings
  1
PDFA3toA4_1of2
  2
Acrobat Distiller.pc3
  4
A4
  6

 40
3.174999952316284
 41
3.174999952316284
 42
3.17498779296875
 43
3.175003051757812
 44
297.0530090332031
 45
209.8886566162109
 46
12.0
 47
0.0
 48
0.0
 49
0.0
140
0.0
141
0.0
142
0.35
143
1.0
 70
  1696
 72
     1
 73
     0
 74
     0
  7
JC8100.ctb
 75
     0
147
0.35
148
0.0
149
0.0
  0
ENDSEC
  0
EOF
