  0
SECTION
  2
HEADER
  9
$ACADVER
  1
AC1012
  9
$DWGCODEPAGE
  3
dos932
  9
$INSBASE
 10
0.0
 20
0.0
 30
0.0
  9
$EXTMIN
 10
11.99271005220862
 20
11.98500246907224
 30
-0.000000000000013
  9
$EXTMAX
 10
772.0217592978242
 20
550.0091623216787
 30
0.0000000000000023
  9
$LIMMIN
 10
0.0
 20
0.0
  9
$LIMMAX
 10
420.0
 20
297.0
  9
$ORTHOMODE
 70
     1
  9
$REGENMODE
 70
     1
  9
$FILLMODE
 70
     1
  9
$QTEXTMODE
 70
     0
  9
$MIRRTEXT
 70
     1
  9
$DRAGMODE
 70
     2
  9
$LTSCALE
 40
1.0
  9
$OSMODE
 70
  3071
  9
$ATTMODE
 70
     1
  9
$TEXTSIZE
 40
3.5
  9
$TRACEWID
 40
1.0
  9
$TEXTSTYLE
  7
BGS
  9
$CLAYER
  8
L-1
  9
$CELTYPE
  6
CONTINUOUS
  9
$CECOLOR
 62
     7
  9
$CELTSCALE
 40
1.0
  9
$DELOBJ
 70
     1
  9
$DISPSILH
 70
     0
  9
$DIMSCALE
 40
2.0
  9
$DIMASZ
 40
2.5
  9
$DIMEXO
 40
0.5
  9
$DIMDLI
 40
8.0
  9
$DIMRND
 40
0.0
  9
$DIMDLE
 40
0.0
  9
$DIMEXE
 40
1.0
  9
$DIMTP
 40
0.0
  9
$DIMTM
 40
0.0
  9
$DIMTXT
 40
3.2
  9
$DIMCEN
 40
-0.5
  9
$DIMTSZ
 40
0.0
  9
$DIMTOL
 70
     0
  9
$DIMLIM
 70
     0
  9
$DIMTIH
 70
     0
  9
$DIMTOH
 70
     0
  9
$DIMSE1
 70
     0
  9
$DIMSE2
 70
     0
  9
$DIMTAD
 70
     1
  9
$DIMZIN
 70
     8
  9
$DIMBLK
  1

  9
$DIMASO
 70
     1
  9
$DIMSHO
 70
     1
  9
$DIMPOST
  1

  9
$DIMAPOST
  1

  9
$DIMALT
 70
     0
  9
$DIMALTD
 70
     2
  9
$DIMALTF
 40
0.0394
  9
$DIMLFAC
 40
1.0
  9
$DIMTOFL
 70
     1
  9
$DIMTVP
 40
0.0
  9
$DIMTIX
 70
     0
  9
$DIMSOXD
 70
     0
  9
$DIMSAH
 70
     1
  9
$DIMBLK1
  1
OPEN
  9
$DIMBLK2
  1
OPEN
  9
$DIMSTYLE
  2
CAD-STD
  9
$DIMCLRD
 70
     4
  9
$DIMCLRE
 70
     4
  9
$DIMCLRT
 70
     2
  9
$DIMTFAC
 40
0.625
  9
$DIMGAP
 40
0.5
  9
$DIMJUST
 70
     0
  9
$DIMSD1
 70
     0
  9
$DIMSD2
 70
     0
  9
$DIMTOLJ
 70
     1
  9
$DIMTZIN
 70
     8
  9
$DIMALTZ
 70
     0
  9
$DIMALTTZ
 70
     0
  9
$DIMFIT
 70
     3
  9
$DIMUPT
 70
     0
  9
$DIMUNIT
 70
     2
  9
$DIMDEC
 70
     4
  9
$DIMTDEC
 70
     4
  9
$DIMALTU
 70
     2
  9
$DIMALTTD
 70
     2
  9
$DIMTXSTY
  7
BGS
  9
$DIMAUNIT
 70
     0
  9
$LUNITS
 70
     2
  9
$LUPREC
 70
     4
  9
$SKETCHINC
 40
1.0
  9
$FILLETRAD
 40
0.0
  9
$AUNITS
 70
     0
  9
$AUPREC
 70
     0
  9
$MENU
  1
acad
  9
$ELEVATION
 40
0.0
  9
$PELEVATION
 40
0.0
  9
$THICKNESS
 40
0.0
  9
$LIMCHECK
 70
     0
  9
$BLIPMODE
 70
     0
  9
$CHAMFERA
 40
0.0
  9
$CHAMFERB
 40
0.0
  9
$CHAMFERC
 40
0.0
  9
$CHAMFERD
 40
0.0
  9
$SKPOLY
 70
     0
  9
$TDCREATE
 40
2453699.640865335
  9
$TDUPDATE
 40
2455658.435360775
  9
$TDINDWG
 40
0.0688595833
  9
$TDUSRTIMER
 40
0.0688595833
  9
$USRTIMER
 70
     1
  9
$ANGBASE
 50
0.0
  9
$ANGDIR
 70
     0
  9
$PDMODE
 70
     0
  9
$PDSIZE
 40
0.0
  9
$PLINEWID
 40
0.0
  9
$COORDS
 70
     0
  9
$SPLFRAME
 70
     0
  9
$SPLINETYPE
 70
     6
  9
$SPLINESEGS
 70
     8
  9
$ATTDIA
 70
     0
  9
$ATTREQ
 70
     1
  9
$HANDLING
 70
     1
  9
$HANDSEED
  5
12D9
  9
$SURFTAB1
 70
     6
  9
$SURFTAB2
 70
     6
  9
$SURFTYPE
 70
     6
  9
$SURFU
 70
     6
  9
$SURFV
 70
     6
  9
$UCSNAME
  2

  9
$UCSORG
 10
0.0
 20
0.0
 30
0.0
  9
$UCSXDIR
 10
1.0
 20
0.0
 30
0.0
  9
$UCSYDIR
 10
0.0
 20
1.0
 30
0.0
  9
$PUCSNAME
  2

  9
$PUCSORG
 10
0.0
 20
0.0
 30
0.0
  9
$PUCSXDIR
 10
1.0
 20
0.0
 30
0.0
  9
$PUCSYDIR
 10
0.0
 20
1.0
 30
0.0
  9
$USERI1
 70
     0
  9
$USERI2
 70
     0
  9
$USERI3
 70
     0
  9
$USERI4
 70
     0
  9
$USERI5
 70
     0
  9
$USERR1
 40
0.0
  9
$USERR2
 40
0.0
  9
$USERR3
 40
0.0
  9
$USERR4
 40
0.0
  9
$USERR5
 40
0.0
  9
$WORLDVIEW
 70
     1
  9
$SHADEDGE
 70
     3
  9
$SHADEDIF
 70
    70
  9
$TILEMODE
 70
     1
  9
$MAXACTVP
 70
    16
  9
$PINSBASE
 10
0.0
 20
0.0
 30
0.0
  9
$PLIMCHECK
 70
     0
  9
$PEXTMIN
 10
1.000000000000000E+20
 20
1.000000000000000E+20
 30
1.000000000000000E+20
  9
$PEXTMAX
 10
-1.000000000000000E+20
 20
-1.000000000000000E+20
 30
-1.000000000000000E+20
  9
$PLIMMIN
 10
0.0
 20
0.0
  9
$PLIMMAX
 10
420.0
 20
297.0
  9
$UNITMODE
 70
     0
  9
$VISRETAIN
 70
     0
  9
$PLINEGEN
 70
     0
  9
$PSLTSCALE
 70
     1
  9
$TREEDEPTH
 70
  3020
  9
$PICKSTYLE
 70
     1
  9
$CMLSTYLE
  2
STANDARD
  9
$CMLJUST
 70
     0
  9
$CMLSCALE
 40
1.0
  9
$SAVEIMAGES
 70
     1
  0
ENDSEC
  0
SECTION
  2
CLASSES
  0
CLASS
  1
ACDBDICTIONARYWDFLT
  2
AcDbDictionaryWithDefault
  3
AutoCAD 2000
 90
    32768
280
     0
281
     0
  0
CLASS
  1
ACDBPLACEHOLDER
  2
AcDbPlaceHolder
  3
AutoCAD 2000
 90
    32768
280
     0
281
     0
  0
CLASS
  1
LAYOUT
  2
AcDbLayout
  3
AutoCAD 2000
 90
    32768
280
     0
281
     0
  0
CLASS
  1
PLOTSETTINGS
  2
AcDbPlotSettings
  3
AutoCAD 2000
 90
    32768
280
     0
281
     0
  0
CLASS
  1
DICTIONARYVAR
  2
AcDbDictionaryVar
  3
AutoCAD 2000
 90
    32768
280
     0
281
     0
  0
CLASS
  1
LONG_TRANSACTION
  2
AcDbLongTransaction
  3
AutoCAD 2000
 90
    32768
280
     0
281
     0
  0
CLASS
  1
LWPOLYLINE
  2
AcDbPolyline
  3
AutoCAD 2000
 90
    32768
280
     0
281
     1
  0
CLASS
  1
HATCH
  2
AcDbHatch
  3
AutoCAD 2000
 90
    32768
280
     0
281
     1
  0
CLASS
  1
XRECORD
  2
AcDbXrecord
  3
AutoCAD 2000
 90
    32768
280
     0
281
     0
  0
ENDSEC
  0
SECTION
  2
TABLES
  0
TABLE
  2
VPORT
  5
8
330
0
100
AcDbSymbolTable
 70
     2
  0
VPORT
  5
12D4
330
8
100
AcDbSymbolTableRecord
100
AcDbViewportTableRecord
  2
*ACTIVE
 70
     0
 10
0.0
 20
0.0
 11
1.0
 21
1.0
 12
392.0072346750164
 22
280.9970823953754
 13
0.0
 23
0.0
 14
10.0
 24
10.0
 15
10.0
 25
10.0
 16
0.0
 26
0.0
 36
1.0
 17
0.0
 27
0.0
 37
0.0
 40
543.2308452705349
 41
2.182552504038772
 42
50.0
 43
0.0
 44
0.0
 50
0.0
 51
0.0
 71
     0
 72
   100
 73
     1
 74
     0
 75
     0
 76
     0
 77
     0
 78
     0
  0
ENDTAB
  0
TABLE
  2
LTYPE
  5
5
330
0
100
AcDbSymbolTable
 70
     4
  0
LTYPE
  5
12
330
5
100
AcDbSymbolTableRecord
100
AcDbLinetypeTableRecord
  2
BYBLOCK
 70
     0
  3

 72
    65
 73
     0
 40
0.0
  0
LTYPE
  5
13
330
5
100
AcDbSymbolTableRecord
100
AcDbLinetypeTableRecord
  2
BYLAYER
 70
     0
  3

 72
    65
 73
     0
 40
0.0
  0
LTYPE
  5
14
330
5
100
AcDbSymbolTableRecord
100
AcDbLinetypeTableRecord
  2
CONTINUOUS
 70
     0
  3
Solid line
 72
    65
 73
     0
 40
0.0
  0
LTYPE
  5
1F
330
5
100
AcDbSymbolTableRecord
100
AcDbLinetypeTableRecord
  2
CENTER2
 70
     0
  3
___ _ ___ _ ___ _ ___ _ ___ _ ___ _ ___ _ ___ _
 72
    65
 73
     4
 40
28.57499999999999
 49
19.05
 74
     0
 49
-3.174999999999999
 74
     0
 49
3.174999999999999
 74
     0
 49
-3.174999999999999
 74
     0
  0
LTYPE
  5
20
330
5
100
AcDbSymbolTableRecord
100
AcDbLinetypeTableRecord
  2
DASHED2
 70
     0
  3
_ _ _ _ _ _ _ _ _ _ _ _ _ _ _ _ _ _ _ _ _ _ _ _
 72
    65
 73
     2
 40
9.524999999999998
 49
6.349999999999999
 74
     0
 49
-3.174999999999999
 74
     0
  0
LTYPE
  5
D9
330
5
100
AcDbSymbolTableRecord
100
AcDbLinetypeTableRecord
  2
PHANTOM2
 70
     0
  3
Phantom (.5x) ___ _ _ ___ _ _ ___ _ _ ___ _ _
 72
    65
 73
     6
 40
31.75
 49
15.875
 74
     0
 49
-3.174999999999999
 74
     0
 49
3.174999999999999
 74
     0
 49
-3.174999999999999
 74
     0
 49
3.174999999999999
 74
     0
 49
-3.174999999999999
 74
     0
  0
ENDTAB
  0
TABLE
  2
LAYER
  5
2
330
0
100
AcDbSymbolTable
 70
     6
  0
LAYER
  5
F
330
2
100
AcDbSymbolTableRecord
100
AcDbLayerTableRecord
  2
0
 70
     0
 62
     7
  6
CONTINUOUS
  0
LAYER
  5
24
330
2
100
AcDbSymbolTableRecord
100
AcDbLayerTableRecord
  2
L-1
 70
     0
 62
     7
  6
CONTINUOUS
  0
LAYER
  5
25
330
2
100
AcDbSymbolTableRecord
100
AcDbLayerTableRecord
  2
L-2
 70
     0
 62
     7
  6
CONTINUOUS
  0
LAYER
  5
26
330
2
100
AcDbSymbolTableRecord
100
AcDbLayerTableRecord
  2
L-3
 70
     0
 62
     7
  6
CONTINUOUS
  0
LAYER
  5
27
330
2
100
AcDbSymbolTableRecord
100
AcDbLayerTableRecord
  2
L-4
 70
     0
 62
     7
  6
CONTINUOUS
  0
LAYER
  5
28
330
2
100
AcDbSymbolTableRecord
100
AcDbLayerTableRecord
  2
DEFPOINTS
 70
     0
 62
     7
  6
CONTINUOUS
  0
ENDTAB
  0
TABLE
  2
STYLE
  5
3
330
0
100
AcDbSymbolTable
 70
     6
  0
STYLE
  5
10
330
3
100
AcDbSymbolTableRecord
100
AcDbTextStyleTableRecord
  2
STANDARD
 70
     0
 40
0.0
 41
1.0
 50
0.0
 71
     0
 42
3.5
  3
txt
  4

  0
STYLE
  5
1D
330
3
100
AcDbSymbolTableRecord
100
AcDbTextStyleTableRecord
  2
BGS
 70
     0
 40
0.0
 41
1.0
 50
0.0
 71
     0
 42
3.5
  3
SIMPLEX.SHX
  4
BGSGS.SHX
  0
STYLE
  5
1E
330
3
100
AcDbSymbolTableRecord
100
AcDbTextStyleTableRecord
  2
TATEGAKI
 70
     4
 40
0.0
 41
1.0
 50
0.0
 71
     0
 42
3.5
  3
SIMPLEX.SHX
  4
BGSGS.SHX
  0
STYLE
  5
D8
330
3
100
AcDbSymbolTableRecord
100
AcDbTextStyleTableRecord
  2

 70
     1
 40
0.0
 41
1.0
 50
0.0
 71
     0
 42
3.5
  3
ltypeshp.shx
  4

  0
STYLE
  5
E8
330
3
100
AcDbSymbolTableRecord
100
AcDbTextStyleTableRecord
  2
SIMPLEX
 70
     0
 40
0.0
 41
1.0
 50
0.0
 71
     0
 42
0.2
  3
simplex
  4
bigfont
  0
STYLE
  5
FF2
330
3
100
AcDbSymbolTableRecord
100
AcDbTextStyleTableRecord
  2
MSゴシック
 70
     0
 40
0.0
 41
1.0
 50
0.0
 71
     0
 42
4.0
  3
MS Gothic.ttf
  4

1001
ACAD
1000
MS Gothic
1071
    32817
  0
ENDTAB
  0
TABLE
  2
VIEW
  5
6
330
0
100
AcDbSymbolTable
 70
     0
  0
ENDTAB
  0
TABLE
  2
UCS
  5
7
330
0
100
AcDbSymbolTable
 70
     0
  0
ENDTAB
  0
TABLE
  2
APPID
  5
9
330
0
100
AcDbSymbolTable
 70
     1
  0
APPID
  5
11
330
9
100
AcDbSymbolTableRecord
100
AcDbRegAppTableRecord
  2
ACAD
 70
     0
  0
ENDTAB
  0
TABLE
  2
DIMSTYLE
  5
A
330
0
100
AcDbSymbolTable
 70
     3
  0
DIMSTYLE
105
23
330
A
100
AcDbSymbolTableRecord
100
AcDbDimStyleTableRecord
  2
CAD-STD
 70
     0
  3

  4

  5

  6
OPEN
  7
OPEN
 40
1.0
 41
2.5
 42
0.5
 43
8.0
 44
1.0
 45
0.0
 46
0.0
 47
0.0
 48
0.0
140
3.2
141
-0.5
142
0.0
143
0.0394
144
1.0
145
0.0
146
0.625
147
0.5
 71
     0
 72
     0
 73
     0
 74
     0
 75
     0
 76
     0
 77
     1
 78
     8
170
     0
171
     2
172
     1
173
     1
174
     0
175
     0
176
     4
177
     4
178
     2
270
     2
271
     4
272
     4
273
     2
274
     2
340
1D
275
     0
280
     0
281
     0
282
     0
283
     1
284
     8
285
     0
286
     0
287
     3
288
     0
  0
DIMSTYLE
105
19F
330
A
100
AcDbSymbolTableRecord
100
AcDbDimStyleTableRecord
  2
CAD-STD2
 70
     0
  3

  4

  5

  6
OPEN
  7
OPEN
 40
2.0
 41
2.5
 42
0.5
 43
8.0
 44
1.0
 45
0.0
 46
0.0
 47
0.0
 48
0.0
140
3.2
141
-0.5
142
0.0
143
0.0394
144
1.0
145
0.0
146
0.625
147
0.5
 71
     0
 72
     0
 73
     0
 74
     0
 75
     0
 76
     0
 77
     1
 78
     8
170
     0
171
     2
172
     1
173
     1
174
     0
175
     0
176
     4
177
     4
178
     2
270
     2
271
     4
272
     4
273
     2
274
     2
340
1D
275
     0
280
     0
281
     0
282
     0
283
     1
284
     8
285
     0
286
     0
287
     3
288
     0
  0
DIMSTYLE
105
FF3
102
{ACAD_REACTORS
330
1137
330
1138
330
1139
330
113A
330
113B
330
113C
102
}
330
A
100
AcDbSymbolTableRecord
100
AcDbDimStyleTableRecord
  2
CAD-STD1
 70
     0
  3

  4

  5

  6
OPEN
  7
OPEN
 40
2.0
 41
2.5
 42
0.5
 43
8.0
 44
1.0
 45
0.0
 46
0.0
 47
0.0
 48
0.0
140
3.2
141
-0.5
142
0.0
143
0.0394
144
1.0
145
0.0
146
0.625
147
0.5
 71
     0
 72
     0
 73
     0
 74
     0
 75
     0
 76
     0
 77
     1
 78
     8
170
     0
171
     2
172
     0
173
     1
174
     0
175
     0
176
     4
177
     4
178
     2
270
     2
271
     4
272
     4
273
     2
274
     2
340
FF2
275
     0
280
     0
281
     0
282
     0
283
     1
284
     8
285
     0
286
     0
287
     3
288
     0
  0
ENDTAB
  0
TABLE
  2
BLOCK_RECORD
  5
1
330
0
100
AcDbSymbolTable
 70
    10
  0
BLOCK_RECORD
  5
18
102
{ACAD_XDICTIONARY
360
12D7
102
}
330
1
100
AcDbSymbolTableRecord
100
AcDbBlockTableRecord
  2
*MODEL_SPACE
  0
BLOCK_RECORD
  5
15
102
{ACAD_XDICTIONARY
360
12D5
102
}
330
1
100
AcDbSymbolTableRecord
100
AcDbBlockTableRecord
  2
*PAPER_SPACE
  0
BLOCK_RECORD
  5
1C
330
1
100
AcDbSymbolTableRecord
100
AcDbBlockTableRecord
  2
ADARROW
  0
BLOCK_RECORD
  5
35
330
1
100
AcDbSymbolTableRecord
100
AcDbBlockTableRecord
  2
_OPEN
  0
BLOCK_RECORD
  5
E0
330
1
100
AcDbSymbolTableRecord
100
AcDbBlockTableRecord
  2
TK
  0
BLOCK_RECORD
  5
E9
330
1
100
AcDbSymbolTableRecord
100
AcDbBlockTableRecord
  2
A3-WAKU
  0
BLOCK_RECORD
  5
1143
330
1
100
AcDbSymbolTableRecord
100
AcDbBlockTableRecord
  2
*D4
  0
BLOCK_RECORD
  5
114F
330
1
100
AcDbSymbolTableRecord
100
AcDbBlockTableRecord
  2
*D5
  0
BLOCK_RECORD
  5
115B
330
1
100
AcDbSymbolTableRecord
100
AcDbBlockTableRecord
  2
*D6
  0
BLOCK_RECORD
  5
1167
330
1
100
AcDbSymbolTableRecord
100
AcDbBlockTableRecord
  2
*D7
  0
BLOCK_RECORD
  5
1173
330
1
100
AcDbSymbolTableRecord
100
AcDbBlockTableRecord
  2
*D8
  0
BLOCK_RECORD
  5
117F
330
1
100
AcDbSymbolTableRecord
100
AcDbBlockTableRecord
  2
*D9
  0
ENDTAB
  0
ENDSEC
  0
SECTION
  2
BLOCKS
  0
BLOCK
  5
2B
330
18
100
AcDbEntity
  8
0
100
AcDbBlockBegin
  2
*MODEL_SPACE
 70
     0
 10
0.0
 20
0.0
 30
0.0
  3
*MODEL_SPACE
  1

  0
ENDBLK
  5
2C
330
18
100
AcDbEntity
  8
0
100
AcDbBlockEnd
  0
BLOCK
  5
29
330
15
100
AcDbEntity
 67
     1
  8
0
100
AcDbBlockBegin
  2
*PAPER_SPACE
 70
     0
 10
0.0
 20
0.0
 30
0.0
  3
*PAPER_SPACE
  1

  0
ENDBLK
  5
2A
330
15
100
AcDbEntity
 67
     1
  8
0
100
AcDbBlockEnd
  0
BLOCK
  5
2D
330
1C
100
AcDbEntity
  8
0
100
AcDbBlockBegin
  2
ADARROW
 70
     0
 10
0.0
 20
0.0
 30
0.0
  3
ADARROW
  1

  0
LINE
  5
2E
330
1C
100
AcDbEntity
  8
0
  6
BYBLOCK
 62
     0
100
AcDbLine
 10
0.0
 20
0.0
 30
0.0
 11
-0.9659258262890659
 21
-0.2588190451025127
 31
0.0
  0
LINE
  5
2F
330
1C
100
AcDbEntity
  8
0
  6
BYBLOCK
 62
     0
100
AcDbLine
 10
-1.0
 20
0.0
 30
0.0
 11
0.0
 21
0.0
 31
0.0
  0
LINE
  5
30
330
1C
100
AcDbEntity
  8
0
  6
BYBLOCK
 62
     0
100
AcDbLine
 10
0.0
 20
0.0
 30
0.0
 11
-0.9659258262890659
 21
0.2588190451025127
 31
0.0
  0
ENDBLK
  5
31
330
1C
100
AcDbEntity
  8
0
100
AcDbBlockEnd
  0
BLOCK
  5
36
330
35
100
AcDbEntity
  8
0
100
AcDbBlockBegin
  2
_OPEN
 70
     0
 10
0.0
 20
0.0
 30
0.0
  3
_OPEN
  1

  0
LINE
  5
37
330
35
100
AcDbEntity
  8
0
  6
BYBLOCK
 62
     0
100
AcDbLine
 10
-1.0
 20
0.1666666666666666
 30
0.0
 11
0.0
 21
0.0
 31
0.0
  0
LINE
  5
38
330
35
100
AcDbEntity
  8
0
  6
BYBLOCK
 62
     0
100
AcDbLine
 10
0.0
 20
0.0
 30
0.0
 11
-1.0
 21
-0.1666666666666666
 31
0.0
  0
LINE
  5
39
330
35
100
AcDbEntity
  8
0
  6
BYBLOCK
 62
     0
100
AcDbLine
 10
0.0
 20
0.0
 30
0.0
 11
-1.0
 21
0.0
 31
0.0
  0
ENDBLK
  5
3A
330
35
100
AcDbEntity
  8
0
100
AcDbBlockEnd
  0
BLOCK
  5
E6
330
E0
100
AcDbEntity
  8
0
100
AcDbBlockBegin
  2
TK
 70
     0
 10
0.0
 20
0.0
 30
0.0
  3
TK
  1

  0
TEXT
  5
E1
330
E0
100
AcDbEntity
  8
0
  6
CONTINUOUS
 62
     2
100
AcDbText
 10
-8.056255308109314
 20
-1.428396170613346
 30
0.0
 40
2.7
  1
ＴＫ
  7
BGS
100
AcDbText
  0
LINE
  5
E2
330
E0
100
AcDbEntity
  8
0
  6
CONTINUOUS
 62
     2
100
AcDbLine
 10
-10.09705202413073
 20
0.1332646889774125
 30
0.0
 11
-5.095052024130723
 21
3.133264688977412
 31
0.0
  0
LINE
  5
E3
330
E0
100
AcDbEntity
  8
0
  6
CONTINUOUS
 62
     2
100
AcDbLine
 10
-10.09705202413073
 20
0.1332646889774125
 30
0.0
 11
-5.095052024130723
 21
-2.866735311022587
 31
0.0
  0
LINE
  5
E4
330
E0
100
AcDbEntity
  8
0
  6
CONTINUOUS
 62
     2
100
AcDbLine
 10
-5.095052024130723
 20
3.133264688977412
 30
0.0
 11
-0.0970520241307327
 21
0.1332646889774125
 31
0.0
  0
LINE
  5
E5
330
E0
100
AcDbEntity
  8
0
  6
CONTINUOUS
 62
     2
100
AcDbLine
 10
-5.095052024130723
 20
-2.866735311022587
 30
0.0
 11
-0.0970520241307327
 21
0.1332646889774125
 31
0.0
  0
ENDBLK
  5
E7
330
E0
100
AcDbEntity
  8
0
100
AcDbBlockEnd
  0
BLOCK
  5
153
330
E9
100
AcDbEntity
  8
0
100
AcDbBlockBegin
  2
A3-WAKU
 70
     0
 10
0.0
 20
0.0
 30
0.0
  3
A3-WAKU
  1

  0
INSERT
  5
EA
330
E9
100
AcDbEntity
  8
0
100
AcDbBlockReference
  2
TK
 10
317.0726460431471
 20
9.776842374659864
 30
0.0
  0
TEXT
  5
EB
330
E9
100
AcDbEntity
  8
L-1
  6
CONTINUOUS
 62
     2
100
AcDbText
 10
221.7734457438838
 20
41.38067661600113
 30
0.0
 40
4.0
  1
日
  7
BGS
100
AcDbText
  0
TEXT
  5
EC
330
E9
100
AcDbEntity
  8
L-1
  6
CONTINUOUS
 62
     2
100
AcDbText
 10
217.9265709142159
 20
41.24471250686361
 30
0.0
 40
4.0
  1
月
  7
BGS
100
AcDbText
  0
TEXT
  5
ED
330
E9
100
AcDbEntity
  8
L-1
  6
CONTINUOUS
 62
     2
100
AcDbText
 10
214.3020587914652
 20
41.4214658487424
 30
0.0
 40
4.0
  1
年
  7
BGS
100
AcDbText
  0
LINE
  5
EE
330
E9
100
AcDbEntity
  8
L-1
  6
CONTINUOUS
 62
     5
100
AcDbLine
 10
305.0
 20
46.0
 30
0.0
 11
305.0
 21
6.0
 31
0.0
  0
LINE
  5
EF
330
E9
100
AcDbEntity
  8
L-1
  6
CONTINUOUS
 62
     4
100
AcDbLine
 10
209.0
 20
11.0
 30
0.0
 11
210.4999999999999
 21
11.0
 31
0.0
  0
LINE
  5
F0
330
E9
100
AcDbEntity
  8
L-1
  6
CONTINUOUS
 62
     4
100
AcDbLine
 10
209.0
 20
16.0
 30
0.0
 11
210.4999999999999
 21
16.0
 31
0.0
  0
LINE
  5
F1
330
E9
100
AcDbEntity
  8
L-1
  6
CONTINUOUS
 62
     4
100
AcDbLine
 10
214.0
 20
46.0
 30
0.0
 11
214.0
 21
6.0
 31
0.0
  0
LINE
  5
F2
330
E9
100
AcDbEntity
  8
L-1
  6
CONTINUOUS
 62
     5
100
AcDbLine
 10
6.0
 20
225.0
 30
0.0
 11
6.0
 21
215.0
 31
0.0
  0
LINE
  5
F3
330
E9
100
AcDbEntity
  8
L-1
  6
CONTINUOUS
 62
     5
100
AcDbLine
 10
6.0
 20
215.0
 30
0.0
 11
16.0
 21
215.0
 31
0.0
  0
LINE
  5
F4
330
E9
100
AcDbEntity
  8
L-1
  6
CONTINUOUS
 62
     5
100
AcDbLine
 10
6.0
 20
275.0
 30
0.0
 11
6.0
 21
225.0
 31
0.0
  0
LINE
  5
F5
330
E9
100
AcDbEntity
  8
L-1
  6
CONTINUOUS
 62
     5
100
AcDbLine
 10
16.0
 20
275.0
 30
0.0
 11
16.0
 21
228.0
 31
0.0
  0
LINE
  5
F6
330
E9
100
AcDbEntity
  8
L-1
  6
CONTINUOUS
 62
     5
100
AcDbLine
 10
16.0
 20
228.0
 30
0.0
 11
16.0
 21
228.0
 31
0.0
  0
LINE
  5
F7
330
E9
100
AcDbEntity
  8
L-1
  6
CONTINUOUS
 62
     5
100
AcDbLine
 10
16.0
 20
228.0
 30
0.0
 11
16.0
 21
228.0
 31
0.0
  0
LINE
  5
F8
330
E9
100
AcDbEntity
  8
L-1
  6
CONTINUOUS
 62
     5
100
AcDbLine
 10
16.0
 20
228.0
 30
0.0
 11
16.0
 21
225.0
 31
0.0
  0
TEXT
  5
F9
330
E9
100
AcDbEntity
  8
L-1
  6
CONTINUOUS
 62
     2
100
AcDbText
 10
3.14847458495825
 20
248.9633550277341
 30
0.0
 40
2.5
  1
Ａ
  7
SIMPLEX
100
AcDbText
  0
LINE
  5
FA
330
E9
100
AcDbEntity
  8
L-1
  6
CONTINUOUS
 62
     5
100
AcDbLine
 10
378.0
 20
24.0
 30
0.0
 11
378.0
 21
6.0
 31
0.0
  0
LINE
  5
FB
330
E9
100
AcDbEntity
  8
L-1
  6
CONTINUOUS
 62
     4
100
AcDbLine
 10
357.0
 20
275.0
 30
0.0
 11
357.0
 21
273.4999999999999
 31
0.0
  0
LINE
  5
FC
330
E9
100
AcDbEntity
  8
L-1
  6
CONTINUOUS
 62
     4
100
AcDbLine
 10
345.0
 20
275.0
 30
0.0
 11
345.0
 21
273.4999999999999
 31
0.0
  0
LINE
  5
FD
330
E9
100
AcDbEntity
  8
L-1
  6
CONTINUOUS
 62
     4
100
AcDbLine
 10
310.0
 20
275.0
 30
0.0
 11
310.0
 21
273.4999999999999
 31
0.0
  0
LINE
  5
FE
330
E9
100
AcDbEntity
  8
L-1
  6
CONTINUOUS
 62
     4
100
AcDbLine
 10
275.0
 20
275.0
 30
0.0
 11
275.0
 21
273.4999999999999
 31
0.0
  0
LINE
  5
FF
330
E9
100
AcDbEntity
  8
L-1
  6
CONTINUOUS
 62
     4
100
AcDbLine
 10
227.0
 20
275.0
 30
0.0
 11
227.0
 21
273.4999999999999
 31
0.0
  0
LINE
  5
100
330
E9
100
AcDbEntity
  8
L-1
  6
CONTINUOUS
 62
     4
100
AcDbLine
 10
215.0
 20
275.0
 30
0.0
 11
215.0
 21
273.4999999999999
 31
0.0
  0
LINE
  5
101
330
E9
100
AcDbEntity
  8
L-1
  6
CONTINUOUS
 62
     4
100
AcDbLine
 10
383.4999999999999
 20
209.0
 30
0.0
 11
385.0
 21
209.0
 31
0.0
  0
LINE
  5
102
330
E9
100
AcDbEntity
  8
L-1
  6
CONTINUOUS
 62
     4
100
AcDbLine
 10
383.4999999999999
 20
215.0
 30
0.0
 11
385.0
 21
215.0
 31
0.0
  0
LINE
  5
103
330
E9
100
AcDbEntity
  8
L-1
  6
CONTINUOUS
 62
     4
100
AcDbLine
 10
383.4999999999999
 20
221.0
 30
0.0
 11
385.0
 21
221.0
 31
0.0
  0
LINE
  5
104
330
E9
100
AcDbEntity
  8
L-1
  6
CONTINUOUS
 62
     4
100
AcDbLine
 10
383.4999999999999
 20
227.0
 30
0.0
 11
385.0
 21
227.0
 31
0.0
  0
LINE
  5
105
330
E9
100
AcDbEntity
  8
L-1
  6
CONTINUOUS
 62
     4
100
AcDbLine
 10
383.4999999999999
 20
233.0
 30
0.0
 11
385.0
 21
233.0
 31
0.0
  0
LINE
  5
106
330
E9
100
AcDbEntity
  8
L-1
  6
CONTINUOUS
 62
     4
100
AcDbLine
 10
383.4999999999999
 20
239.0
 30
0.0
 11
385.0
 21
239.0
 31
0.0
  0
LINE
  5
107
330
E9
100
AcDbEntity
  8
L-1
  6
CONTINUOUS
 62
     4
100
AcDbLine
 10
383.4999999999999
 20
245.0
 30
0.0
 11
385.0
 21
245.0
 31
0.0
  0
LINE
  5
108
330
E9
100
AcDbEntity
  8
L-1
  6
CONTINUOUS
 62
     4
100
AcDbLine
 10
383.4999999999999
 20
251.0
 30
0.0
 11
385.0
 21
251.0
 31
0.0
  0
LINE
  5
109
330
E9
100
AcDbEntity
  8
L-1
  6
CONTINUOUS
 62
     4
100
AcDbLine
 10
383.4999999999999
 20
257.0
 30
0.0
 11
385.0
 21
257.0
 31
0.0
  0
LINE
  5
10A
330
E9
100
AcDbEntity
  8
L-1
  6
CONTINUOUS
 62
     4
100
AcDbLine
 10
383.4999999999999
 20
263.0
 30
0.0
 11
385.0
 21
263.0
 31
0.0
  0
LINE
  5
10B
330
E9
100
AcDbEntity
  8
L-1
  6
CONTINUOUS
 62
     4
100
AcDbLine
 10
383.4999999999999
 20
269.0
 30
0.0
 11
385.0
 21
269.0
 31
0.0
  0
LINE
  5
10C
330
E9
100
AcDbEntity
  8
L-1
  6
CONTINUOUS
 62
     5
100
AcDbLine
 10
16.0
 20
6.0
 30
0.0
 11
385.0
 21
6.0
 31
0.0
  0
LINE
  5
10D
330
E9
100
AcDbEntity
  8
L-1
  6
CONTINUOUS
 62
     4
100
AcDbLine
 10
271.4999999999999
 20
31.0
 30
0.0
 11
273.0
 21
31.0
 31
0.0
  0
LINE
  5
10E
330
E9
100
AcDbEntity
  8
L-1
  6
CONTINUOUS
 62
     4
100
AcDbLine
 10
271.4999999999999
 20
36.0
 30
0.0
 11
273.0
 21
36.0
 31
0.0
  0
LINE
  5
10F
330
E9
100
AcDbEntity
  8
L-1
  6
CONTINUOUS
 62
     4
100
AcDbLine
 10
209.0
 20
21.0
 30
0.0
 11
210.4999999999999
 21
21.0
 31
0.0
  0
LINE
  5
110
330
E9
100
AcDbEntity
  8
L-1
  6
CONTINUOUS
 62
     4
100
AcDbLine
 10
209.0
 20
26.0
 30
0.0
 11
210.4999999999999
 21
26.0
 31
0.0
  0
LINE
  5
111
330
E9
100
AcDbEntity
  8
L-1
  6
CONTINUOUS
 62
     4
100
AcDbLine
 10
209.0
 20
31.0
 30
0.0
 11
210.4999999999999
 21
31.0
 31
0.0
  0
LINE
  5
112
330
E9
100
AcDbEntity
  8
L-1
  6
CONTINUOUS
 62
     4
100
AcDbLine
 10
209.0
 20
36.0
 30
0.0
 11
210.4999999999999
 21
36.0
 31
0.0
  0
LINE
  5
113
330
E9
100
AcDbEntity
  8
L-1
  6
CONTINUOUS
 62
     4
100
AcDbLine
 10
16.0
 20
41.0
 30
0.0
 11
17.5
 21
41.0
 31
0.0
  0
LINE
  5
114
330
E9
100
AcDbEntity
  8
L-1
  6
CONTINUOUS
 62
     4
100
AcDbLine
 10
16.0
 20
36.0
 30
0.0
 11
17.5
 21
36.0
 31
0.0
  0
LINE
  5
115
330
E9
100
AcDbEntity
  8
L-1
  6
CONTINUOUS
 62
     4
100
AcDbLine
 10
16.0
 20
31.0
 30
0.0
 11
17.5
 21
31.0
 31
0.0
  0
LINE
  5
116
330
E9
100
AcDbEntity
  8
L-1
  6
CONTINUOUS
 62
     4
100
AcDbLine
 10
16.0
 20
26.0
 30
0.0
 11
17.5
 21
26.0
 31
0.0
  0
LINE
  5
117
330
E9
100
AcDbEntity
  8
L-1
  6
CONTINUOUS
 62
     4
100
AcDbLine
 10
16.0
 20
21.0
 30
0.0
 11
17.5
 21
21.0
 31
0.0
  0
LINE
  5
118
330
E9
100
AcDbEntity
  8
L-1
  6
CONTINUOUS
 62
     4
100
AcDbLine
 10
16.0
 20
16.0
 30
0.0
 11
17.5
 21
16.0
 31
0.0
  0
LINE
  5
119
330
E9
100
AcDbEntity
  8
L-1
  6
CONTINUOUS
 62
     4
100
AcDbLine
 10
16.0
 20
11.0
 30
0.0
 11
17.5
 21
11.0
 31
0.0
  0
TEXT
  5
11A
330
E9
100
AcDbEntity
  8
L-1
  6
CONTINUOUS
 62
     2
100
AcDbText
 10
12.76631437922492
 20
14.65247426876108
 30
0.0
 40
2.5
  1
Ｆ
  7
SIMPLEX
100
AcDbText
  0
TEXT
  5
11B
330
E9
100
AcDbEntity
  8
L-1
  6
CONTINUOUS
 62
     2
100
AcDbText
 10
12.98891014823959
 20
49.71822326110082
 30
0.0
 40
2.5
  1
Ｅ
  7
SIMPLEX
100
AcDbText
  0
TEXT
  5
11C
330
E9
100
AcDbEntity
  8
L-1
  6
CONTINUOUS
 62
     2
100
AcDbText
 10
12.79390151665018
 20
99.7796990401785
 30
0.0
 40
2.5
  1
Ｄ
  7
SIMPLEX
100
AcDbText
  0
TEXT
  5
11D
330
E9
100
AcDbEntity
  8
L-1
  6
CONTINUOUS
 62
     2
100
AcDbText
 10
12.8389035085554
 20
149.6780080942729
 30
0.0
 40
2.5
  1
Ｃ
  7
SIMPLEX
100
AcDbText
  0
TEXT
  5
11E
330
E9
100
AcDbEntity
  8
L-1
  6
CONTINUOUS
 62
     2
100
AcDbText
 10
12.77890085268177
 20
199.7444459295554
 30
0.0
 40
2.5
  1
Ｂ
  7
SIMPLEX
100
AcDbText
  0
LINE
  5
11F
330
E9
100
AcDbEntity
  8
L-1
  6
CONTINUOUS
 62
     5
100
AcDbLine
 10
16.0
 20
225.0
 30
0.0
 11
16.0
 21
6.0
 31
0.0
  0
LINE
  5
120
330
E9
100
AcDbEntity
  8
L-1
  6
CONTINUOUS
 62
     5
100
AcDbLine
 10
385.0
 20
275.0
 30
0.0
 11
6.0
 21
275.0
 31
0.0
  0
LINE
  5
121
330
E9
100
AcDbEntity
  8
L-1
  6
CONTINUOUS
 62
     5
100
AcDbLine
 10
385.0
 20
275.0
 30
0.0
 11
385.0
 21
6.0
 31
0.0
  0
TEXT
  5
122
330
E9
100
AcDbEntity
  8
L-1
  6
CONTINUOUS
 62
     2
100
AcDbText
 10
374.3530698408897
 20
275.518653884599
 30
0.0
 40
2.5
  1
８
  7
SIMPLEX
100
AcDbText
  0
TEXT
  5
123
330
E9
100
AcDbEntity
  8
L-1
  6
CONTINUOUS
 62
     2
100
AcDbText
 10
339.8896317304588
 20
275.4702655871128
 30
0.0
 40
2.5
  1
７
  7
SIMPLEX
100
AcDbText
  0
TEXT
  5
124
330
E9
100
AcDbEntity
  8
L-1
  6
CONTINUOUS
 62
     2
100
AcDbText
 10
289.8442613906334
 20
275.4841364783273
 30
0.0
 40
2.5
  1
６
  7
SIMPLEX
100
AcDbText
  0
TEXT
  5
125
330
E9
100
AcDbEntity
  8
L-1
  6
CONTINUOUS
 62
     2
100
AcDbText
 10
239.7308355410698
 20
275.5018948672063
 30
0.0
 40
2.5
  1
５
  7
SIMPLEX
100
AcDbText
  0
TEXT
  5
126
330
E9
100
AcDbEntity
  8
L-1
  6
CONTINUOUS
 62
     2
100
AcDbText
 10
189.7535207109825
 20
275.4425238046838
 30
0.0
 40
2.5
  1
４
  7
SIMPLEX
100
AcDbText
  0
TEXT
  5
127
330
E9
100
AcDbEntity
  8
L-1
  6
CONTINUOUS
 62
     2
100
AcDbText
 10
139.8669465605461
 20
275.4841364783273
 30
0.0
 40
2.5
  1
３
  7
SIMPLEX
100
AcDbText
  0
TEXT
  5
128
330
E9
100
AcDbEntity
  8
L-1
  6
CONTINUOUS
 62
     2
100
AcDbText
 10
89.82157622072065
 20
275.4702655871128
 30
0.0
 40
2.5
  1
２
  7
SIMPLEX
100
AcDbText
  0
TEXT
  5
129
330
E9
100
AcDbEntity
  8
L-1
  6
CONTINUOUS
 62
     2
100
AcDbText
 10
39.84426139063344
 20
275.4880239759918
 30
0.0
 40
2.5
  1
１
  7
SIMPLEX
100
AcDbText
  0
LINE
  5
12A
330
E9
100
AcDbEntity
  8
L-1
  6
CONTINUOUS
 62
     4
100
AcDbLine
 10
366.0
 20
278.0
 30
0.0
 11
366.0
 21
275.0
 31
0.0
  0
LINE
  5
12B
330
E9
100
AcDbEntity
  8
L-1
  6
CONTINUOUS
 62
     4
100
AcDbLine
 10
316.0
 20
278.0
 30
0.0
 11
316.0
 21
275.0
 31
0.0
  0
LINE
  5
12C
330
E9
100
AcDbEntity
  8
L-1
  6
CONTINUOUS
 62
     4
100
AcDbLine
 10
266.0
 20
278.0
 30
0.0
 11
266.0
 21
275.0
 31
0.0
  0
LINE
  5
12D
330
E9
100
AcDbEntity
  8
L-1
  6
CONTINUOUS
 62
     4
100
AcDbLine
 10
216.0
 20
278.0
 30
0.0
 11
216.0
 21
275.0
 31
0.0
  0
LINE
  5
12E
330
E9
100
AcDbEntity
  8
L-1
  6
CONTINUOUS
 62
     4
100
AcDbLine
 10
166.0
 20
278.0
 30
0.0
 11
166.0
 21
275.0
 31
0.0
  0
LINE
  5
12F
330
E9
100
AcDbEntity
  8
L-1
  6
CONTINUOUS
 62
     4
100
AcDbLine
 10
116.0
 20
278.0
 30
0.0
 11
116.0
 21
275.0
 31
0.0
  0
LINE
  5
130
330
E9
100
AcDbEntity
  8
L-1
  6
CONTINUOUS
 62
     4
100
AcDbLine
 10
66.0
 20
278.0
 30
0.0
 11
66.0
 21
275.0
 31
0.0
  0
LINE
  5
131
330
E9
100
AcDbEntity
  8
L-1
  6
CONTINUOUS
 62
     5
100
AcDbLine
 10
209.0
 20
46.0
 30
0.0
 11
385.0
 21
46.0
 31
0.0
  0
LINE
  5
132
330
E9
100
AcDbEntity
  8
L-1
  6
CONTINUOUS
 62
     5
100
AcDbLine
 10
209.0
 20
6.0
 30
0.0
 11
209.0
 21
46.0
 31
0.0
  0
LINE
  5
133
330
E9
100
AcDbEntity
  8
L-1
  6
CONTINUOUS
 62
     4
100
AcDbLine
 10
312.0
 20
46.0
 30
0.0
 11
312.0
 21
14.0
 31
0.0
  0
LINE
  5
134
330
E9
100
AcDbEntity
  8
L-1
  6
CONTINUOUS
 62
     5
100
AcDbLine
 10
305.0
 20
14.0
 30
0.0
 11
378.0
 21
14.0
 31
0.0
  0
LINE
  5
135
330
E9
100
AcDbEntity
  8
L-1
  6
CONTINUOUS
 62
     4
100
AcDbLine
 10
289.0
 20
46.0
 30
0.0
 11
289.0
 21
31.0
 31
0.0
  0
LINE
  5
136
330
E9
100
AcDbEntity
  8
L-1
  6
CONTINUOUS
 62
     5
100
AcDbLine
 10
273.0
 20
46.0
 30
0.0
 11
273.0
 21
31.0
 31
0.0
  0
LINE
  5
137
330
E9
100
AcDbEntity
  8
L-1
  6
CONTINUOUS
 62
     4
100
AcDbLine
 10
209.0
 20
41.0
 30
0.0
 11
305.0
 21
41.0
 31
0.0
  0
LINE
  5
138
330
E9
100
AcDbEntity
  8
L-1
  6
CONTINUOUS
 62
     5
100
AcDbLine
 10
273.0
 20
31.0
 30
0.0
 11
305.0
 21
31.0
 31
0.0
  0
LINE
  5
139
330
E9
100
AcDbEntity
  8
L-1
  6
CONTINUOUS
 62
     5
100
AcDbLine
 10
273.0
 20
31.0
 30
0.0
 11
273.0
 21
6.0
 31
0.0
  0
LINE
  5
13A
330
E9
100
AcDbEntity
  8
L-1
  6
CONTINUOUS
 62
     4
100
AcDbLine
 10
271.4999999999999
 20
11.0
 30
0.0
 11
305.0
 21
11.0
 31
0.0
  0
LINE
  5
13B
330
E9
100
AcDbEntity
  8
L-1
  6
CONTINUOUS
 62
     4
100
AcDbLine
 10
271.4999999999999
 20
16.0
 30
0.0
 11
305.0
 21
16.0
 31
0.0
  0
LINE
  5
13C
330
E9
100
AcDbEntity
  8
L-1
  6
CONTINUOUS
 62
     4
100
AcDbLine
 10
271.4999999999999
 20
21.0
 30
0.0
 11
305.0
 21
21.0
 31
0.0
  0
LINE
  5
13D
330
E9
100
AcDbEntity
  8
L-1
  6
CONTINUOUS
 62
     4
100
AcDbLine
 10
271.4999999999999
 20
26.0
 30
0.0
 11
305.0
 21
26.0
 31
0.0
  0
LINE
  5
13E
330
E9
100
AcDbEntity
  8
L-1
  6
CONTINUOUS
 62
     4
100
AcDbLine
 10
226.0
 20
46.0
 30
0.0
 11
226.0
 21
6.0
 31
0.0
  0
LINE
  5
13F
330
E9
100
AcDbEntity
  8
L-1
  6
CONTINUOUS
 62
     5
100
AcDbLine
 10
305.0
 20
24.0
 30
0.0
 11
385.0
 21
24.0
 31
0.0
  0
LINE
  5
140
330
E9
100
AcDbEntity
  8
L-1
  6
CONTINUOUS
 62
     4
100
AcDbLine
 10
285.0
 20
31.0
 30
0.0
 11
285.0
 21
6.0
 31
0.0
  0
TEXT
  5
141
330
E9
100
AcDbEntity
  8
L-1
  6
CONTINUOUS
 62
     2
100
AcDbText
 10
209.6219833982407
 20
41.55131843984618
 30
0.0
 40
4.0
  1
版
  7
SIMPLEX
100
AcDbText
  0
TEXT
  5
142
330
E9
100
AcDbEntity
  8
L-1
  6
CONTINUOUS
 62
     2
100
AcDbText
 10
233.2878071567374
 20
41.56491485075992
 30
0.0
 40
4.0
  1
変　更　事　項
  7
SIMPLEX
100
AcDbText
  0
TEXT
  5
143
330
E9
100
AcDbEntity
  8
L-1
  6
CONTINUOUS
 62
     2
100
AcDbText
 10
274.310043427429
 20
41.57851126167368
 30
0.0
 40
4.0
  1
単　位
  7
SIMPLEX
100
AcDbText
  0
TEXT
  5
144
330
E9
100
AcDbEntity
  8
L-1
  6
CONTINUOUS
 62
     2
100
AcDbText
 10
290.3100434274291
 20
41.57851126167368
 30
0.0
 40
4.0
  1
尺　度
  7
SIMPLEX
100
AcDbText
  0
TEXT
  5
145
330
E9
100
AcDbEntity
  8
L-1
  6
CONTINUOUS
 62
     2
100
AcDbText
 10
274.0667088120751
 20
26.52412561801867
 30
0.0
 40
4.0
  1
設 計
  7
SIMPLEX
100
AcDbText
  0
TEXT
  5
146
330
E9
100
AcDbEntity
  8
L-1
  6
CONTINUOUS
 62
     2
100
AcDbText
 10
273.9555274586165
 20
21.67368613806994
 30
0.0
 40
4.0
  1
製 図
  7
SIMPLEX
100
AcDbText
  0
TEXT
  5
147
330
E9
100
AcDbEntity
  8
L-1
  6
CONTINUOUS
 62
     2
100
AcDbText
 10
273.8443461051579
 20
16.61930049441493
 30
0.0
 40
4.0
  1
担 当
  7
SIMPLEX
100
AcDbText
  0
TEXT
  5
148
330
E9
100
AcDbEntity
  8
L-1
  6
CONTINUOUS
 62
     2
100
AcDbText
 10
274.0
 20
11.57851126167367
 30
0.0
 40
4.0
  1
査 閲
  7
SIMPLEX
100
AcDbText
  0
TEXT
  5
149
330
E9
100
AcDbEntity
  8
L-1
  6
CONTINUOUS
 62
     2
100
AcDbText
 10
273.8443461051579
 20
6.46973997436366
 30
0.0
 40
4.0
  1
承 認
  7
SIMPLEX
100
AcDbText
  0
TEXT
  5
14A
330
E9
100
AcDbEntity
  8
L-1
  6
CONTINUOUS
 62
     2
100
AcDbText
 10
306.5330383154738
 20
19.41535433070865
 30
0.0
 40
4.0
  1
図
  7
SIMPLEX
100
AcDbText
  0
TEXT
  5
14B
330
E9
100
AcDbEntity
  8
L-1
  6
CONTINUOUS
 62
     2
100
AcDbText
 10
306.5330383154738
 20
14.41535433070865
 30
0.0
 40
4.0
  1
番
  7
SIMPLEX
100
AcDbText
  0
TEXT
  5
14C
330
E9
100
AcDbEntity
  8
L-1
  6
CONTINUOUS
 62
     2
100
AcDbText
 10
319.0980555556825
 20
7.873740483041579
 30
0.0
 40
4.4
  1
東京通信機工業株式会社
  7
SIMPLEX
100
AcDbText
  0
TEXT
  5
14D
330
E9
100
AcDbEntity
  8
L-1
  6
CONTINUOUS
 62
     2
100
AcDbText
 10
306.4663295033986
 20
40.94561435634498
 30
0.0
 40
4.0
  1
名
  7
SIMPLEX
100
AcDbText
  0
TEXT
  5
14E
330
E9
100
AcDbEntity
  8
L-1
  6
CONTINUOUS
 62
     2
100
AcDbText
 10
306.4663295033986
 20
25.94561435634499
 30
0.0
 40
4.0
  1
称
  7
SIMPLEX
100
AcDbText
  0
LINE
  5
14F
330
E9
100
AcDbEntity
  8
L-1
  6
CONTINUOUS
 62
     4
100
AcDbLine
 10
14.0
 20
176.0
 30
0.0
 11
16.0
 21
176.0
 31
0.0
  0
LINE
  5
150
330
E9
100
AcDbEntity
  8
L-1
  6
CONTINUOUS
 62
     4
100
AcDbLine
 10
14.0
 20
126.0
 30
0.0
 11
16.0
 21
126.0
 31
0.0
  0
LINE
  5
151
330
E9
100
AcDbEntity
  8
L-1
  6
CONTINUOUS
 62
     4
100
AcDbLine
 10
14.0
 20
76.0
 30
0.0
 11
16.0
 21
76.0
 31
0.0
  0
LINE
  5
152
330
E9
100
AcDbEntity
  8
L-1
  6
CONTINUOUS
 62
     4
100
AcDbLine
 10
14.0
 20
26.0
 30
0.0
 11
16.0
 21
26.0
 31
0.0
  0
ENDBLK
  5
154
330
E9
100
AcDbEntity
  8
0
100
AcDbBlockEnd
  0
BLOCK
  5
114D
330
1143
100
AcDbEntity
  8
0
 62
     7
100
AcDbBlockBegin
  2
*D4
 70
     1
 10
0.0
 20
0.0
 30
0.0
  3
*D4
  1

  0
LINE
  5
1276
330
1143
100
AcDbEntity
  8
L-2
  6
CONTINUOUS
 62
     4
100
AcDbLine
 10
533.6129989436638
 20
211.967607853876
 30
0.0
 11
533.6129989436638
 21
249.8723799813211
 31
0.0
  0
LINE
  5
1277
330
1143
100
AcDbEntity
  8
L-2
  6
CONTINUOUS
 62
     4
100
AcDbLine
 10
51.61299894366379
 20
211.967607853876
 30
0.0
 11
51.61299894366379
 21
249.8723799813211
 31
0.0
  0
LINE
  5
1278
330
1143
100
AcDbEntity
  8
L-2
  6
CONTINUOUS
 62
     4
100
AcDbLine
 10
528.6129989436638
 20
247.8723799813211
 30
0.0
 11
56.61299894366379
 21
247.8723799813211
 31
0.0
  0
INSERT
  5
1279
330
1143
100
AcDbEntity
  8
L-2
  6
CONTINUOUS
 62
     4
100
AcDbBlockReference
  2
_OPEN
 10
533.6129989436638
 20
247.8723799813211
 30
0.0
 41
5.0
 42
5.0
 43
5.0
  0
INSERT
  5
127A
330
1143
100
AcDbEntity
  8
L-2
  6
CONTINUOUS
 62
     4
100
AcDbBlockReference
  2
_OPEN
 10
51.61299894366379
 20
247.8723799813211
 30
0.0
 41
5.0
 42
5.0
 43
5.0
 50
180.0
  0
MTEXT
  5
127B
330
1143
100
AcDbEntity
  8
L-2
  6
CONTINUOUS
 62
     2
100
AcDbMText
 10
292.6129989436637
 20
252.0723799813211
 30
0.0
 40
6.4
 41
0.0
 71
     5
 72
     1
  1
\A1;482
  7
MSゴシック
1001
ACAD
1000
MTEXTBEGIN
1070
    73
1070
     1
1070
    44
1040
1.0
1070
    74
1070
     0
1000
MTEXTEND
  0
POINT
  5
127C
330
1143
100
AcDbEntity
  8
DEFPOINTS
  6
CONTINUOUS
 62
     0
100
AcDbPoint
 10
533.6129989436638
 20
210.967607853876
 30
0.0
  0
POINT
  5
127D
330
1143
100
AcDbEntity
  8
DEFPOINTS
  6
CONTINUOUS
 62
     0
100
AcDbPoint
 10
51.61299894366379
 20
210.967607853876
 30
0.0
  0
POINT
  5
127E
330
1143
100
AcDbEntity
  8
DEFPOINTS
  6
CONTINUOUS
 62
     0
100
AcDbPoint
 10
51.61299894366379
 20
247.8723799813211
 30
0.0
  0
ENDBLK
  5
114E
330
1143
100
AcDbEntity
  8
0
 62
     7
100
AcDbBlockEnd
  0
BLOCK
  5
1159
330
114F
100
AcDbEntity
  8
0
 62
     7
100
AcDbBlockBegin
  2
*D5
 70
     1
 10
0.0
 20
0.0
 30
0.0
  3
*D5
  1

  0
LINE
  5
127F
330
114F
100
AcDbEntity
  8
L-2
  6
CONTINUOUS
 62
     4
100
AcDbLine
 10
60.11299894366368
 20
214.5794035277318
 30
0.0
 11
60.11299894366368
 21
231.7369209500574
 31
0.0
  0
LINE
  5
1280
330
114F
100
AcDbEntity
  8
L-2
  6
CONTINUOUS
 62
     4
100
AcDbLine
 10
525.1129989436638
 20
214.5794035277318
 30
0.0
 11
525.1129989436638
 21
231.7369209500574
 31
0.0
  0
LINE
  5
1281
330
114F
100
AcDbEntity
  8
L-2
  6
CONTINUOUS
 62
     4
100
AcDbLine
 10
65.11299894366368
 20
229.7369209500574
 30
0.0
 11
520.1129989436638
 21
229.7369209500574
 31
0.0
  0
INSERT
  5
1282
330
114F
100
AcDbEntity
  8
L-2
  6
CONTINUOUS
 62
     4
100
AcDbBlockReference
  2
_OPEN
 10
60.11299894366368
 20
229.7369209500574
 30
0.0
 41
5.0
 42
5.0
 43
5.0
 50
180.0
  0
INSERT
  5
1283
330
114F
100
AcDbEntity
  8
L-2
  6
CONTINUOUS
 62
     4
100
AcDbBlockReference
  2
_OPEN
 10
525.1129989436638
 20
229.7369209500574
 30
0.0
 41
5.0
 42
5.0
 43
5.0
  0
MTEXT
  5
1284
330
114F
100
AcDbEntity
  8
L-2
  6
CONTINUOUS
 62
     2
100
AcDbMText
 10
292.6129989436637
 20
233.9369209500574
 30
0.0
 40
6.4
 41
0.0
 71
     5
 72
     1
  1
\A1;465
  7
MSゴシック
1001
ACAD
1000
MTEXTBEGIN
1070
    73
1070
     1
1070
    44
1040
1.0
1070
    74
1070
     0
1000
MTEXTEND
  0
POINT
  5
1285
330
114F
100
AcDbEntity
  8
DEFPOINTS
  6
CONTINUOUS
 62
     0
100
AcDbPoint
 10
60.11299894366368
 20
213.5794035277318
 30
0.0
  0
POINT
  5
1286
330
114F
100
AcDbEntity
  8
DEFPOINTS
  6
CONTINUOUS
 62
     0
100
AcDbPoint
 10
525.1129989436638
 20
213.5794035277318
 30
0.0
  0
POINT
  5
1287
330
114F
100
AcDbEntity
  8
DEFPOINTS
  6
CONTINUOUS
 62
     0
100
AcDbPoint
 10
525.1129989436638
 20
229.7369209500574
 30
0.0
  0
ENDBLK
  5
115A
330
114F
100
AcDbEntity
  8
0
 62
     7
100
AcDbBlockEnd
  0
BLOCK
  5
1165
330
115B
100
AcDbEntity
  8
0
 62
     7
100
AcDbBlockBegin
  2
*D6
 70
     1
 10
0.0
 20
0.0
 30
0.0
  3
*D6
  1

  0
LINE
  5
1288
330
115B
100
AcDbEntity
  8
L-2
  6
CONTINUOUS
 62
     4
100
AcDbLine
 10
532.6129989436635
 20
212.9676078538759
 30
0.0
 11
551.6490820806092
 21
212.9676078538759
 31
0.0
  0
LINE
  5
1289
330
115B
100
AcDbEntity
  8
L-2
  6
CONTINUOUS
 62
     4
100
AcDbLine
 10
532.6129989436638
 20
168.9676078538762
 30
0.0
 11
551.6490820806092
 21
168.9676078538762
 31
0.0
  0
LINE
  5
128A
330
115B
100
AcDbEntity
  8
L-2
  6
CONTINUOUS
 62
     4
100
AcDbLine
 10
549.6490820806092
 20
207.9676078538759
 30
0.0
 11
549.6490820806092
 21
173.9676078538762
 31
0.0
  0
INSERT
  5
128B
330
115B
100
AcDbEntity
  8
L-2
  6
CONTINUOUS
 62
     4
100
AcDbBlockReference
  2
_OPEN
 10
549.6490820806092
 20
212.9676078538759
 30
0.0
 41
5.0
 42
5.0
 43
5.0
 50
90.0
  0
INSERT
  5
128C
330
115B
100
AcDbEntity
  8
L-2
  6
CONTINUOUS
 62
     4
100
AcDbBlockReference
  2
_OPEN
 10
549.6490820806092
 20
168.9676078538762
 30
0.0
 41
5.0
 42
5.0
 43
5.0
 50
270.0
  0
MTEXT
  5
128D
330
115B
100
AcDbEntity
  8
L-2
  6
CONTINUOUS
 62
     2
100
AcDbMText
 10
545.4490820806092
 20
190.9676078538761
 30
0.0
 40
6.4
 41
0.0
 71
     5
 72
     1
  1
\A1;44
  7
MSゴシック
 11
0.0000000000000001
 21
1.0
 31
0.0
1001
ACAD
1000
MTEXTBEGIN
1070
    73
1070
     1
1070
    44
1040
1.0
1070
    74
1070
     0
1000
MTEXTEND
  0
POINT
  5
128E
330
115B
100
AcDbEntity
  8
DEFPOINTS
  6
CONTINUOUS
 62
     0
100
AcDbPoint
 10
531.6129989436635
 20
212.9676078538759
 30
0.0
  0
POINT
  5
128F
330
115B
100
AcDbEntity
  8
DEFPOINTS
  6
CONTINUOUS
 62
     0
100
AcDbPoint
 10
531.6129989436638
 20
168.9676078538762
 30
0.0
  0
POINT
  5
1290
330
115B
100
AcDbEntity
  8
DEFPOINTS
  6
CONTINUOUS
 62
     0
100
AcDbPoint
 10
549.6490820806092
 20
168.9676078538762
 30
0.0
  0
ENDBLK
  5
1166
330
115B
100
AcDbEntity
  8
0
 62
     7
100
AcDbBlockEnd
  0
BLOCK
  5
1171
330
1167
100
AcDbEntity
  8
0
 62
     7
100
AcDbBlockBegin
  2
*D7
 70
     1
 10
0.0
 20
0.0
 30
0.0
  3
*D7
  1

  0
LINE
  5
1291
330
1167
100
AcDbEntity
  8
L-2
  6
CONTINUOUS
 62
     4
100
AcDbLine
 10
534.612998943664
 20
291.3197534637779
 30
0.0
 11
569.1641450843355
 21
291.3197534637779
 31
0.0
  0
LINE
  5
1292
330
1167
100
AcDbEntity
  8
L-2
  6
CONTINUOUS
 62
     4
100
AcDbLine
 10
507.612998943664
 20
426.3197534637773
 30
0.0
 11
569.1641450843355
 21
426.3197534637773
 31
0.0
  0
LINE
  5
1293
330
1167
100
AcDbEntity
  8
L-2
  6
CONTINUOUS
 62
     4
100
AcDbLine
 10
567.1641450843354
 20
296.3197534637779
 30
0.0
 11
567.1641450843354
 21
421.3197534637774
 31
0.0
  0
INSERT
  5
1294
330
1167
100
AcDbEntity
  8
L-2
  6
CONTINUOUS
 62
     4
100
AcDbBlockReference
  2
_OPEN
 10
567.1641450843354
 20
291.3197534637779
 30
0.0
 41
5.0
 42
5.0
 43
5.0
 50
270.0
  0
INSERT
  5
1295
330
1167
100
AcDbEntity
  8
L-2
  6
CONTINUOUS
 62
     4
100
AcDbBlockReference
  2
_OPEN
 10
567.1641450843354
 20
426.3197534637773
 30
0.0
 41
5.0
 42
5.0
 43
5.0
 50
90.0
  0
MTEXT
  5
1296
330
1167
100
AcDbEntity
  8
L-2
  6
CONTINUOUS
 62
     2
100
AcDbMText
 10
562.5905410234216
 20
357.9751642267283
 30
0.0
 40
6.4
 41
0.0
 71
     5
 72
     1
  1
\A1;（135）
  7
MSゴシック
 11
0.0000000000000001
 21
1.0
 31
0.0
1001
ACAD
1000
MTEXTBEGIN
1070
    73
1070
     1
1070
    44
1040
1.0
1070
    74
1070
     0
1000
MTEXTEND
  0
POINT
  5
1297
330
1167
100
AcDbEntity
  8
DEFPOINTS
  6
CONTINUOUS
 62
     0
100
AcDbPoint
 10
533.612998943664
 20
291.3197534637779
 30
0.0
  0
POINT
  5
1298
330
1167
100
AcDbEntity
  8
DEFPOINTS
  6
CONTINUOUS
 62
     0
100
AcDbPoint
 10
506.612998943664
 20
426.3197534637773
 30
0.0
  0
POINT
  5
1299
330
1167
100
AcDbEntity
  8
DEFPOINTS
  6
CONTINUOUS
 62
     0
100
AcDbPoint
 10
567.1641450843354
 20
426.3197534637773
 30
0.0
  0
ENDBLK
  5
1172
330
1167
100
AcDbEntity
  8
0
 62
     7
100
AcDbBlockEnd
  0
BLOCK
  5
117D
330
1173
100
AcDbEntity
  8
0
 62
     7
100
AcDbBlockBegin
  2
*D8
 70
     1
 10
0.0
 20
0.0
 30
0.0
  3
*D8
  1

  0
LINE
  5
129A
330
1173
100
AcDbEntity
  8
L-2
  6
CONTINUOUS
 62
     4
100
AcDbLine
 10
510.612998943664
 20
350.3197534637779
 30
0.0
 11
551.6490820806092
 21
350.3197534637779
 31
0.0
  0
LINE
  5
129B
330
1173
100
AcDbEntity
  8
L-2
  6
CONTINUOUS
 62
     4
100
AcDbLine
 10
534.612998943664
 20
291.3197534637779
 30
0.0
 11
551.6490820806092
 21
291.3197534637779
 31
0.0
  0
LINE
  5
129C
330
1173
100
AcDbEntity
  8
L-2
  6
CONTINUOUS
 62
     4
100
AcDbLine
 10
549.6490820806092
 20
345.3197534637779
 30
0.0
 11
549.6490820806092
 21
296.3197534637779
 31
0.0
  0
INSERT
  5
129D
330
1173
100
AcDbEntity
  8
L-2
  6
CONTINUOUS
 62
     4
100
AcDbBlockReference
  2
_OPEN
 10
549.6490820806092
 20
350.3197534637779
 30
0.0
 41
5.0
 42
5.0
 43
5.0
 50
90.0
  0
INSERT
  5
129E
330
1173
100
AcDbEntity
  8
L-2
  6
CONTINUOUS
 62
     4
100
AcDbBlockReference
  2
_OPEN
 10
549.6490820806092
 20
291.3197534637779
 30
0.0
 41
5.0
 42
5.0
 43
5.0
 50
270.0
  0
MTEXT
  5
129F
330
1173
100
AcDbEntity
  8
L-2
  6
CONTINUOUS
 62
     2
100
AcDbMText
 10
545.449082080609
 20
320.819753463778
 30
0.0
 40
6.4
 41
0.0
 71
     5
 72
     1
  1
\A1;59
  7
MSゴシック
 11
0.0000000000000001
 21
1.0
 31
0.0
1001
ACAD
1000
MTEXTBEGIN
1070
    73
1070
     1
1070
    44
1040
1.0
1070
    74
1070
     0
1000
MTEXTEND
  0
POINT
  5
12A0
330
1173
100
AcDbEntity
  8
DEFPOINTS
  6
CONTINUOUS
 62
     0
100
AcDbPoint
 10
509.612998943664
 20
350.3197534637779
 30
0.0
  0
POINT
  5
12A1
330
1173
100
AcDbEntity
  8
DEFPOINTS
  6
CONTINUOUS
 62
     0
100
AcDbPoint
 10
533.612998943664
 20
291.3197534637779
 30
0.0
  0
POINT
  5
12A2
330
1173
100
AcDbEntity
  8
DEFPOINTS
  6
CONTINUOUS
 62
     0
100
AcDbPoint
 10
549.6490820806092
 20
291.3197534637779
 30
0.0
  0
ENDBLK
  5
117E
330
1173
100
AcDbEntity
  8
0
 62
     7
100
AcDbBlockEnd
  0
BLOCK
  5
1189
330
117F
100
AcDbEntity
  8
0
 62
     7
100
AcDbBlockBegin
  2
*D9
 70
     1
 10
0.0
 20
0.0
 30
0.0
  3
*D9
  1

  0
LINE
  5
12A3
330
117F
100
AcDbEntity
  8
L-2
  6
CONTINUOUS
 62
     4
100
AcDbLine
 10
74.61299894366402
 20
424.3197534637772
 30
0.0
 11
74.61299894366402
 21
443.7726529655878
 31
0.0
  0
LINE
  5
12A4
330
117F
100
AcDbEntity
  8
L-2
  6
CONTINUOUS
 62
     4
100
AcDbLine
 10
510.612998943664
 20
424.3197534637772
 30
0.0
 11
510.612998943664
 21
443.7726529655878
 31
0.0
  0
LINE
  5
12A5
330
117F
100
AcDbEntity
  8
L-2
  6
CONTINUOUS
 62
     4
100
AcDbLine
 10
79.61299894366402
 20
441.7726529655879
 30
0.0
 11
505.612998943664
 21
441.7726529655879
 31
0.0
  0
INSERT
  5
12A6
330
117F
100
AcDbEntity
  8
L-2
  6
CONTINUOUS
 62
     4
100
AcDbBlockReference
  2
_OPEN
 10
74.61299894366402
 20
441.7726529655879
 30
0.0
 41
5.0
 42
5.0
 43
5.0
 50
180.0
  0
INSERT
  5
12A7
330
117F
100
AcDbEntity
  8
L-2
  6
CONTINUOUS
 62
     4
100
AcDbBlockReference
  2
_OPEN
 10
510.612998943664
 20
441.7726529655879
 30
0.0
 41
5.0
 42
5.0
 43
5.0
  0
MTEXT
  5
12A8
330
117F
100
AcDbEntity
  8
L-2
  6
CONTINUOUS
 62
     2
100
AcDbMText
 10
292.612998943664
 20
446.3462570265015
 30
0.0
 40
6.4
 41
0.0
 71
     5
 72
     1
  1
\A1;（436）
  7
MSゴシック
1001
ACAD
1000
MTEXTBEGIN
1070
    73
1070
     1
1070
    44
1040
1.0
1070
    74
1070
     0
1000
MTEXTEND
  0
POINT
  5
12A9
330
117F
100
AcDbEntity
  8
DEFPOINTS
  6
CONTINUOUS
 62
     0
100
AcDbPoint
 10
74.61299894366402
 20
423.3197534637772
 30
0.0
  0
POINT
  5
12AA
330
117F
100
AcDbEntity
  8
DEFPOINTS
  6
CONTINUOUS
 62
     0
100
AcDbPoint
 10
510.612998943664
 20
423.3197534637772
 30
0.0
  0
POINT
  5
12AB
330
117F
100
AcDbEntity
  8
DEFPOINTS
  6
CONTINUOUS
 62
     0
100
AcDbPoint
 10
510.612998943664
 20
441.7726529655879
 30
0.0
  0
ENDBLK
  5
118A
330
117F
100
AcDbEntity
  8
0
 62
     7
100
AcDbBlockEnd
  0
ENDSEC
  0
SECTION
  2
ENTITIES
  0
LINE
  5
3FF
330
18
100
AcDbEntity
  8
L-1
  6
CONTINUOUS
 62
     7
100
AcDbLine
 10
372.1629989436637
 20
347.319753463778
 30
0.0
 11
417.1129989436638
 21
347.319753463778
 31
0.0
  0
LINE
  5
400
330
18
100
AcDbEntity
  8
L-1
  6
CENTER2
 62
     1
100
AcDbLine
 10
46.86461191632043
 20
190.9676078538762
 30
0.0
 11
539.3338547570386
 21
190.9676078538762
 31
0.0
  0
LINE
  5
401
330
18
100
AcDbEntity
  8
L-1
  6
PHANTOM2
 62
     3
 48
0.3
100
AcDbLine
 10
389.012998943664
 20
391.5197534637774
 30
0.0
 11
376.2129989436639
 21
391.5197534637774
 31
0.0
  0
LINE
  5
402
330
18
100
AcDbEntity
  8
L-1
  6
PHANTOM2
 62
     3
 48
0.3
100
AcDbLine
 10
389.012998943664
 20
397.1197534637774
 30
0.0
 11
376.2129989436639
 21
397.1197534637774
 31
0.0
  0
LINE
  5
403
330
18
100
AcDbEntity
  8
L-1
  6
CONTINUOUS
 62
     7
100
AcDbLine
 10
224.9296237340189
 20
212.9676078538762
 30
0.0
 11
506.6129989436638
 21
212.9676078538762
 31
0.0
  0
LINE
  5
404
330
18
100
AcDbEntity
  8
L-1
  6
CONTINUOUS
 62
     7
100
AcDbLine
 10
367.2185502191278
 20
169.9676078538762
 30
0.0
 11
506.6129989436635
 21
169.9676078538762
 31
0.0
  0
LINE
  5
405
330
18
100
AcDbEntity
  8
L-1
  6
CONTINUOUS
 62
     7
100
AcDbLine
 10
367.2185502191278
 20
211.9676078538762
 30
0.0
 11
506.6129989436638
 21
211.967607853876
 31
0.0
  0
LINE
  5
407
330
18
100
AcDbEntity
  8
L-1
  6
PHANTOM2
 62
     3
 48
0.5
100
AcDbLine
 10
75.61299894366403
 20
376.3197534637774
 30
0.0
 11
509.612998943664
 21
376.3197534637774
 31
0.0
  0
LINE
  5
408
330
18
100
AcDbEntity
  8
L-1
  6
PHANTOM2
 62
     3
 48
0.5
100
AcDbLine
 10
78.61299894366391
 20
426.3197534637773
 30
0.0
 11
506.612998943664
 21
426.3197534637774
 31
0.0
  0
LINE
  5
40B
330
18
100
AcDbEntity
  8
L-1
  6
CONTINUOUS
 62
     7
100
AcDbLine
 10
78.61299894366379
 20
168.9676078538762
 30
0.0
 11
506.6129989436638
 21
168.9676078538762
 31
0.0
  0
LINE
  5
40C
330
18
100
AcDbEntity
  8
L-1
  6
CONTINUOUS
 62
     7
100
AcDbLine
 10
404.6129989436638
 20
323.319753463778
 30
0.0
 11
373.1987853812908
 21
291.9055399014047
 31
0.0
  0
LINE
  5
40E
330
18
100
AcDbEntity
  8
L-1
  6
CONTINUOUS
 62
     7
100
AcDbLine
 10
78.61299894366402
 20
169.9676078538762
 30
0.0
 11
218.0074476681995
 21
169.9676078538762
 31
0.0
  0
LINE
  5
40F
330
18
100
AcDbEntity
  8
L-1
  6
CONTINUOUS
 62
     7
100
AcDbLine
 10
78.61299894366379
 20
211.9676078538763
 30
0.0
 11
218.0074476681995
 21
211.9676078538761
 31
0.0
  0
LINE
  5
410
330
18
100
AcDbEntity
  8
L-1
  6
CONTINUOUS
 62
     7
100
AcDbLine
 10
78.61299894366379
 20
212.9676078538762
 30
0.0
 11
224.9296237340189
 21
212.9676078538762
 31
0.0
  0
LINE
  5
411
330
18
100
AcDbEntity
  8
L-1
  6
CONTINUOUS
 62
     7
100
AcDbLine
 10
81.16299894366397
 20
203.4676078538762
 30
0.0
 11
81.16299894366397
 21
178.4676078538762
 31
0.0
  0
LINE
  5
412
330
18
100
AcDbEntity
  8
L-1
  6
CONTINUOUS
 62
     7
100
AcDbLine
 10
89.16299894366398
 20
203.4676078538762
 30
0.0
 11
89.16299894366398
 21
178.4676078538762
 31
0.0
  0
LINE
  5
415
330
18
100
AcDbEntity
  8
L-1
  6
CONTINUOUS
 62
     7
100
AcDbLine
 10
51.61299894366379
 20
170.9676078538762
 30
0.0
 11
51.61299894366379
 21
210.9676078538762
 31
0.0
  0
LINE
  5
417
330
18
100
AcDbEntity
  8
L-1
  6
CONTINUOUS
 62
     7
100
AcDbLine
 10
77.6129989436638
 20
168.9676078538761
 30
0.0
 11
77.6129989436638
 21
212.9676078538762
 31
0.0
  0
LINE
  5
418
330
18
100
AcDbEntity
  8
L-1
  6
CONTINUOUS
 62
     7
100
AcDbLine
 10
132.1129989436636
 20
211.9676078538762
 30
0.0
 11
132.1129989436636
 21
169.9676078538762
 31
0.0
  0
LINE
  5
419
330
18
100
AcDbEntity
  8
L-1
  6
CONTINUOUS
 62
     7
100
AcDbLine
 10
78.61299894366379
 20
211.9676078538761
 30
0.0
 11
78.61299894366402
 21
169.9676078538762
 31
0.0
  0
LINE
  5
41A
330
18
100
AcDbEntity
  8
L-1
  6
CONTINUOUS
 62
     7
100
AcDbLine
 10
88.16299894366364
 20
211.9676078538762
 30
0.0
 11
88.16299894366443
 21
169.9676078538762
 31
0.0
  0
ARC
  5
41B
330
18
100
AcDbEntity
  8
L-1
  6
CONTINUOUS
 62
     7
100
AcDbCircle
 10
53.61299894366402
 20
170.9676078538761
 30
0.0
 40
2.000000000000113
100
AcDbArc
 50
179.9999999999983
 51
269.9999999999934
  0
LINE
  5
41C
330
18
100
AcDbEntity
  8
L-1
  6
CONTINUOUS
 62
     7
100
AcDbLine
 10
77.6129989436638
 20
168.9676078538761
 30
0.0
 11
53.61299894366379
 21
168.9676078538762
 31
0.0
  0
ARC
  5
41D
330
18
100
AcDbEntity
  8
L-1
  6
CONTINUOUS
 62
     7
100
AcDbCircle
 10
78.61299894366379
 20
169.9676078538762
 30
0.0
 40
1.0
100
AcDbArc
 50
180.0
 51
270.0
  0
LINE
  5
424
330
18
100
AcDbEntity
  8
L-1
  6
CONTINUOUS
 62
     7
100
AcDbLine
 10
77.61299894366402
 20
178.9676078538762
 30
0.0
 11
78.61299894366402
 21
178.9676078538762
 31
0.0
  0
LINE
  5
425
330
18
100
AcDbEntity
  8
L-1
  6
CONTINUOUS
 62
     7
100
AcDbLine
 10
88.16299894366386
 20
179.4676078538762
 30
0.0
 11
89.16299894366408
 21
179.4676078538762
 31
0.0
  0
LINE
  5
426
330
18
100
AcDbEntity
  8
L-1
  6
CONTINUOUS
 62
     7
100
AcDbLine
 10
81.16299894366397
 20
178.4676078538762
 30
0.0
 11
89.16299894366398
 21
178.4676078538762
 31
0.0
  0
LINE
  5
427
330
18
100
AcDbEntity
  8
L-1
  6
CONTINUOUS
 62
     7
100
AcDbLine
 10
88.16299894366386
 20
185.9676078538762
 30
0.0
 11
89.16299894366398
 21
185.9676078538762
 31
0.0
  0
LINE
  5
42A
330
18
100
AcDbEntity
  8
L-1
  6
CONTINUOUS
 62
     7
100
AcDbLine
 10
77.6129989436638
 20
212.9676078538762
 30
0.0
 11
53.61299894366379
 21
212.9676078538762
 31
0.0
  0
ARC
  5
42E
330
18
100
AcDbEntity
  8
L-1
  6
CONTINUOUS
 62
     7
100
AcDbCircle
 10
53.61299894366379
 20
210.9676078538762
 30
0.0
 40
2.0
100
AcDbArc
 50
90.0
 51
180.0
  0
LINE
  5
431
330
18
100
AcDbEntity
  8
L-1
  6
CONTINUOUS
 62
     7
100
AcDbLine
 10
77.6129989436638
 20
202.9676078538762
 30
0.0
 11
78.61299894366379
 21
202.9676078538761
 31
0.0
  0
ARC
  5
432
330
18
100
AcDbEntity
  8
L-1
  6
CONTINUOUS
 62
     7
100
AcDbCircle
 10
78.61299894366379
 20
211.9676078538762
 30
0.0
 40
1.0
100
AcDbArc
 50
90.0
 51
180.0
  0
LINE
  5
433
330
18
100
AcDbEntity
  8
L-1
  6
CONTINUOUS
 62
     7
100
AcDbLine
 10
88.16299894366386
 20
195.9676078538762
 30
0.0
 11
89.16299894366398
 21
195.9676078538762
 31
0.0
  0
LINE
  5
434
330
18
100
AcDbEntity
  8
L-1
  6
CONTINUOUS
 62
     7
100
AcDbLine
 10
88.16299894366386
 20
202.4676078538762
 30
0.0
 11
89.16299894366408
 21
202.4676078538762
 31
0.0
  0
LINE
  5
436
330
18
100
AcDbEntity
  8
L-1
  6
CONTINUOUS
 62
     7
100
AcDbLine
 10
81.16299894366397
 20
203.4676078538762
 30
0.0
 11
89.16299894366398
 21
203.4676078538762
 31
0.0
  0
LINE
  5
437
330
18
100
AcDbEntity
  8
L-1
  6
CONTINUOUS
 62
     7
100
AcDbLine
 10
225.2185502191275
 20
169.9676078538762
 30
0.0
 11
360.0074476681998
 21
169.9676078538762
 31
0.0
  0
LINE
  5
438
330
18
100
AcDbEntity
  8
L-1
  6
CONTINUOUS
 62
     7
100
AcDbLine
 10
225.2185502191275
 20
211.9676078538762
 30
0.0
 11
360.0074476681998
 21
211.9676078538761
 31
0.0
  0
LINE
  5
439
330
18
100
AcDbEntity
  8
L-1
  6
CONTINUOUS
 62
     7
100
AcDbLine
 10
213.0629989436636
 20
211.9676078538761
 30
0.0
 11
213.0629989436636
 21
169.9676078538762
 31
0.0
  0
LINE
  5
43A
330
18
100
AcDbEntity
  8
L-1
  6
CONTINUOUS
 62
     7
100
AcDbLine
 10
230.1629989436634
 20
211.9676078538761
 30
0.0
 11
230.1629989436634
 21
169.9676078538762
 31
0.0
  0
LINE
  5
43B
330
18
100
AcDbEntity
  8
L-1
  6
CONTINUOUS
 62
     7
100
AcDbLine
 10
223.1629989436637
 20
203.4676078538762
 30
0.0
 11
223.1629989436637
 21
178.4676078538762
 31
0.0
  0
LINE
  5
43C
330
18
100
AcDbEntity
  8
L-1
  6
CONTINUOUS
 62
     7
100
AcDbLine
 10
231.1629989436637
 20
203.4676078538762
 30
0.0
 11
231.1629989436637
 21
178.4676078538762
 31
0.0
  0
LINE
  5
43D
330
18
100
AcDbEntity
  8
L-1
  6
CONTINUOUS
 62
     7
100
AcDbLine
 10
220.0629989436634
 20
203.4676078538762
 30
0.0
 11
220.0629989436634
 21
178.4676078538762
 31
0.0
  0
LINE
  5
43E
330
18
100
AcDbEntity
  8
L-1
  6
CONTINUOUS
 62
     7
100
AcDbLine
 10
212.0629989436634
 20
203.4676078538762
 30
0.0
 11
212.0629989436634
 21
178.4676078538762
 31
0.0
  0
LINE
  5
440
330
18
100
AcDbEntity
  8
L-1
  6
CONTINUOUS
 62
     7
100
AcDbLine
 10
169.1129989436636
 20
211.9676078538762
 30
0.0
 11
169.1129989436636
 21
169.9676078538762
 31
0.0
  0
CIRCLE
  5
441
330
18
100
AcDbEntity
  8
L-1
  6
CONTINUOUS
 62
     7
100
AcDbCircle
 10
157.1129989436637
 20
178.9676078538762
 30
0.0
 40
1.75
  0
CIRCLE
  5
448
330
18
100
AcDbEntity
  8
L-1
  6
CONTINUOUS
 62
     7
100
AcDbCircle
 10
144.1129989436638
 20
178.9676078538762
 30
0.0
 40
2.1
  0
ARC
  5
44F
330
18
100
AcDbEntity
  8
L-1
  6
CONTINUOUS
 62
     7
100
AcDbCircle
 10
221.6129989436635
 20
166.9676078538762
 30
0.0
 40
4.0
100
AcDbArc
 50
58.99728086612665
 51
121.0027191338733
  0
ARC
  5
451
330
18
100
AcDbEntity
  8
L-1
  6
CONTINUOUS
 62
     7
100
AcDbCircle
 10
224.9296237340189
 20
171.9676078538762
 30
0.0
 40
3.0
100
AcDbArc
 50
236.4426902380799
 51
270.0
  0
ARC
  5
452
330
18
100
AcDbEntity
  8
L-1
  6
CONTINUOUS
 62
     7
100
AcDbCircle
 10
225.2185502191275
 20
172.9676078538762
 30
0.0
 40
3.0
100
AcDbArc
 50
238.9972808661263
 51
270.0
  0
ARC
  5
453
330
18
100
AcDbEntity
  8
L-1
  6
CONTINUOUS
 62
     7
100
AcDbCircle
 10
218.0074476681995
 20
172.9676078538762
 30
0.0
 40
3.0
100
AcDbArc
 50
269.9999999999996
 51
301.0027191338737
  0
ARC
  5
454
330
18
100
AcDbEntity
  8
L-1
  6
CONTINUOUS
 62
     7
100
AcDbCircle
 10
218.2963741533082
 20
171.9676078538762
 30
0.0
 40
3.0
100
AcDbArc
 50
270.0
 51
303.5573097619202
  0
ARC
  5
455
330
18
100
AcDbEntity
  8
L-1
  6
CONTINUOUS
 62
     7
100
AcDbCircle
 10
221.6129989436635
 20
166.9676078538762
 30
0.0
 40
3.0
100
AcDbArc
 50
56.44269023807999
 51
123.55730976192
  0
LINE
  5
457
330
18
100
AcDbEntity
  8
L-1
  6
CONTINUOUS
 62
     7
100
AcDbLine
 10
220.0629989436634
 20
178.4676078538762
 30
0.0
 11
212.0629989436634
 21
178.4676078538762
 31
0.0
  0
LINE
  5
458
330
18
100
AcDbEntity
  8
L-1
  6
CONTINUOUS
 62
     7
100
AcDbLine
 10
213.0629989436633
 20
179.4676078538762
 30
0.0
 11
212.0629989436631
 21
179.4676078538762
 31
0.0
  0
LINE
  5
459
330
18
100
AcDbEntity
  8
L-1
  6
CONTINUOUS
 62
     7
100
AcDbLine
 10
213.0629989436633
 20
185.9676078538762
 30
0.0
 11
212.0629989436634
 21
185.9676078538762
 31
0.0
  0
LINE
  5
45A
330
18
100
AcDbEntity
  8
L-1
  6
CONTINUOUS
 62
     7
100
AcDbLine
 10
223.1629989436637
 20
178.4676078538762
 30
0.0
 11
231.1629989436637
 21
178.4676078538762
 31
0.0
  0
LINE
  5
45B
330
18
100
AcDbEntity
  8
L-1
  6
CONTINUOUS
 62
     7
100
AcDbLine
 10
230.1629989436637
 20
179.4676078538762
 30
0.0
 11
231.1629989436639
 21
179.4676078538762
 31
0.0
  0
LINE
  5
45D
330
18
100
AcDbEntity
  8
L-1
  6
CONTINUOUS
 62
     7
100
AcDbLine
 10
230.1629989436637
 20
185.9676078538762
 30
0.0
 11
231.1629989436637
 21
185.9676078538762
 31
0.0
  0
LINE
  5
45F
330
18
100
AcDbEntity
  8
L-1
  6
CONTINUOUS
 62
     7
100
AcDbLine
 10
220.0629989436634
 20
203.4676078538762
 30
0.0
 11
212.0629989436634
 21
203.4676078538762
 31
0.0
  0
LINE
  5
461
330
18
100
AcDbEntity
  8
L-1
  6
CONTINUOUS
 62
     7
100
AcDbLine
 10
213.0629989436633
 20
195.9676078538762
 30
0.0
 11
212.0629989436634
 21
195.9676078538762
 31
0.0
  0
LINE
  5
462
330
18
100
AcDbEntity
  8
L-1
  6
CONTINUOUS
 62
     7
100
AcDbLine
 10
213.0629989436633
 20
202.4676078538762
 30
0.0
 11
212.0629989436631
 21
202.4676078538762
 31
0.0
  0
LINE
  5
464
330
18
100
AcDbEntity
  8
L-1
  6
CONTINUOUS
 62
     7
100
AcDbLine
 10
230.1629989436637
 20
195.9676078538762
 30
0.0
 11
231.1629989436637
 21
195.9676078538762
 31
0.0
  0
LINE
  5
465
330
18
100
AcDbEntity
  8
L-1
  6
CONTINUOUS
 62
     7
100
AcDbLine
 10
230.1629989436637
 20
202.4676078538762
 30
0.0
 11
231.1629989436639
 21
202.4676078538762
 31
0.0
  0
ARC
  5
466
330
18
100
AcDbEntity
  8
L-1
  6
CONTINUOUS
 62
     7
100
AcDbCircle
 10
224.9296237340189
 20
209.9676078538762
 30
0.0
 40
3.0
100
AcDbArc
 50
90.0
 51
123.55730976192
  0
ARC
  5
467
330
18
100
AcDbEntity
  8
L-1
  6
CONTINUOUS
 62
     7
100
AcDbCircle
 10
225.2185502191275
 20
208.9676078538762
 30
0.0
 40
3.0
100
AcDbArc
 50
90.0
 51
121.0027191338737
  0
LINE
  5
468
330
18
100
AcDbEntity
  8
L-1
  6
CONTINUOUS
 62
     7
100
AcDbLine
 10
223.1629989436637
 20
203.4676078538762
 30
0.0
 11
231.1629989436637
 21
203.4676078538762
 31
0.0
  0
ARC
  5
469
330
18
100
AcDbEntity
  8
L-1
  6
CONTINUOUS
 62
     7
100
AcDbCircle
 10
218.2963741533082
 20
209.9676078538762
 30
0.0
 40
3.0
100
AcDbArc
 50
56.44269023807965
 51
90.0
  0
ARC
  5
46A
330
18
100
AcDbEntity
  8
L-1
  6
CONTINUOUS
 62
     7
100
AcDbCircle
 10
218.0074476681995
 20
208.9676078538762
 30
0.0
 40
3.0
100
AcDbArc
 50
58.99728086612629
 51
90.0000000000004
  0
ARC
  5
46B
330
18
100
AcDbEntity
  8
L-1
  6
CONTINUOUS
 62
     7
100
AcDbCircle
 10
221.6129989436635
 20
214.9676078538762
 30
0.0
 40
4.0
100
AcDbArc
 50
238.9972808661266
 51
301.0027191338733
  0
ARC
  5
46C
330
18
100
AcDbEntity
  8
L-1
  6
CONTINUOUS
 62
     7
100
AcDbCircle
 10
221.6129989436635
 20
214.9676078538762
 30
0.0
 40
3.0
100
AcDbArc
 50
236.4426902380799
 51
303.55730976192
  0
LINE
  5
46D
330
18
100
AcDbEntity
  8
L-1
  6
CONTINUOUS
 62
     7
100
AcDbLine
 10
354.0629989436634
 20
203.4676078538762
 30
0.0
 11
354.0629989436634
 21
178.4676078538762
 31
0.0
  0
LINE
  5
46E
330
18
100
AcDbEntity
  8
L-1
  6
CONTINUOUS
 62
     7
100
AcDbLine
 10
362.0629989436634
 20
203.4676078538762
 30
0.0
 11
362.0629989436634
 21
178.4676078538762
 31
0.0
  0
LINE
  5
46F
330
18
100
AcDbEntity
  8
L-1
  6
CONTINUOUS
 62
     7
100
AcDbLine
 10
373.162998943664
 20
203.4676078538762
 30
0.0
 11
373.162998943664
 21
178.4676078538762
 31
0.0
  0
LINE
  5
470
330
18
100
AcDbEntity
  8
L-1
  6
CONTINUOUS
 62
     7
100
AcDbLine
 10
365.1629989436639
 20
203.4676078538762
 30
0.0
 11
365.1629989436639
 21
178.4676078538762
 31
0.0
  0
LINE
  5
473
330
18
100
AcDbEntity
  8
L-1
  6
CONTINUOUS
 62
     7
100
AcDbLine
 10
372.1629989436635
 20
211.9676078538762
 30
0.0
 11
372.1629989436635
 21
169.9676078538762
 31
0.0
  0
LINE
  5
474
330
18
100
AcDbEntity
  8
L-1
  6
CONTINUOUS
 62
     7
100
AcDbLine
 10
355.0629989436638
 20
211.9676078538761
 30
0.0
 11
355.0629989436637
 21
169.9676078538762
 31
0.0
  0
LINE
  5
475
330
18
100
AcDbEntity
  8
L-1
  6
CONTINUOUS
 62
     7
100
AcDbLine
 10
311.1129989436635
 20
211.9676078538761
 30
0.0
 11
311.1129989436637
 21
169.9676078538762
 31
0.0
  0
LINE
  5
476
330
18
100
AcDbEntity
  8
L-1
  6
CONTINUOUS
 62
     7
100
AcDbLine
 10
274.1129989436637
 20
211.9676078538761
 30
0.0
 11
274.1129989436637
 21
169.9676078538762
 31
0.0
  0
ARC
  5
477
330
18
100
AcDbEntity
  8
L-1
  6
CONTINUOUS
 62
     7
100
AcDbCircle
 10
363.6129989436637
 20
166.9676078538762
 30
0.0
 40
4.0
100
AcDbArc
 50
58.99728086612665
 51
121.0027191338733
  0
ARC
  5
479
330
18
100
AcDbEntity
  8
L-1
  6
CONTINUOUS
 62
     7
100
AcDbCircle
 10
366.9296237340191
 20
171.9676078538762
 30
0.0
 40
3.0
100
AcDbArc
 50
236.4426902380796
 51
270.0
  0
ARC
  5
47A
330
18
100
AcDbEntity
  8
L-1
  6
CONTINUOUS
 62
     7
100
AcDbCircle
 10
367.2185502191278
 20
172.9676078538762
 30
0.0
 40
3.0
100
AcDbArc
 50
238.9972808661263
 51
270.0000000000004
  0
ARC
  5
47B
330
18
100
AcDbEntity
  8
L-1
  6
CONTINUOUS
 62
     7
100
AcDbCircle
 10
363.6129989436637
 20
166.9676078538762
 30
0.0
 40
3.0
100
AcDbArc
 50
56.44269023807999
 51
123.55730976192
  0
ARC
  5
47C
330
18
100
AcDbEntity
  8
L-1
  6
CONTINUOUS
 62
     7
100
AcDbCircle
 10
360.2963741533084
 20
171.9676078538762
 30
0.0
 40
3.0
100
AcDbArc
 50
270.0
 51
303.55730976192
  0
ARC
  5
47D
330
18
100
AcDbEntity
  8
L-1
  6
CONTINUOUS
 62
     7
100
AcDbCircle
 10
360.0074476681998
 20
172.9676078538762
 30
0.0
 40
3.0
100
AcDbArc
 50
270.0
 51
301.0027191338737
  0
LINE
  5
47E
330
18
100
AcDbEntity
  8
L-1
  6
CONTINUOUS
 62
     7
100
AcDbLine
 10
365.1629989436639
 20
178.4676078538762
 30
0.0
 11
373.162998943664
 21
178.4676078538762
 31
0.0
  0
LINE
  5
47F
330
18
100
AcDbEntity
  8
L-1
  6
CONTINUOUS
 62
     7
100
AcDbLine
 10
362.0629989436634
 20
178.4676078538762
 30
0.0
 11
354.0629989436634
 21
178.4676078538762
 31
0.0
  0
LINE
  5
480
330
18
100
AcDbEntity
  8
L-1
  6
CONTINUOUS
 62
     7
100
AcDbLine
 10
355.0629989436636
 20
179.4676078538762
 30
0.0
 11
354.0629989436633
 21
179.4676078538762
 31
0.0
  0
LINE
  5
482
330
18
100
AcDbEntity
  8
L-1
  6
CONTINUOUS
 62
     7
100
AcDbLine
 10
355.0629989436636
 20
185.9676078538762
 30
0.0
 11
354.0629989436634
 21
185.9676078538762
 31
0.0
  0
LINE
  5
483
330
18
100
AcDbEntity
  8
L-1
  6
CONTINUOUS
 62
     7
100
AcDbLine
 10
372.1629989436638
 20
179.4676078538762
 30
0.0
 11
373.162998943664
 21
179.4676078538762
 31
0.0
  0
LINE
  5
484
330
18
100
AcDbEntity
  8
L-1
  6
CONTINUOUS
 62
     7
100
AcDbLine
 10
372.1629989436638
 20
185.9676078538762
 30
0.0
 11
373.162998943664
 21
185.9676078538762
 31
0.0
  0
ARC
  5
487
330
18
100
AcDbEntity
  8
L-1
  6
CONTINUOUS
 62
     7
100
AcDbCircle
 10
367.2185502191278
 20
208.9676078538762
 30
0.0
 40
3.0
100
AcDbArc
 50
89.99999999999959
 51
121.0027191338737
  0
ARC
  5
488
330
18
100
AcDbEntity
  8
L-1
  6
CONTINUOUS
 62
     7
100
AcDbCircle
 10
366.9296237340191
 20
209.9676078538762
 30
0.0
 40
3.0
100
AcDbArc
 50
90.0
 51
123.5573097619203
  0
LINE
  5
489
330
18
100
AcDbEntity
  8
L-1
  6
CONTINUOUS
 62
     7
100
AcDbLine
 10
365.1629989436639
 20
203.4676078538762
 30
0.0
 11
373.162998943664
 21
203.4676078538762
 31
0.0
  0
LINE
  5
48B
330
18
100
AcDbEntity
  8
L-1
  6
CONTINUOUS
 62
     7
100
AcDbLine
 10
355.0629989436636
 20
202.4676078538762
 30
0.0
 11
354.0629989436633
 21
202.4676078538762
 31
0.0
  0
LINE
  5
48C
330
18
100
AcDbEntity
  8
L-1
  6
CONTINUOUS
 62
     7
100
AcDbLine
 10
355.0629989436636
 20
195.9676078538762
 30
0.0
 11
354.0629989436634
 21
195.9676078538762
 31
0.0
  0
LINE
  5
48D
330
18
100
AcDbEntity
  8
L-1
  6
CONTINUOUS
 62
     7
100
AcDbLine
 10
362.0629989436634
 20
203.4676078538762
 30
0.0
 11
354.0629989436634
 21
203.4676078538762
 31
0.0
  0
ARC
  5
48E
330
18
100
AcDbEntity
  8
L-1
  6
CONTINUOUS
 62
     7
100
AcDbCircle
 10
363.6129989436637
 20
214.9676078538762
 30
0.0
 40
4.0
100
AcDbArc
 50
238.9972808661266
 51
301.0027191338733
  0
ARC
  5
48F
330
18
100
AcDbEntity
  8
L-1
  6
CONTINUOUS
 62
     7
100
AcDbCircle
 10
360.2963741533084
 20
209.9676078538762
 30
0.0
 40
3.0
100
AcDbArc
 50
56.44269023807999
 51
90.0
  0
ARC
  5
490
330
18
100
AcDbEntity
  8
L-1
  6
CONTINUOUS
 62
     7
100
AcDbCircle
 10
363.6129989436637
 20
214.9676078538762
 30
0.0
 40
3.0
100
AcDbArc
 50
236.4426902380799
 51
303.55730976192
  0
ARC
  5
491
330
18
100
AcDbEntity
  8
L-1
  6
CONTINUOUS
 62
     7
100
AcDbCircle
 10
360.0074476681998
 20
208.9676078538762
 30
0.0
 40
3.0
100
AcDbArc
 50
58.99728086612629
 51
90.0
  0
LINE
  5
492
330
18
100
AcDbEntity
  8
L-1
  6
CONTINUOUS
 62
     7
100
AcDbLine
 10
372.1629989436638
 20
202.4676078538762
 30
0.0
 11
373.162998943664
 21
202.4676078538762
 31
0.0
  0
LINE
  5
493
330
18
100
AcDbEntity
  8
L-1
  6
CONTINUOUS
 62
     7
100
AcDbLine
 10
372.1629989436638
 20
195.9676078538762
 30
0.0
 11
373.162998943664
 21
195.9676078538762
 31
0.0
  0
LINE
  5
495
330
18
100
AcDbEntity
  8
L-1
  6
PHANTOM2
 62
     3
 48
0.5
100
AcDbLine
 10
125.112998943664
 20
411.8197534637775
 30
0.0
 11
145.112998943664
 21
411.8197534637775
 31
0.0
  0
LINE
  5
496
330
18
100
AcDbEntity
  8
L-1
  6
PHANTOM2
 62
     3
 48
0.5
100
AcDbLine
 10
125.112998943664
 20
416.8197534637775
 30
0.0
 11
145.112998943664
 21
416.8197534637775
 31
0.0
  0
ARC
  5
497
330
18
100
AcDbEntity
  8
L-1
  6
PHANTOM2
 62
     3
 48
0.5
100
AcDbCircle
 10
140.112998943664
 20
404.3197534637774
 30
0.0
 40
2.5
100
AcDbArc
 50
0.0
 51
180.0
  0
ARC
  5
498
330
18
100
AcDbEntity
  8
L-1
  6
PHANTOM2
 62
     3
 48
0.5
100
AcDbCircle
 10
140.112998943664
 20
384.3197534637774
 30
0.0
 40
2.5
100
AcDbArc
 50
180.0
 51
0.0
  0
LINE
  5
499
330
18
100
AcDbEntity
  8
L-1
  6
CONTINUOUS
 62
     7
100
AcDbLine
 10
120.6129989436636
 20
323.319753463778
 30
0.0
 11
180.612998943664
 21
323.319753463778
 31
0.0
  0
LINE
  5
49A
330
18
100
AcDbEntity
  8
L-1
  6
CONTINUOUS
 62
     7
100
AcDbLine
 10
133.1129989436637
 20
350.319753463778
 30
0.0
 11
168.1129989436638
 21
350.319753463778
 31
0.0
  0
ARC
  5
49B
330
18
100
AcDbEntity
  8
L-1
  6
PHANTOM2
 62
     3
 48
0.5
100
AcDbCircle
 10
130.112998943664
 20
404.3197534637774
 30
0.0
 40
2.5
100
AcDbArc
 50
0.0
 51
180.0
  0
LINE
  5
49C
330
18
100
AcDbEntity
  8
L-1
  6
PHANTOM2
 62
     3
 48
0.5
100
AcDbLine
 10
75.61299894366403
 20
310.3197534637779
 30
0.0
 11
75.61299894366403
 21
423.3197534637774
 31
0.0
  0
LINE
  5
49D
330
18
100
AcDbEntity
  8
L-1
  6
PHANTOM2
 62
     3
 48
0.5
100
AcDbLine
 10
74.61299894366402
 20
310.3197534637779
 30
0.0
 11
74.61299894366402
 21
423.3197534637774
 31
0.0
  0
LINE
  5
49E
330
18
100
AcDbEntity
  8
L-1
  6
PHANTOM2
 62
     3
 48
0.3
100
AcDbLine
 10
74.11299894366334
 20
314.8197534637779
 30
0.0
 11
74.11299894366345
 21
321.8197534637777
 31
0.0
  0
LINE
  5
49F
330
18
100
AcDbEntity
  8
L-1
  6
PHANTOM2
 62
     3
 48
0.3
100
AcDbLine
 10
73.41299894366341
 20
315.5697534637778
 30
0.0
 11
73.41299894366341
 21
321.0697534637777
 31
0.0
  0
ARC
  5
4A0
330
18
100
AcDbEntity
  8
L-1
  6
PHANTOM2
 62
     3
 48
0.3
100
AcDbCircle
 10
78.41299894366341
 20
318.3197534637778
 30
0.0
 40
7.0
100
AcDbArc
 50
163.7429721033957
 51
196.2570278966042
  0
LINE
  5
4A1
330
18
100
AcDbEntity
  8
L-1
  6
PHANTOM2
 62
     3
 48
0.3
100
AcDbLine
 10
73.41299894366341
 20
318.0259766174664
 30
0.0
 11
74.11299894366345
 21
318.750284258679
 31
0.0
  0
LINE
  5
4A2
330
18
100
AcDbEntity
  8
L-1
  6
CONTINUOUS
 62
     7
100
AcDbLine
 10
75.6129989436638
 20
293.3197534637782
 30
0.0
 11
75.6129989436638
 21
350.3197534637783
 31
0.0
  0
LINE
  5
4A3
330
18
100
AcDbEntity
  8
L-1
  6
CONTINUOUS
 62
     7
100
AcDbLine
 10
77.6129989436638
 20
293.3197534637782
 30
0.0
 11
77.6129989436638
 21
350.3197534637783
 31
0.0
  0
LINE
  5
4A4
330
18
100
AcDbEntity
  8
L-1
  6
CONTINUOUS
 62
     7
100
AcDbLine
 10
120.6129989436637
 20
323.319753463778
 30
0.0
 11
91.1987853812907
 21
293.905539901405
 31
0.0
  0
LINE
  5
4A6
330
18
100
AcDbEntity
  8
L-1
  6
CONTINUOUS
 62
     7
100
AcDbLine
 10
77.61299894366368
 20
293.319753463778
 30
0.0
 11
89.78457181891769
 21
293.319753463778
 31
0.0
  0
LINE
  5
4A7
330
18
100
AcDbEntity
  8
L-1
  6
CENTER2
 62
     1
 48
0.3
100
AcDbLine
 10
60.1129989436638
 20
286.3922716997511
 30
0.0
 11
60.1129989436638
 21
297.3808255407165
 31
0.0
  0
LINE
  5
4A8
330
18
100
AcDbEntity
  8
L-1
  6
CONTINUOUS
 62
     7
100
AcDbLine
 10
51.61299894366379
 20
293.3197534637782
 30
0.0
 11
75.6129989436638
 21
293.3197534637782
 31
0.0
  0
LINE
  5
4A9
330
18
100
AcDbEntity
  8
L-1
  6
CONTINUOUS
 62
     7
100
AcDbLine
 10
51.61299894366379
 20
291.3197534637782
 30
0.0
 11
75.6129989436638
 21
291.3197534637782
 31
0.0
  0
LINE
  5
4AA
330
18
100
AcDbEntity
  8
L-1
  6
CONTINUOUS
 62
     7
100
AcDbLine
 10
51.61299894366379
 20
291.3197534637782
 30
0.0
 11
51.61299894366379
 21
293.3197534637782
 31
0.0
  0
ARC
  5
4AB
330
18
100
AcDbEntity
  8
L-1
  6
CONTINUOUS
 62
     7
100
AcDbCircle
 10
75.6129989436638
 20
293.3197534637782
 30
0.0
 40
2.0
100
AcDbArc
 50
270.0
 51
0.0
  0
LINE
  5
4AC
330
18
100
AcDbEntity
  8
L-1
  6
PHANTOM2
 62
     3
 48
0.3
100
AcDbLine
 10
72.56575006078526
 20
315.6438781362146
 30
0.0
 11
73.41299894366341
 21
315.5697534637778
 31
0.0
  0
ARC
  5
4AD
330
18
100
AcDbEntity
  8
L-1
  6
PHANTOM2
 62
     3
 48
0.3
100
AcDbCircle
 10
72.65290580353291
 20
316.6400728343063
 30
0.0
 40
1.0
100
AcDbArc
 50
196.2570278966042
 51
265.0000000000003
  0
LINE
  5
4AE
330
18
100
AcDbEntity
  8
L-1
  6
PHANTOM2
 62
     3
 48
0.3
100
AcDbLine
 10
73.41299894366341
 20
315.5697534637778
 30
0.0
 11
74.11299894366345
 21
315.5697534637778
 31
0.0
  0
LINE
  5
4AF
330
18
100
AcDbEntity
  8
L-1
  6
PHANTOM2
 62
     3
 48
0.3
100
AcDbLine
 10
74.11299894366334
 20
314.8197534637779
 30
0.0
 11
74.61299894366334
 21
314.8197534637778
 31
0.0
  0
LINE
  5
4B0
330
18
100
AcDbEntity
  8
L-1
  6
PHANTOM2
 62
     3
 48
0.5
100
AcDbLine
 10
75.61299894366403
 20
310.3197534637779
 30
0.0
 11
74.61299894366402
 21
310.3197534637779
 31
0.0
  0
ARC
  5
4B1
330
18
100
AcDbEntity
  8
L-1
  6
CONTINUOUS
 62
     7
100
AcDbCircle
 10
89.78457181891769
 20
295.319753463778
 30
0.0
 40
2.0
100
AcDbArc
 50
269.9999999999996
 51
314.9999999999997
  0
LINE
  5
4B2
330
18
100
AcDbEntity
  8
L-1
  6
CONTINUOUS
 62
     7
100
AcDbLine
 10
78.61299894366379
 20
350.3197534637783
 30
0.0
 11
88.16299894366375
 21
350.3197534637783
 31
0.0
  0
LINE
  5
4B3
330
18
100
AcDbEntity
  8
L-1
  6
PHANTOM2
 62
     3
 48
0.3
100
AcDbLine
 10
72.56575006078526
 20
320.995628791341
 30
0.0
 11
73.41299894366341
 21
321.0697534637778
 31
0.0
  0
LINE
  5
4B4
330
18
100
AcDbEntity
  8
L-1
  6
PHANTOM2
 62
     3
 48
0.3
100
AcDbLine
 10
72.56575006078526
 20
320.995628791341
 30
0.0
 11
73.41299894366341
 21
321.0697534637778
 31
0.0
  0
ARC
  5
4B5
330
18
100
AcDbEntity
  8
L-1
  6
PHANTOM2
 62
     3
 48
0.3
100
AcDbCircle
 10
72.65290580353291
 20
319.9994340932492
 30
0.0
 40
1.0
100
AcDbArc
 50
94.99999999999975
 51
163.7429721033957
  0
LINE
  5
4B6
330
18
100
AcDbEntity
  8
L-1
  6
PHANTOM2
 62
     3
 48
0.3
100
AcDbLine
 10
73.41299894366341
 20
321.0697534637779
 30
0.0
 11
74.11299894366345
 21
321.0697534637778
 31
0.0
  0
LINE
  5
4B7
330
18
100
AcDbEntity
  8
L-1
  6
PHANTOM2
 62
     3
 48
0.3
100
AcDbLine
 10
74.11299894366345
 20
321.8197534637777
 30
0.0
 11
74.61299894366345
 21
321.8197534637778
 31
0.0
  0
LINE
  5
4B8
330
18
100
AcDbEntity
  8
L-1
  6
CONTINUOUS
 62
     7
100
AcDbLine
 10
75.6129989436638
 20
350.3197534637783
 30
0.0
 11
77.6129989436638
 21
350.3197534637783
 31
0.0
  0
ARC
  5
4B9
330
18
100
AcDbEntity
  8
L-1
  6
CONTINUOUS
 62
     7
100
AcDbCircle
 10
78.61299894366379
 20
349.3197534637782
 30
0.0
 40
1.0
100
AcDbArc
 50
90.0
 51
180.0
  0
LINE
  5
4BA
330
18
100
AcDbEntity
  8
L-1
  6
PHANTOM2
 62
     4
 48
0.5
100
AcDbLine
 10
75.61299894366403
 20
360.3197534637776
 30
0.0
 11
74.61299894366402
 21
360.3197534637775
 31
0.0
  0
LINE
  5
4BB
330
18
100
AcDbEntity
  8
L-1
  6
CONTINUOUS
 62
     7
100
AcDbLine
 10
88.16299894366386
 20
347.3197534637782
 30
0.0
 11
133.1129989436637
 21
347.3197534637782
 31
0.0
  0
LINE
  5
4BD
330
18
100
AcDbEntity
  8
L-1
  6
CONTINUOUS
 62
     7
100
AcDbLine
 10
88.16299894366375
 20
347.3197534637782
 30
0.0
 11
88.16299894366375
 21
350.3197534637783
 31
0.0
  0
LINE
  5
4C4
330
18
100
AcDbEntity
  8
L-1
  6
CONTINUOUS
 62
     7
100
AcDbLine
 10
133.1129989436637
 20
347.3197534637782
 30
0.0
 11
133.1129989436637
 21
350.319753463778
 31
0.0
  0
LINE
  5
4C6
330
18
100
AcDbEntity
  8
L-1
  6
PHANTOM2
 62
     3
 48
0.3
100
AcDbLine
 10
119.0129989436639
 20
391.5197534637773
 30
0.0
 11
106.2129989436639
 21
391.5197534637773
 31
0.0
  0
LINE
  5
4C7
330
18
100
AcDbEntity
  8
L-1
  6
PHANTOM2
 62
     3
 48
0.3
100
AcDbLine
 10
119.0129989436639
 20
397.1197534637773
 30
0.0
 11
106.2129989436639
 21
397.1197534637773
 31
0.0
  0
LINE
  5
4C8
330
18
100
AcDbEntity
  8
L-1
  6
PHANTOM2
 62
     3
 48
0.3
100
AcDbLine
 10
105.2129989436639
 20
396.1197534637773
 30
0.0
 11
105.2129989436639
 21
392.5197534637772
 31
0.0
  0
ARC
  5
4C9
330
18
100
AcDbEntity
  8
L-1
  6
PHANTOM2
 62
     3
 48
0.3
100
AcDbCircle
 10
106.2129989436639
 20
392.5197534637772
 30
0.0
 40
1.0
100
AcDbArc
 50
180.0
 51
270.0
  0
ARC
  5
4CA
330
18
100
AcDbEntity
  8
L-1
  6
PHANTOM2
 62
     3
 48
0.3
100
AcDbCircle
 10
106.2129989436639
 20
396.1197534637773
 30
0.0
 40
1.0
100
AcDbArc
 50
89.99999999999959
 51
180.0
  0
ARC
  5
4CB
330
18
100
AcDbEntity
  8
L-1
  6
PHANTOM2
 62
     3
 48
0.5
100
AcDbCircle
 10
130.112998943664
 20
384.3197534637774
 30
0.0
 40
2.5
100
AcDbArc
 50
180.0
 51
0.0
  0
LINE
  5
4CC
330
18
100
AcDbEntity
  8
L-1
  6
PHANTOM2
 62
     3
 48
0.3
100
AcDbLine
 10
120.0129989436639
 20
396.1197534637773
 30
0.0
 11
120.0129989436639
 21
392.5197534637772
 31
0.0
  0
ARC
  5
4CD
330
18
100
AcDbEntity
  8
L-1
  6
PHANTOM2
 62
     3
 48
0.3
100
AcDbCircle
 10
119.0129989436639
 20
392.5197534637772
 30
0.0
 40
1.0
100
AcDbArc
 50
270.0
 51
0.0
  0
ARC
  5
4CE
330
18
100
AcDbEntity
  8
L-1
  6
PHANTOM2
 62
     3
 48
0.3
100
AcDbCircle
 10
119.0129989436639
 20
396.1197534637773
 30
0.0
 40
1.0
100
AcDbArc
 50
0.0
 51
90.0
  0
LINE
  5
4CF
330
18
100
AcDbEntity
  8
L-1
  6
PHANTOM2
 62
     3
 48
0.5
100
AcDbLine
 10
137.612998943664
 20
384.3197534637774
 30
0.0
 11
137.612998943664
 21
404.3197534637774
 31
0.0
  0
LINE
  5
4D0
330
18
100
AcDbEntity
  8
L-1
  6
PHANTOM2
 62
     3
 48
0.5
100
AcDbLine
 10
132.612998943664
 20
384.3197534637774
 30
0.0
 11
132.612998943664
 21
404.3197534637774
 31
0.0
  0
LINE
  5
4D1
330
18
100
AcDbEntity
  8
L-1
  6
PHANTOM2
 62
     3
 48
0.5
100
AcDbLine
 10
127.612998943664
 20
384.3197534637774
 30
0.0
 11
127.612998943664
 21
404.3197534637774
 31
0.0
  0
LINE
  5
4D2
330
18
100
AcDbEntity
  8
L-1
  6
PHANTOM2
 62
     3
 48
0.5
100
AcDbLine
 10
74.61299894366402
 20
423.3197534637773
 30
0.0
 11
78.61299894366402
 21
423.3197534637773
 31
0.0
  0
LINE
  5
4D3
330
18
100
AcDbEntity
  8
L-1
  6
PHANTOM2
 62
     3
 48
0.5
100
AcDbLine
 10
78.61299894366402
 20
426.3197534637773
 30
0.0
 11
78.61299894366402
 21
423.3197534637773
 31
0.0
  0
ARC
  5
4D4
330
18
100
AcDbEntity
  8
L-1
  6
PHANTOM2
 62
     3
 48
0.5
100
AcDbCircle
 10
125.112998943664
 20
414.3197534637774
 30
0.0
 40
2.5
100
AcDbArc
 50
90.0
 51
270.0
  0
ARC
  5
4D5
330
18
100
AcDbEntity
  8
L-1
  6
PHANTOM2
 62
     3
 48
0.5
100
AcDbCircle
 10
365.112998943664
 20
404.3197534637775
 30
0.0
 40
2.5
100
AcDbArc
 50
0.0
 51
180.0
  0
ARC
  5
4D6
330
18
100
AcDbEntity
  8
L-1
  6
PHANTOM2
 62
     3
 48
0.5
100
AcDbCircle
 10
355.112998943664
 20
404.3197534637775
 30
0.0
 40
2.5
100
AcDbArc
 50
0.0
 51
180.0
  0
ARC
  5
4D7
330
18
100
AcDbEntity
  8
L-1
  6
PHANTOM2
 62
     3
 48
0.5
100
AcDbCircle
 10
320.112998943664
 20
404.3197534637775
 30
0.0
 40
2.5
100
AcDbArc
 50
0.0
 51
180.0
  0
ARC
  5
4D8
330
18
100
AcDbEntity
  8
L-1
  6
PHANTOM2
 62
     3
 48
0.5
100
AcDbCircle
 10
310.112998943664
 20
404.3197534637775
 30
0.0
 40
2.5
100
AcDbArc
 50
0.0
 51
180.0
  0
ARC
  5
4D9
330
18
100
AcDbEntity
  8
L-1
  6
PHANTOM2
 62
     3
 48
0.5
100
AcDbCircle
 10
265.112998943664
 20
404.3197534637775
 30
0.0
 40
2.5
100
AcDbArc
 50
0.0
 51
180.0
  0
ARC
  5
4DA
330
18
100
AcDbEntity
  8
L-1
  6
PHANTOM2
 62
     3
 48
0.5
100
AcDbCircle
 10
230.112998943664
 20
404.3197534637775
 30
0.0
 40
2.5
100
AcDbArc
 50
0.0
 51
180.0
  0
ARC
  5
4DB
330
18
100
AcDbEntity
  8
L-1
  6
PHANTOM2
 62
     3
 48
0.5
100
AcDbCircle
 10
185.112998943664
 20
404.3197534637775
 30
0.0
 40
2.5
100
AcDbArc
 50
0.0
 51
180.0
  0
ARC
  5
4DC
330
18
100
AcDbEntity
  8
L-1
  6
PHANTOM2
 62
     3
 48
0.5
100
AcDbCircle
 10
175.112998943664
 20
404.3197534637775
 30
0.0
 40
2.5
100
AcDbArc
 50
0.0
 51
180.0
  0
ARC
  5
4DD
330
18
100
AcDbEntity
  8
L-1
  6
PHANTOM2
 62
     3
 48
0.5
100
AcDbCircle
 10
220.112998943664
 20
404.3197534637775
 30
0.0
 40
2.5
100
AcDbArc
 50
0.0
 51
180.0
  0
ARC
  5
4DE
330
18
100
AcDbEntity
  8
L-1
  6
PHANTOM2
 62
     3
 48
0.5
100
AcDbCircle
 10
275.112998943664
 20
404.3197534637775
 30
0.0
 40
2.5
100
AcDbArc
 50
0.0
 51
180.0
  0
LINE
  5
4DF
330
18
100
AcDbEntity
  8
L-1
  6
CONTINUOUS
 62
     7
100
AcDbLine
 10
262.6129989436638
 20
323.319753463778
 30
0.0
 11
231.1987853812906
 21
291.9055399014049
 31
0.0
  0
LINE
  5
4E0
330
18
100
AcDbEntity
  8
L-1
  6
CONTINUOUS
 62
     7
100
AcDbLine
 10
230.1629989436639
 20
347.319753463778
 30
0.0
 11
275.1129989436638
 21
347.319753463778
 31
0.0
  0
LINE
  5
4E1
330
18
100
AcDbEntity
  8
L-1
  6
CONTINUOUS
 62
     7
100
AcDbLine
 10
180.6129989436638
 20
323.319753463778
 30
0.0
 11
212.0272125060366
 21
291.9055399014048
 31
0.0
  0
ARC
  5
4E2
330
18
100
AcDbEntity
  8
L-1
  6
CONTINUOUS
 62
     7
100
AcDbCircle
 10
229.7845718189175
 20
293.319753463778
 30
0.0
 40
2.0
100
AcDbArc
 50
270.0000000000004
 51
314.9999999999997
  0
LINE
  5
4E3
330
18
100
AcDbEntity
  8
L-1
  6
CONTINUOUS
 62
     7
100
AcDbLine
 10
226.6129989436636
 20
297.919753463778
 30
0.0
 11
226.6129989436635
 21
296.619753463778
 31
0.0
  0
LINE
  5
4E4
330
18
100
AcDbEntity
  8
L-1
  6
CONTINUOUS
 62
     7
100
AcDbLine
 10
216.6129989436635
 20
297.919753463778
 30
0.0
 11
216.6129989436636
 21
296.619753463778
 31
0.0
  0
LINE
  5
4E6
330
18
100
AcDbEntity
  8
L-1
  6
CONTINUOUS
 62
     7
100
AcDbLine
 10
213.4414260684099
 20
291.3197534637779
 30
0.0
 11
229.7845718189175
 21
291.319753463778
 31
0.0
  0
ARC
  5
4E7
330
18
100
AcDbEntity
  8
L-1
  6
CONTINUOUS
 62
     7
100
AcDbCircle
 10
213.4414260684097
 20
293.3197534637779
 30
0.0
 40
2.0
100
AcDbArc
 50
225.0000000000003
 51
270.0000000000004
  0
LINE
  5
4E8
330
18
100
AcDbEntity
  8
L-1
  6
CONTINUOUS
 62
     7
100
AcDbLine
 10
216.6129989436636
 20
296.619753463778
 30
0.0
 11
226.6129989436635
 21
296.619753463778
 31
0.0
  0
LINE
  5
4E9
330
18
100
AcDbEntity
  8
L-1
  6
CONTINUOUS
 62
     7
100
AcDbLine
 10
216.6129989436636
 20
293.319753463778
 30
0.0
 11
226.6129989436636
 21
293.319753463778
 31
0.0
  0
LINE
  5
4EA
330
18
100
AcDbEntity
  8
L-1
  6
CONTINUOUS
 62
     7
100
AcDbLine
 10
216.6129989436636
 20
294.619753463778
 30
0.0
 11
226.6129989436636
 21
294.6197534637782
 31
0.0
  0
LINE
  5
4EB
330
18
100
AcDbEntity
  8
L-1
  6
CONTINUOUS
 62
     4
100
AcDbLine
 10
217.2828719247417
 20
295.119753463778
 30
0.0
 11
217.2828719247417
 21
296.119753463778
 31
0.0
  0
LINE
  5
4EC
330
18
100
AcDbEntity
  8
L-1
  6
CONTINUOUS
 62
     4
100
AcDbLine
 10
217.2828719247417
 20
291.819753463778
 30
0.0
 11
217.2828719247417
 21
292.819753463778
 31
0.0
  0
LINE
  5
4ED
330
18
100
AcDbEntity
  8
L-1
  6
CONTINUOUS
 62
     7
100
AcDbLine
 10
216.6129989436636
 20
294.619753463778
 30
0.0
 11
216.6129989436636
 21
293.319753463778
 31
0.0
  0
LINE
  5
4EE
330
18
100
AcDbEntity
  8
L-1
  6
CONTINUOUS
 62
     4
100
AcDbLine
 10
225.9431259625859
 20
295.1197534637781
 30
0.0
 11
225.9431259625859
 21
296.119753463778
 31
0.0
  0
LINE
  5
4EF
330
18
100
AcDbEntity
  8
L-1
  6
CONTINUOUS
 62
     4
100
AcDbLine
 10
225.9431259625859
 20
291.8197534637781
 30
0.0
 11
225.9431259625859
 21
292.819753463778
 31
0.0
  0
LINE
  5
4F0
330
18
100
AcDbEntity
  8
L-1
  6
CONTINUOUS
 62
     7
100
AcDbLine
 10
226.6129989436636
 20
294.619753463778
 30
0.0
 11
226.6129989436636
 21
293.319753463778
 31
0.0
  0
LINE
  5
4F1
330
18
100
AcDbEntity
  8
L-1
  6
CONTINUOUS
 62
     7
100
AcDbLine
 10
216.6129989436635
 20
297.919753463778
 30
0.0
 11
226.6129989436636
 21
297.9197534637782
 31
0.0
  0
LINE
  5
4F2
330
18
100
AcDbEntity
  8
L-1
  6
PHANTOM2
 62
     3
 48
0.3
100
AcDbLine
 10
209.0129989436639
 20
391.5197534637774
 30
0.0
 11
196.2129989436639
 21
391.5197534637774
 31
0.0
  0
LINE
  5
4F3
330
18
100
AcDbEntity
  8
L-1
  6
PHANTOM2
 62
     3
 48
0.3
100
AcDbLine
 10
209.0129989436639
 20
397.1197534637774
 30
0.0
 11
196.2129989436639
 21
397.1197534637774
 31
0.0
  0
LINE
  5
4F4
330
18
100
AcDbEntity
  8
L-1
  6
CONTINUOUS
 62
     7
100
AcDbLine
 10
213.0629989436636
 20
347.3197534637782
 30
0.0
 11
168.1129989436638
 21
347.3197534637782
 31
0.0
  0
LINE
  5
4FA
330
18
100
AcDbEntity
  8
L-1
  6
CONTINUOUS
 62
     7
100
AcDbLine
 10
168.1129989436638
 20
347.3197534637782
 30
0.0
 11
168.1129989436638
 21
350.319753463778
 31
0.0
  0
CIRCLE
  5
4FC
330
18
100
AcDbEntity
  8
L-1
  6
PHANTOM2
 62
     3
 48
0.5
100
AcDbCircle
 10
157.612998943664
 20
394.3197534637775
 30
0.0
 40
2.299999999999999
  0
LINE
  5
4FD
330
18
100
AcDbEntity
  8
L-1
  6
PHANTOM2
 62
     3
 48
0.5
100
AcDbLine
 10
142.612998943664
 20
384.3197534637774
 30
0.0
 11
142.612998943664
 21
404.3197534637774
 31
0.0
  0
ARC
  5
4FE
330
18
100
AcDbEntity
  8
L-1
  6
PHANTOM2
 62
     3
 48
0.5
100
AcDbCircle
 10
185.112998943664
 20
384.3197534637774
 30
0.0
 40
2.5
100
AcDbArc
 50
180.0
 51
0.0
  0
ARC
  5
4FF
330
18
100
AcDbEntity
  8
L-1
  6
PHANTOM2
 62
     3
 48
0.5
100
AcDbCircle
 10
175.112998943664
 20
384.3197534637774
 30
0.0
 40
2.5
100
AcDbArc
 50
180.0
 51
0.0
  0
LINE
  5
500
330
18
100
AcDbEntity
  8
L-1
  6
PHANTOM2
 62
     3
 48
0.5
100
AcDbLine
 10
177.612998943664
 20
384.3197534637774
 30
0.0
 11
177.612998943664
 21
404.3197534637774
 31
0.0
  0
LINE
  5
501
330
18
100
AcDbEntity
  8
L-1
  6
PHANTOM2
 62
     3
 48
0.5
100
AcDbLine
 10
172.612998943664
 20
384.3197534637774
 30
0.0
 11
172.612998943664
 21
404.3197534637774
 31
0.0
  0
LINE
  5
502
330
18
100
AcDbEntity
  8
L-1
  6
PHANTOM2
 62
     3
 48
0.5
100
AcDbLine
 10
182.612998943664
 20
384.3197534637774
 30
0.0
 11
182.612998943664
 21
404.3197534637774
 31
0.0
  0
LINE
  5
503
330
18
100
AcDbEntity
  8
L-1
  6
PHANTOM2
 62
     3
 48
0.3
100
AcDbLine
 10
195.2129989436639
 20
396.1197534637774
 30
0.0
 11
195.2129989436639
 21
392.5197534637774
 31
0.0
  0
LINE
  5
504
330
18
100
AcDbEntity
  8
L-1
  6
PHANTOM2
 62
     3
 48
0.5
100
AcDbLine
 10
187.612998943664
 20
384.3197534637774
 30
0.0
 11
187.612998943664
 21
404.3197534637774
 31
0.0
  0
ARC
  5
505
330
18
100
AcDbEntity
  8
L-1
  6
PHANTOM2
 62
     3
 48
0.3
100
AcDbCircle
 10
196.2129989436639
 20
392.5197534637774
 30
0.0
 40
1.0
100
AcDbArc
 50
180.0
 51
270.0
  0
ARC
  5
506
330
18
100
AcDbEntity
  8
L-1
  6
PHANTOM2
 62
     3
 48
0.3
100
AcDbCircle
 10
196.2129989436639
 20
396.1197534637774
 30
0.0
 40
1.0
100
AcDbArc
 50
89.99999999999959
 51
180.0
  0
LINE
  5
508
330
18
100
AcDbEntity
  8
L-1
  6
CONTINUOUS
 62
     7
100
AcDbLine
 10
213.0629989436638
 20
350.319753463778
 30
0.0
 11
230.1629989436637
 21
350.319753463778
 31
0.0
  0
LINE
  5
50B
330
18
100
AcDbEntity
  8
L-1
  6
CONTINUOUS
 62
     7
100
AcDbLine
 10
213.0629989436638
 20
347.3197534637782
 30
0.0
 11
213.0629989436638
 21
350.319753463778
 31
0.0
  0
LINE
  5
50D
330
18
100
AcDbEntity
  8
L-1
  6
CONTINUOUS
 62
     7
100
AcDbLine
 10
230.1629989436637
 20
347.319753463778
 30
0.0
 11
230.1629989436637
 21
350.319753463778
 31
0.0
  0
ARC
  5
50E
330
18
100
AcDbEntity
  8
L-1
  6
PHANTOM2
 62
     3
 48
0.5
100
AcDbCircle
 10
230.112998943664
 20
384.3197534637774
 30
0.0
 40
2.5
100
AcDbArc
 50
180.0
 51
0.0
  0
ARC
  5
50F
330
18
100
AcDbEntity
  8
L-1
  6
PHANTOM2
 62
     3
 48
0.5
100
AcDbCircle
 10
220.112998943664
 20
384.3197534637774
 30
0.0
 40
2.5
100
AcDbArc
 50
180.0
 51
0.0
  0
LINE
  5
510
330
18
100
AcDbEntity
  8
L-1
  6
PHANTOM2
 62
     3
 48
0.3
100
AcDbLine
 10
210.012998943664
 20
396.1197534637774
 30
0.0
 11
210.012998943664
 21
392.5197534637774
 31
0.0
  0
ARC
  5
511
330
18
100
AcDbEntity
  8
L-1
  6
PHANTOM2
 62
     3
 48
0.3
100
AcDbCircle
 10
209.0129989436639
 20
392.5197534637774
 30
0.0
 40
1.0
100
AcDbArc
 50
270.0
 51
0.0
  0
ARC
  5
512
330
18
100
AcDbEntity
  8
L-1
  6
PHANTOM2
 62
     3
 48
0.3
100
AcDbCircle
 10
209.0129989436639
 20
396.1197534637774
 30
0.0
 40
1.0
100
AcDbArc
 50
0.0
 51
90.0
  0
LINE
  5
513
330
18
100
AcDbEntity
  8
L-1
  6
PHANTOM2
 62
     3
 48
0.5
100
AcDbLine
 10
227.612998943664
 20
384.3197534637774
 30
0.0
 11
227.612998943664
 21
404.3197534637774
 31
0.0
  0
LINE
  5
514
330
18
100
AcDbEntity
  8
L-1
  6
PHANTOM2
 62
     3
 48
0.5
100
AcDbLine
 10
222.612998943664
 20
384.3197534637774
 30
0.0
 11
222.612998943664
 21
404.3197534637774
 31
0.0
  0
LINE
  5
515
330
18
100
AcDbEntity
  8
L-1
  6
PHANTOM2
 62
     3
 48
0.5
100
AcDbLine
 10
217.612998943664
 20
384.3197534637774
 30
0.0
 11
217.612998943664
 21
404.3197534637774
 31
0.0
  0
LINE
  5
516
330
18
100
AcDbEntity
  8
L-1
  6
PHANTOM2
 62
     3
 48
0.3
100
AcDbLine
 10
254.012998943664
 20
391.5197534637774
 30
0.0
 11
241.2129989436639
 21
391.5197534637774
 31
0.0
  0
LINE
  5
517
330
18
100
AcDbEntity
  8
L-1
  6
PHANTOM2
 62
     3
 48
0.3
100
AcDbLine
 10
254.012998943664
 20
397.1197534637774
 30
0.0
 11
241.2129989436639
 21
397.1197534637774
 31
0.0
  0
LINE
  5
518
330
18
100
AcDbEntity
  8
L-1
  6
PHANTOM2
 62
     3
 48
0.3
100
AcDbLine
 10
240.2129989436639
 20
396.1197534637774
 30
0.0
 11
240.2129989436639
 21
392.5197534637774
 31
0.0
  0
LINE
  5
519
330
18
100
AcDbEntity
  8
L-1
  6
PHANTOM2
 62
     3
 48
0.5
100
AcDbLine
 10
232.612998943664
 20
384.3197534637774
 30
0.0
 11
232.612998943664
 21
404.3197534637774
 31
0.0
  0
ARC
  5
51A
330
18
100
AcDbEntity
  8
L-1
  6
PHANTOM2
 62
     3
 48
0.3
100
AcDbCircle
 10
241.2129989436639
 20
392.5197534637774
 30
0.0
 40
1.0
100
AcDbArc
 50
180.0
 51
270.0
  0
ARC
  5
51B
330
18
100
AcDbEntity
  8
L-1
  6
PHANTOM2
 62
     3
 48
0.3
100
AcDbCircle
 10
241.2129989436639
 20
396.1197534637774
 30
0.0
 40
1.0
100
AcDbArc
 50
89.99999999999959
 51
180.0
  0
LINE
  5
51C
330
18
100
AcDbEntity
  8
L-1
  6
PHANTOM2
 62
     3
 48
0.3
100
AcDbLine
 10
255.012998943664
 20
396.1197534637774
 30
0.0
 11
255.012998943664
 21
392.5197534637774
 31
0.0
  0
ARC
  5
51D
330
18
100
AcDbEntity
  8
L-1
  6
PHANTOM2
 62
     3
 48
0.3
100
AcDbCircle
 10
254.012998943664
 20
392.5197534637774
 30
0.0
 40
1.0
100
AcDbArc
 50
270.0
 51
0.0
  0
ARC
  5
51E
330
18
100
AcDbEntity
  8
L-1
  6
PHANTOM2
 62
     3
 48
0.3
100
AcDbCircle
 10
254.012998943664
 20
396.1197534637774
 30
0.0
 40
1.0
100
AcDbArc
 50
0.0
 51
90.0
  0
LINE
  5
51F
330
18
100
AcDbEntity
  8
L-1
  6
CONTINUOUS
 62
     7
100
AcDbLine
 10
322.6129989436638
 20
323.319753463778
 30
0.0
 11
354.0272125060369
 21
291.9055399014049
 31
0.0
  0
LINE
  5
520
330
18
100
AcDbEntity
  8
L-1
  6
CONTINUOUS
 62
     7
100
AcDbLine
 10
368.6129989436638
 20
297.919753463778
 30
0.0
 11
368.6129989436638
 21
296.619753463778
 31
0.0
  0
LINE
  5
521
330
18
100
AcDbEntity
  8
L-1
  6
CONTINUOUS
 62
     7
100
AcDbLine
 10
358.6129989436638
 20
297.919753463778
 30
0.0
 11
358.6129989436638
 21
296.619753463778
 31
0.0
  0
LINE
  5
523
330
18
100
AcDbEntity
  8
L-1
  6
CONTINUOUS
 62
     7
100
AcDbLine
 10
358.6129989436638
 20
296.619753463778
 30
0.0
 11
368.6129989436638
 21
296.619753463778
 31
0.0
  0
LINE
  5
524
330
18
100
AcDbEntity
  8
L-1
  6
CONTINUOUS
 62
     7
100
AcDbLine
 10
371.7845718189177
 20
291.3197534637778
 30
0.0
 11
355.44142606841
 21
291.319753463778
 31
0.0
  0
LINE
  5
525
330
18
100
AcDbEntity
  8
L-1
  6
CONTINUOUS
 62
     7
100
AcDbLine
 10
368.6129989436638
 20
293.319753463778
 30
0.0
 11
358.612998943664
 21
293.319753463778
 31
0.0
  0
LINE
  5
526
330
18
100
AcDbEntity
  8
L-1
  6
CONTINUOUS
 62
     7
100
AcDbLine
 10
368.612998943664
 20
294.619753463778
 30
0.0
 11
358.6129989436638
 21
294.6197534637782
 31
0.0
  0
ARC
  5
527
330
18
100
AcDbEntity
  8
L-1
  6
CONTINUOUS
 62
     7
100
AcDbCircle
 10
355.44142606841
 20
293.319753463778
 30
0.0
 40
2.0
100
AcDbArc
 50
225.0000000000003
 51
269.9999999999996
  0
LINE
  5
528
330
18
100
AcDbEntity
  8
L-1
  6
CONTINUOUS
 62
     7
100
AcDbLine
 10
358.6129989436638
 20
294.619753463778
 30
0.0
 11
358.612998943664
 21
293.319753463778
 31
0.0
  0
LINE
  5
529
330
18
100
AcDbEntity
  8
L-1
  6
CONTINUOUS
 62
     4
100
AcDbLine
 10
359.2828719247417
 20
291.8197534637779
 30
0.0
 11
359.2828719247417
 21
292.8197534637779
 31
0.0
  0
LINE
  5
52A
330
18
100
AcDbEntity
  8
L-1
  6
CONTINUOUS
 62
     4
100
AcDbLine
 10
359.2828719247417
 20
295.1197534637779
 30
0.0
 11
359.2828719247417
 21
296.1197534637779
 31
0.0
  0
LINE
  5
52B
330
18
100
AcDbEntity
  8
L-1
  6
CONTINUOUS
 62
     4
100
AcDbLine
 10
367.943125962586
 20
291.8197534637781
 30
0.0
 11
367.943125962586
 21
292.819753463778
 31
0.0
  0
LINE
  5
52C
330
18
100
AcDbEntity
  8
L-1
  6
CONTINUOUS
 62
     4
100
AcDbLine
 10
367.943125962586
 20
295.1197534637781
 30
0.0
 11
367.943125962586
 21
296.119753463778
 31
0.0
  0
ARC
  5
52D
330
18
100
AcDbEntity
  8
L-1
  6
CONTINUOUS
 62
     7
100
AcDbCircle
 10
371.7845718189177
 20
293.3197534637778
 30
0.0
 40
2.0
100
AcDbArc
 50
269.9999999999996
 51
314.9999999999997
  0
LINE
  5
52E
330
18
100
AcDbEntity
  8
L-1
  6
CONTINUOUS
 62
     7
100
AcDbLine
 10
368.612998943664
 20
294.619753463778
 30
0.0
 11
368.6129989436638
 21
293.319753463778
 31
0.0
  0
LINE
  5
52F
330
18
100
AcDbEntity
  8
L-1
  6
CONTINUOUS
 62
     7
100
AcDbLine
 10
358.6129989436638
 20
297.919753463778
 30
0.0
 11
368.6129989436638
 21
297.9197534637782
 31
0.0
  0
LINE
  5
530
330
18
100
AcDbEntity
  8
L-1
  6
CONTINUOUS
 62
     7
100
AcDbLine
 10
355.0629989436638
 20
347.319753463778
 30
0.0
 11
310.1129989436638
 21
347.319753463778
 31
0.0
  0
ARC
  5
531
330
18
100
AcDbEntity
  8
L-1
  6
PHANTOM2
 62
     3
 48
0.5
100
AcDbCircle
 10
320.112998943664
 20
384.3197534637774
 30
0.0
 40
2.5
100
AcDbArc
 50
180.0
 51
0.0
  0
LINE
  5
532
330
18
100
AcDbEntity
  8
L-1
  6
CONTINUOUS
 62
     7
100
AcDbLine
 10
262.6129989436638
 20
323.319753463778
 30
0.0
 11
322.612998943664
 21
323.319753463778
 31
0.0
  0
LINE
  5
533
330
18
100
AcDbEntity
  8
L-1
  6
CONTINUOUS
 62
     7
100
AcDbLine
 10
275.1129989436638
 20
350.3197534637783
 30
0.0
 11
310.1129989436638
 21
350.3197534637783
 31
0.0
  0
LINE
  5
539
330
18
100
AcDbEntity
  8
L-1
  6
CONTINUOUS
 62
     7
100
AcDbLine
 10
275.1129989436638
 20
347.319753463778
 30
0.0
 11
275.1129989436638
 21
350.319753463778
 31
0.0
  0
LINE
  5
541
330
18
100
AcDbEntity
  8
L-1
  6
CONTINUOUS
 62
     7
100
AcDbLine
 10
310.1129989436638
 20
347.319753463778
 30
0.0
 11
310.1129989436638
 21
350.319753463778
 31
0.0
  0
CIRCLE
  5
542
330
18
100
AcDbEntity
  8
L-1
  6
PHANTOM2
 62
     3
 48
0.5
100
AcDbCircle
 10
292.612998943664
 20
394.3197534637775
 30
0.0
 40
2.299999999999999
  0
ARC
  5
543
330
18
100
AcDbEntity
  8
L-1
  6
PHANTOM2
 62
     3
 48
0.5
100
AcDbCircle
 10
265.112998943664
 20
384.3197534637774
 30
0.0
 40
2.5
100
AcDbArc
 50
180.0
 51
0.0
  0
ARC
  5
544
330
18
100
AcDbEntity
  8
L-1
  6
PHANTOM2
 62
     3
 48
0.5
100
AcDbCircle
 10
275.112998943664
 20
384.3197534637774
 30
0.0
 40
2.5
100
AcDbArc
 50
180.0
 51
0.0
  0
LINE
  5
545
330
18
100
AcDbEntity
  8
L-1
  6
PHANTOM2
 62
     3
 48
0.5
100
AcDbLine
 10
272.612998943664
 20
384.3197534637774
 30
0.0
 11
272.612998943664
 21
404.3197534637774
 31
0.0
  0
LINE
  5
546
330
18
100
AcDbEntity
  8
L-1
  6
PHANTOM2
 62
     3
 48
0.5
100
AcDbLine
 10
267.612998943664
 20
384.3197534637774
 30
0.0
 11
267.612998943664
 21
404.3197534637774
 31
0.0
  0
LINE
  5
547
330
18
100
AcDbEntity
  8
L-1
  6
PHANTOM2
 62
     3
 48
0.5
100
AcDbLine
 10
262.612998943664
 20
384.3197534637774
 30
0.0
 11
262.612998943664
 21
404.3197534637774
 31
0.0
  0
LINE
  5
548
330
18
100
AcDbEntity
  8
L-1
  6
PHANTOM2
 62
     3
 48
0.5
100
AcDbLine
 10
277.612998943664
 20
384.3197534637774
 30
0.0
 11
277.612998943664
 21
404.3197534637774
 31
0.0
  0
ARC
  5
549
330
18
100
AcDbEntity
  8
L-1
  6
PHANTOM2
 62
     3
 48
0.5
100
AcDbCircle
 10
310.112998943664
 20
384.3197534637774
 30
0.0
 40
2.5
100
AcDbArc
 50
180.0
 51
0.0
  0
LINE
  5
54A
330
18
100
AcDbEntity
  8
L-1
  6
PHANTOM2
 62
     3
 48
0.5
100
AcDbLine
 10
307.612998943664
 20
384.3197534637774
 30
0.0
 11
307.612998943664
 21
404.3197534637774
 31
0.0
  0
LINE
  5
54B
330
18
100
AcDbEntity
  8
L-1
  6
PHANTOM2
 62
     3
 48
0.5
100
AcDbLine
 10
317.612998943664
 20
384.3197534637774
 30
0.0
 11
317.612998943664
 21
404.3197534637774
 31
0.0
  0
LINE
  5
54C
330
18
100
AcDbEntity
  8
L-1
  6
PHANTOM2
 62
     3
 48
0.5
100
AcDbLine
 10
312.612998943664
 20
384.3197534637774
 30
0.0
 11
312.612998943664
 21
404.3197534637774
 31
0.0
  0
LINE
  5
54D
330
18
100
AcDbEntity
  8
L-1
  6
CONTINUOUS
 62
     7
100
AcDbLine
 10
355.0629989436638
 20
350.319753463778
 30
0.0
 11
372.1629989436637
 21
350.319753463778
 31
0.0
  0
LINE
  5
54E
330
18
100
AcDbEntity
  8
L-1
  6
CONTINUOUS
 62
     7
100
AcDbLine
 10
355.0629989436638
 20
347.319753463778
 30
0.0
 11
355.0629989436638
 21
350.319753463778
 31
0.0
  0
LINE
  5
551
330
18
100
AcDbEntity
  8
L-1
  6
CONTINUOUS
 62
     7
100
AcDbLine
 10
372.1629989436637
 20
347.319753463778
 30
0.0
 11
372.1629989436637
 21
350.319753463778
 31
0.0
  0
LINE
  5
554
330
18
100
AcDbEntity
  8
L-1
  6
PHANTOM2
 62
     3
 48
0.3
100
AcDbLine
 10
344.0129989436639
 20
391.5197534637774
 30
0.0
 11
331.2129989436639
 21
391.5197534637774
 31
0.0
  0
LINE
  5
555
330
18
100
AcDbEntity
  8
L-1
  6
PHANTOM2
 62
     3
 48
0.3
100
AcDbLine
 10
344.0129989436639
 20
397.1197534637774
 30
0.0
 11
331.2129989436639
 21
397.1197534637774
 31
0.0
  0
LINE
  5
556
330
18
100
AcDbEntity
  8
L-1
  6
PHANTOM2
 62
     3
 48
0.3
100
AcDbLine
 10
330.2129989436639
 20
396.1197534637774
 30
0.0
 11
330.2129989436639
 21
392.5197534637774
 31
0.0
  0
LINE
  5
557
330
18
100
AcDbEntity
  8
L-1
  6
PHANTOM2
 62
     3
 48
0.5
100
AcDbLine
 10
322.612998943664
 20
384.3197534637774
 30
0.0
 11
322.612998943664
 21
404.3197534637774
 31
0.0
  0
ARC
  5
558
330
18
100
AcDbEntity
  8
L-1
  6
PHANTOM2
 62
     3
 48
0.3
100
AcDbCircle
 10
331.2129989436639
 20
392.5197534637774
 30
0.0
 40
1.0
100
AcDbArc
 50
180.0
 51
270.0
  0
ARC
  5
559
330
18
100
AcDbEntity
  8
L-1
  6
PHANTOM2
 62
     3
 48
0.3
100
AcDbCircle
 10
331.2129989436639
 20
396.1197534637774
 30
0.0
 40
1.0
100
AcDbArc
 50
89.99999999999959
 51
180.0
  0
LINE
  5
55A
330
18
100
AcDbEntity
  8
L-1
  6
PHANTOM2
 62
     3
 48
0.3
100
AcDbLine
 10
345.012998943664
 20
396.1197534637774
 30
0.0
 11
345.012998943664
 21
392.5197534637774
 31
0.0
  0
ARC
  5
55B
330
18
100
AcDbEntity
  8
L-1
  6
PHANTOM2
 62
     3
 48
0.3
100
AcDbCircle
 10
344.0129989436639
 20
392.5197534637774
 30
0.0
 40
1.0
100
AcDbArc
 50
270.0
 51
0.0
  0
ARC
  5
55C
330
18
100
AcDbEntity
  8
L-1
  6
PHANTOM2
 62
     3
 48
0.3
100
AcDbCircle
 10
344.0129989436639
 20
396.1197534637774
 30
0.0
 40
1.0
100
AcDbArc
 50
0.0
 51
90.0
  0
ARC
  5
55D
330
18
100
AcDbEntity
  8
L-1
  6
PHANTOM2
 62
     3
 48
0.5
100
AcDbCircle
 10
365.112998943664
 20
384.3197534637774
 30
0.0
 40
2.5
100
AcDbArc
 50
180.0
 51
0.0
  0
ARC
  5
55E
330
18
100
AcDbEntity
  8
L-1
  6
PHANTOM2
 62
     3
 48
0.5
100
AcDbCircle
 10
355.112998943664
 20
384.3197534637774
 30
0.0
 40
2.5
100
AcDbArc
 50
180.0
 51
0.0
  0
LINE
  5
55F
330
18
100
AcDbEntity
  8
L-1
  6
PHANTOM2
 62
     3
 48
0.5
100
AcDbLine
 10
362.612998943664
 20
384.3197534637774
 30
0.0
 11
362.612998943664
 21
404.3197534637774
 31
0.0
  0
LINE
  5
560
330
18
100
AcDbEntity
  8
L-1
  6
PHANTOM2
 62
     3
 48
0.5
100
AcDbLine
 10
357.612998943664
 20
384.3197534637774
 30
0.0
 11
357.612998943664
 21
404.3197534637774
 31
0.0
  0
LINE
  5
561
330
18
100
AcDbEntity
  8
L-1
  6
PHANTOM2
 62
     3
 48
0.5
100
AcDbLine
 10
352.612998943664
 20
384.3197534637774
 30
0.0
 11
352.612998943664
 21
404.3197534637774
 31
0.0
  0
LINE
  5
562
330
18
100
AcDbEntity
  8
L-1
  6
PHANTOM2
 62
     3
 48
0.3
100
AcDbLine
 10
375.2129989436639
 20
396.1197534637774
 30
0.0
 11
375.2129989436639
 21
392.5197534637774
 31
0.0
  0
LINE
  5
563
330
18
100
AcDbEntity
  8
L-1
  6
PHANTOM2
 62
     3
 48
0.5
100
AcDbLine
 10
367.612998943664
 20
384.3197534637774
 30
0.0
 11
367.612998943664
 21
404.3197534637774
 31
0.0
  0
ARC
  5
564
330
18
100
AcDbEntity
  8
L-1
  6
PHANTOM2
 62
     3
 48
0.3
100
AcDbCircle
 10
376.2129989436639
 20
392.5197534637774
 30
0.0
 40
1.0
100
AcDbArc
 50
180.0
 51
270.0
  0
ARC
  5
565
330
18
100
AcDbEntity
  8
L-1
  6
PHANTOM2
 62
     3
 48
0.3
100
AcDbCircle
 10
376.2129989436639
 20
396.1197534637774
 30
0.0
 40
1.0
100
AcDbArc
 50
89.99999999999959
 51
180.0
  0
LINE
  5
566
330
18
100
AcDbEntity
  8
L-1
  6
PHANTOM2
 62
     3
 48
0.5
100
AcDbLine
 10
260.112998943664
 20
411.8197534637775
 30
0.0
 11
280.112998943664
 21
411.8197534637775
 31
0.0
  0
LINE
  5
567
330
18
100
AcDbEntity
  8
L-1
  6
PHANTOM2
 62
     3
 48
0.5
100
AcDbLine
 10
260.112998943664
 20
416.8197534637775
 30
0.0
 11
280.112998943664
 21
416.8197534637775
 31
0.0
  0
LINE
  5
568
330
18
100
AcDbEntity
  8
L-1
  6
PHANTOM2
 62
     3
 48
0.5
100
AcDbLine
 10
170.112998943664
 20
416.8197534637775
 30
0.0
 11
190.112998943664
 21
416.8197534637775
 31
0.0
  0
LINE
  5
569
330
18
100
AcDbEntity
  8
L-1
  6
PHANTOM2
 62
     3
 48
0.5
100
AcDbLine
 10
170.112998943664
 20
411.8197534637775
 30
0.0
 11
190.112998943664
 21
411.8197534637775
 31
0.0
  0
ARC
  5
56A
330
18
100
AcDbEntity
  8
L-1
  6
PHANTOM2
 62
     3
 48
0.5
100
AcDbCircle
 10
145.112998943664
 20
414.3197534637774
 30
0.0
 40
2.5
100
AcDbArc
 50
270.0
 51
90.0
  0
ARC
  5
56B
330
18
100
AcDbEntity
  8
L-1
  6
PHANTOM2
 62
     3
 48
0.5
100
AcDbCircle
 10
170.112998943664
 20
414.3197534637774
 30
0.0
 40
2.5
100
AcDbArc
 50
90.0
 51
270.0
  0
ARC
  5
56C
330
18
100
AcDbEntity
  8
L-1
  6
PHANTOM2
 62
     3
 48
0.5
100
AcDbCircle
 10
190.112998943664
 20
414.3197534637774
 30
0.0
 40
2.5
100
AcDbArc
 50
270.0
 51
90.0
  0
LINE
  5
56D
330
18
100
AcDbEntity
  8
L-1
  6
PHANTOM2
 62
     3
 48
0.5
100
AcDbLine
 10
215.112998943664
 20
411.8197534637775
 30
0.0
 11
235.112998943664
 21
411.8197534637775
 31
0.0
  0
LINE
  5
56E
330
18
100
AcDbEntity
  8
L-1
  6
PHANTOM2
 62
     3
 48
0.5
100
AcDbLine
 10
215.112998943664
 20
416.8197534637775
 30
0.0
 11
235.112998943664
 21
416.8197534637775
 31
0.0
  0
ARC
  5
56F
330
18
100
AcDbEntity
  8
L-1
  6
PHANTOM2
 62
     3
 48
0.5
100
AcDbCircle
 10
215.112998943664
 20
414.3197534637774
 30
0.0
 40
2.5
100
AcDbArc
 50
90.0
 51
270.0
  0
ARC
  5
570
330
18
100
AcDbEntity
  8
L-1
  6
PHANTOM2
 62
     3
 48
0.5
100
AcDbCircle
 10
235.112998943664
 20
414.3197534637774
 30
0.0
 40
2.5
100
AcDbArc
 50
270.0
 51
90.0
  0
ARC
  5
571
330
18
100
AcDbEntity
  8
L-1
  6
PHANTOM2
 62
     3
 48
0.5
100
AcDbCircle
 10
260.112998943664
 20
414.3197534637774
 30
0.0
 40
2.5
100
AcDbArc
 50
90.0
 51
270.0
  0
LINE
  5
572
330
18
100
AcDbEntity
  8
L-1
  6
PHANTOM2
 62
     3
 48
0.5
100
AcDbLine
 10
305.112998943664
 20
411.8197534637775
 30
0.0
 11
325.112998943664
 21
411.8197534637775
 31
0.0
  0
LINE
  5
573
330
18
100
AcDbEntity
  8
L-1
  6
PHANTOM2
 62
     3
 48
0.5
100
AcDbLine
 10
305.112998943664
 20
416.8197534637775
 30
0.0
 11
325.112998943664
 21
416.8197534637775
 31
0.0
  0
ARC
  5
574
330
18
100
AcDbEntity
  8
L-1
  6
PHANTOM2
 62
     3
 48
0.5
100
AcDbCircle
 10
280.112998943664
 20
414.3197534637774
 30
0.0
 40
2.5
100
AcDbArc
 50
270.0
 51
90.0
  0
ARC
  5
575
330
18
100
AcDbEntity
  8
L-1
  6
PHANTOM2
 62
     3
 48
0.5
100
AcDbCircle
 10
305.112998943664
 20
414.3197534637774
 30
0.0
 40
2.5
100
AcDbArc
 50
90.0
 51
270.0
  0
LINE
  5
576
330
18
100
AcDbEntity
  8
L-1
  6
PHANTOM2
 62
     3
 48
0.5
100
AcDbLine
 10
350.112998943664
 20
411.8197534637775
 30
0.0
 11
370.112998943664
 21
411.8197534637775
 31
0.0
  0
LINE
  5
577
330
18
100
AcDbEntity
  8
L-1
  6
PHANTOM2
 62
     3
 48
0.5
100
AcDbLine
 10
350.112998943664
 20
416.8197534637775
 30
0.0
 11
370.112998943664
 21
416.8197534637775
 31
0.0
  0
ARC
  5
578
330
18
100
AcDbEntity
  8
L-1
  6
PHANTOM2
 62
     3
 48
0.5
100
AcDbCircle
 10
325.112998943664
 20
414.3197534637774
 30
0.0
 40
2.5
100
AcDbArc
 50
270.0
 51
90.0
  0
ARC
  5
579
330
18
100
AcDbEntity
  8
L-1
  6
PHANTOM2
 62
     3
 48
0.5
100
AcDbCircle
 10
350.112998943664
 20
414.3197534637774
 30
0.0
 40
2.5
100
AcDbArc
 50
90.0
 51
270.0
  0
ARC
  5
57A
330
18
100
AcDbEntity
  8
L-1
  6
PHANTOM2
 62
     3
 48
0.5
100
AcDbCircle
 10
370.112998943664
 20
414.3197534637774
 30
0.0
 40
2.5
100
AcDbArc
 50
270.0
 51
90.0
  0
LINE
  5
57B
330
18
100
AcDbEntity
  8
L-1
  6
CENTER2
 62
     1
100
AcDbLine
 10
593.5593149667035
 20
190.9676078538762
 30
0.0
 11
664.9485632326421
 21
190.9676078538762
 31
0.0
  0
LINE
  5
57C
330
18
100
AcDbEntity
  8
L-1
  6
CONTINUOUS
 62
     7
100
AcDbLine
 10
600.2687929678168
 20
212.9676078538762
 30
0.0
 11
657.2687929678168
 21
212.9676078538762
 31
0.0
  0
LINE
  5
57D
330
18
100
AcDbEntity
  8
L-1
  6
CONTINUOUS
 62
     7
100
AcDbLine
 10
600.2687929678168
 20
168.9676078538761
 30
0.0
 11
657.2687929678168
 21
168.9676078538762
 31
0.0
  0
LINE
  5
57E
330
18
100
AcDbEntity
  8
L-1
  6
CONTINUOUS
 62
     7
100
AcDbLine
 10
504.0629989436636
 20
203.4676078538762
 30
0.0
 11
496.0629989436636
 21
203.4676078538762
 31
0.0
  0
LINE
  5
581
330
18
100
AcDbEntity
  8
L-1
  6
CONTINUOUS
 62
     7
100
AcDbLine
 10
504.0629989436636
 20
178.4676078538762
 30
0.0
 11
496.0629989436636
 21
178.4676078538762
 31
0.0
  0
LINE
  5
584
330
18
100
AcDbEntity
  8
L-1
  6
CONTINUOUS
 62
     7
100
AcDbLine
 10
496.0629989436636
 20
203.4676078538762
 30
0.0
 11
496.0629989436636
 21
178.4676078538762
 31
0.0
  0
LINE
  5
585
330
18
100
AcDbEntity
  8
L-1
  6
CONTINUOUS
 62
     7
100
AcDbLine
 10
453.1129989436637
 20
211.9676078538761
 30
0.0
 11
453.1129989436637
 21
169.9676078538762
 31
0.0
  0
LINE
  5
586
330
18
100
AcDbEntity
  8
L-1
  6
CONTINUOUS
 62
     7
100
AcDbLine
 10
416.1129989436636
 20
211.9676078538761
 30
0.0
 11
416.1129989436636
 21
169.9676078538762
 31
0.0
  0
LINE
  5
587
330
18
100
AcDbEntity
  8
L-1
  6
CONTINUOUS
 62
     7
100
AcDbLine
 10
497.062998943664
 20
211.9676078538762
 30
0.0
 11
497.0629989436631
 21
169.9676078538762
 31
0.0
  0
CIRCLE
  5
588
330
18
100
AcDbEntity
  8
L-1
  6
CONTINUOUS
 62
     7
100
AcDbCircle
 10
441.1129989436635
 20
178.9676078538762
 30
0.0
 40
2.1
  0
LINE
  5
589
330
18
100
AcDbEntity
  8
L-1
  6
CENTER2
 62
     1
 48
0.2
100
AcDbLine
 10
444.6129989436635
 20
178.9676078538762
 30
0.0
 11
437.6129989436635
 21
178.9676078538762
 31
0.0
  0
CIRCLE
  5
58A
330
18
100
AcDbEntity
  8
L-1
  6
CONTINUOUS
 62
     7
100
AcDbCircle
 10
428.1129989436635
 20
178.9676078538762
 30
0.0
 40
1.75
  0
LINE
  5
594
330
18
100
AcDbEntity
  8
L-1
  6
CENTER2
 62
     1
 48
0.2
100
AcDbLine
 10
441.1129989436635
 20
175.4676078538762
 30
0.0
 11
441.1129989436635
 21
182.4676078538762
 31
0.0
  0
LINE
  5
597
330
18
100
AcDbEntity
  8
L-1
  6
CONTINUOUS
 62
     7
100
AcDbLine
 10
497.0629989436637
 20
179.4676078538762
 30
0.0
 11
496.0629989436634
 21
179.4676078538762
 31
0.0
  0
LINE
  5
598
330
18
100
AcDbEntity
  8
L-1
  6
CONTINUOUS
 62
     7
100
AcDbLine
 10
497.0629989436637
 20
185.9676078538762
 30
0.0
 11
496.0629989436636
 21
185.9676078538762
 31
0.0
  0
LINE
  5
599
330
18
100
AcDbEntity
  8
L-1
  6
CONTINUOUS
 62
     7
100
AcDbLine
 10
497.0629989436637
 20
195.9676078538762
 30
0.0
 11
496.0629989436636
 21
195.9676078538762
 31
0.0
  0
LINE
  5
59A
330
18
100
AcDbEntity
  8
L-1
  6
CONTINUOUS
 62
     7
100
AcDbLine
 10
497.0629989436637
 20
202.4676078538762
 30
0.0
 11
496.0629989436634
 21
202.4676078538762
 31
0.0
  0
ARC
  5
59C
330
18
100
AcDbEntity
  8
L-1
  6
CONTINUOUS
 62
     7
100
AcDbCircle
 10
525.1129989436637
 20
190.9676078538762
 30
0.0
 40
5.99999999999999
100
AcDbArc
 50
120.0000000000012
 51
59.99999999999875
  0
LINE
  5
59D
330
18
100
AcDbEntity
  8
L-1
  6
CONTINUOUS
 62
     7
100
AcDbLine
 10
504.0629989436636
 20
203.4676078538762
 30
0.0
 11
504.0629989436636
 21
178.4676078538762
 31
0.0
  0
LINE
  5
59E
330
18
100
AcDbEntity
  8
L-1
  6
CENTER2
 62
     1
100
AcDbLine
 10
525.1129989436638
 20
213.3544035277321
 30
0.0
 11
525.1129989436638
 21
168.5808121800203
 31
0.0
  0
LINE
  5
59F
330
18
100
AcDbEntity
  8
L-1
  6
CONTINUOUS
 62
     7
100
AcDbLine
 10
533.6129989436638
 20
210.9676078538762
 30
0.0
 11
533.6129989436638
 21
170.9676078538762
 31
0.0
  0
LINE
  5
5A0
330
18
100
AcDbEntity
  8
L-1
  6
CONTINUOUS
 62
     7
100
AcDbLine
 10
602.2687929678168
 20
212.9676078538762
 30
0.0
 11
602.2687929678168
 21
168.9676078538761
 31
0.0
  0
LINE
  5
5A1
330
18
100
AcDbEntity
  8
L-1
  6
CONTINUOUS
 62
     7
100
AcDbLine
 10
600.2687929678168
 20
212.9676078538762
 30
0.0
 11
600.2687929678168
 21
168.9676078538761
 31
0.0
  0
LINE
  5
5A2
330
18
100
AcDbEntity
  8
L-1
  6
CONTINUOUS
 62
     7
100
AcDbLine
 10
507.6129989436638
 20
212.9676078538762
 30
0.0
 11
507.6129989436638
 21
168.9676078538763
 31
0.0
  0
LINE
  5
5A3
330
18
100
AcDbEntity
  8
L-1
  6
CONTINUOUS
 62
     7
100
AcDbLine
 10
506.6129989436638
 20
211.9676078538761
 30
0.0
 11
506.6129989436635
 21
169.9676078538762
 31
0.0
  0
ARC
  5
5A4
330
18
100
AcDbEntity
  8
L-1
  6
CONTINUOUS
 62
     7
100
AcDbCircle
 10
531.6129989436638
 20
170.9676078538762
 30
0.0
 40
2.0
100
AcDbArc
 50
270.0
 51
0.0
  0
LINE
  5
5A6
330
18
100
AcDbEntity
  8
L-1
  6
CONTINUOUS
 62
     7
100
AcDbLine
 10
507.6129989436638
 20
168.9676078538763
 30
0.0
 11
531.6129989436638
 21
168.9676078538762
 31
0.0
  0
ARC
  5
5A7
330
18
100
AcDbEntity
  8
L-1
  6
CONTINUOUS
 62
     7
100
AcDbCircle
 10
506.6129989436638
 20
169.9676078538762
 30
0.0
 40
1.0
100
AcDbArc
 50
270.0
 51
0.0
  0
LINE
  5
5A8
330
18
100
AcDbEntity
  8
L-1
  6
CONTINUOUS
 62
     7
100
AcDbLine
 10
507.6129989436635
 20
178.9676078538762
 30
0.0
 11
506.6129989436635
 21
178.9676078538762
 31
0.0
  0
LINE
  5
5A9
330
18
100
AcDbEntity
  8
L-1
  6
CONTINUOUS
 62
     7
100
AcDbLine
 10
526.7129989436638
 20
178.6426078538761
 30
0.0
 11
523.5129989436638
 21
178.6426078538761
 31
0.0
  0
LINE
  5
5AA
330
18
100
AcDbEntity
  8
L-1
  6
CONTINUOUS
 62
     7
100
AcDbLine
 10
526.7129989436638
 20
171.5426078538761
 30
0.0
 11
523.5129989436638
 21
171.5426078538761
 31
0.0
  0
ARC
  5
5AB
330
18
100
AcDbEntity
  8
L-1
  6
CONTINUOUS
 62
     7
100
AcDbCircle
 10
523.5129989436638
 20
175.0926078538761
 30
0.0
 40
3.549999999999999
100
AcDbArc
 50
90.0
 51
270.0
  0
LINE
  5
5AC
330
18
100
AcDbEntity
  8
L-1
  6
CENTER2
 62
     1
100
AcDbLine
 10
525.1129989436638
 20
175.5868416825462
 30
0.0
 11
525.1129989436638
 21
178.5907383138558
 31
0.0
  0
ARC
  5
5AD
330
18
100
AcDbEntity
  8
L-1
  6
CONTINUOUS
 62
     7
100
AcDbCircle
 10
526.7129989436638
 20
175.0926078538761
 30
0.0
 40
3.549999999999999
100
AcDbArc
 50
270.0
 51
90.0
  0
LINE
  5
5AE
330
18
100
AcDbEntity
  8
L-1
  6
CENTER2
 62
     1
 48
0.3
100
AcDbLine
 10
594.9524122382424
 20
174.8676078538762
 30
0.0
 11
606.329865044755
 21
174.8676078538762
 31
0.0
  0
ARC
  5
5AF
330
18
100
AcDbEntity
  8
L-1
  6
CONTINUOUS
 62
     7
100
AcDbCircle
 10
531.6129989436635
 20
210.9676078538762
 30
0.0
 40
2.000000000000113
100
AcDbArc
 50
359.9999999999983
 51
89.99999999999349
  0
LINE
  5
5B0
330
18
100
AcDbEntity
  8
L-1
  6
CENTER2
 62
     1
 48
0.3
100
AcDbLine
 10
518.6012032698079
 20
206.8426078538762
 30
0.0
 11
531.6247946175196
 21
206.8426078538762
 31
0.0
  0
LINE
  5
5B1
330
18
100
AcDbEntity
  8
L-1
  6
CONTINUOUS
 62
     7
100
AcDbLine
 10
507.6129989436638
 20
212.9676078538762
 30
0.0
 11
531.6129989436638
 21
212.9676078538762
 31
0.0
  0
LINE
  5
5B2
330
18
100
AcDbEntity
  8
L-1
  6
CONTINUOUS
 62
     7
100
AcDbLine
 10
507.6129989436638
 20
202.9676078538762
 30
0.0
 11
506.6129989436638
 21
202.9676078538761
 31
0.0
  0
ARC
  5
5B3
330
18
100
AcDbEntity
  8
L-1
  6
CONTINUOUS
 62
     7
100
AcDbCircle
 10
506.6129989436638
 20
211.9676078538762
 30
0.0
 40
1.0
100
AcDbArc
 50
0.0
 51
90.0
  0
LINE
  5
5B4
330
18
100
AcDbEntity
  8
L-1
  6
CONTINUOUS
 62
     7
100
AcDbLine
 10
522.1129989436637
 20
196.1637602765828
 30
0.0
 11
522.1129989436642
 21
203.6720360127128
 31
0.0
  0
LINE
  5
5B5
330
18
100
AcDbEntity
  8
L-1
  6
CONTINUOUS
 62
     7
100
AcDbLine
 10
528.1129989436638
 20
196.1637602765827
 30
0.0
 11
528.1129989436638
 21
203.672036012713
 31
0.0
  0
LINE
  5
5B6
330
18
100
AcDbEntity
  8
L-1
  6
CONTINUOUS
 62
     7
100
AcDbLine
 10
523.6129989436638
 20
210.3426078538762
 30
0.0
 11
526.6129989436639
 21
210.3426078538761
 31
0.0
  0
ARC
  5
5B7
330
18
100
AcDbEntity
  8
L-1
  6
CONTINUOUS
 62
     7
100
AcDbCircle
 10
523.6129989436638
 20
206.8426078538762
 30
0.0
 40
3.5
100
AcDbArc
 50
90.0
 51
244.6230664748536
  0
ARC
  5
5B8
330
18
100
AcDbEntity
  8
L-1
  6
CONTINUOUS
 62
     7
100
AcDbCircle
 10
526.6129989436637
 20
206.8426078538761
 30
0.0
 40
3.499999999999988
100
AcDbArc
 50
295.3769335251539
 51
90.0
  0
LINE
  5
5B9
330
18
100
AcDbEntity
  8
L-1
  6
CENTER2
 62
     1
 48
0.3
100
AcDbLine
 10
595.3413112037897
 20
207.0676078538762
 30
0.0
 11
606.329865044755
 21
207.0676078538762
 31
0.0
  0
LINE
  5
5BA
330
18
100
AcDbEntity
  8
L-1
  6
PHANTOM2
 62
     3
 48
0.5
100
AcDbLine
 10
732.2687929678161
 20
179.967607853876
 30
0.0
 11
734.0687929678162
 21
179.967607853876
 31
0.0
  0
ARC
  5
5BB
330
18
100
AcDbEntity
  8
L-1
  6
PHANTOM2
 62
     3
 48
0.5
100
AcDbCircle
 10
727.2687929678163
 20
184.9676078538761
 30
0.0
 40
5.0
100
AcDbArc
 50
0.0
 51
83.94034025571404
  0
LINE
  5
5BC
330
18
100
AcDbEntity
  8
L-1
  6
PHANTOM2
 62
     3
 48
0.5
100
AcDbLine
 10
621.2687929678166
 20
178.9676078538762
 30
0.0
 11
734.2687929678163
 21
178.967607853876
 31
0.0
  0
LINE
  5
5BD
330
18
100
AcDbEntity
  8
L-1
  6
PHANTOM2
 62
     3
 48
0.5
100
AcDbLine
 10
619.2687929678165
 20
206.9676078538762
 30
0.0
 11
619.2687929678165
 21
180.9676078538761
 31
0.0
  0
LINE
  5
5BE
330
18
100
AcDbEntity
  8
L-1
  6
PHANTOM2
 62
     3
 48
0.5
100
AcDbLine
 10
669.2687929678164
 20
208.9676078538762
 30
0.0
 11
727.7966127741049
 21
189.9396704291147
 31
0.0
  0
LINE
  5
5BF
330
18
100
AcDbEntity
  8
L-1
  6
PHANTOM2
 62
     3
 48
0.5
100
AcDbLine
 10
706.2687929678161
 20
197.9676078538761
 30
0.0
 11
706.2687929678168
 21
179.9676078538761
 31
0.0
  0
LINE
  5
5C0
330
18
100
AcDbEntity
  8
L-1
  6
PHANTOM2
 62
     3
 48
0.5
100
AcDbLine
 10
700.268792967816
 20
197.967607853876
 30
0.0
 11
700.2687929678166
 21
179.967607853876
 31
0.0
  0
LINE
  5
5C1
330
18
100
AcDbEntity
  8
L-1
  6
CONTINUOUS
 62
     7
100
AcDbLine
 10
660.4187929678167
 20
211.9676078538762
 30
0.0
 11
660.4187929678167
 21
169.9676078538762
 31
0.0
  0
LINE
  5
5C2
330
18
100
AcDbEntity
  8
L-1
  6
CONTINUOUS
 62
     7
100
AcDbLine
 10
659.2687929678167
 20
210.9676078538762
 30
0.0
 11
659.2687929678167
 21
170.9676078538762
 31
0.0
  0
CIRCLE
  5
5C3
330
18
100
AcDbEntity
  8
L-1
  6
PHANTOM2
 62
     3
 48
0.3
100
AcDbCircle
 10
627.2687929678165
 20
185.9676078538761
 30
0.0
 40
2.75
  0
LINE
  5
5C4
330
18
100
AcDbEntity
  8
L-1
  6
PHANTOM2
 62
     3
 48
0.3
100
AcDbLine
 10
626.9291528814883
 20
187.7176078538761
 30
0.0
 11
627.6084330541448
 21
187.7176078538761
 31
0.0
  0
LINE
  5
5C5
330
18
100
AcDbEntity
  8
L-1
  6
PHANTOM2
 62
     3
 48
0.3
100
AcDbLine
 10
626.9291528814883
 20
184.2176078538761
 30
0.0
 11
627.6084330541448
 21
184.2176078538761
 31
0.0
  0
CIRCLE
  5
5C6
330
18
100
AcDbEntity
  8
L-1
  6
PHANTOM2
 62
     3
 48
0.3
100
AcDbCircle
 10
627.2687929678165
 20
185.9676078538761
 30
0.0
 40
3.0
  0
ARC
  5
5C7
330
18
100
AcDbEntity
  8
L-1
  6
PHANTOM2
 62
     3
 48
0.5
100
AcDbCircle
 10
621.2687929678166
 20
180.9676078538761
 30
0.0
 40
2.0
100
AcDbArc
 50
180.0
 51
270.0
  0
LINE
  5
5C8
330
18
100
AcDbEntity
  8
L-1
  6
PHANTOM2
 62
     3
 48
0.3
100
AcDbLine
 10
626.9291528814883
 20
186.6072479402044
 30
0.0
 11
626.9291528814883
 21
187.7176078538761
 31
0.0
  0
LINE
  5
5C9
330
18
100
AcDbEntity
  8
L-1
  6
PHANTOM2
 62
     3
 48
0.3
100
AcDbLine
 10
626.9291528814883
 20
184.2176078538761
 30
0.0
 11
626.9291528814883
 21
185.3279677675479
 31
0.0
  0
LINE
  5
5CA
330
18
100
AcDbEntity
  8
L-1
  6
PHANTOM2
 62
     3
 48
0.3
100
AcDbLine
 10
625.5187929678165
 20
186.3072479402044
 30
0.0
 11
625.5187929678165
 21
185.6279677675479
 31
0.0
  0
LINE
  5
5CB
330
18
100
AcDbEntity
  8
L-1
  6
PHANTOM2
 62
     3
 48
0.3
100
AcDbLine
 10
625.5187929678165
 20
185.6279677675479
 30
0.0
 11
626.6291528814884
 21
185.6279677675479
 31
0.0
  0
LINE
  5
5CC
330
18
100
AcDbEntity
  8
L-1
  6
PHANTOM2
 62
     3
 48
0.3
100
AcDbLine
 10
625.5187929678165
 20
186.3072479402044
 30
0.0
 11
626.6291528814884
 21
186.3072479402044
 31
0.0
  0
ARC
  5
5CD
330
18
100
AcDbEntity
  8
L-1
  6
PHANTOM2
 62
     3
 48
0.3
100
AcDbCircle
 10
626.6291528814884
 20
185.3279677675479
 30
0.0
 40
0.3
100
AcDbArc
 50
0.0
 51
90.0
  0
ARC
  5
5CE
330
18
100
AcDbEntity
  8
L-1
  6
PHANTOM2
 62
     3
 48
0.3
100
AcDbCircle
 10
626.6291528814884
 20
186.6072479402044
 30
0.0
 40
0.3
100
AcDbArc
 50
270.0
 51
0.0
  0
LINE
  5
5CF
330
18
100
AcDbEntity
  8
L-1
  6
PHANTOM2
 62
     3
 48
0.3
100
AcDbLine
 10
627.9084330541449
 20
186.3072479402043
 30
0.0
 11
629.0187929678165
 21
186.3072479402044
 31
0.0
  0
LINE
  5
5D0
330
18
100
AcDbEntity
  8
L-1
  6
PHANTOM2
 62
     3
 48
0.3
100
AcDbLine
 10
627.9084330541449
 20
185.6279677675479
 30
0.0
 11
629.0187929678165
 21
185.6279677675479
 31
0.0
  0
LINE
  5
5D1
330
18
100
AcDbEntity
  8
L-1
  6
PHANTOM2
 62
     3
 48
0.3
100
AcDbLine
 10
627.6084330541448
 20
186.6072479402044
 30
0.0
 11
627.6084330541448
 21
187.7176078538761
 31
0.0
  0
ARC
  5
5D2
330
18
100
AcDbEntity
  8
L-1
  6
PHANTOM2
 62
     3
 48
0.3
100
AcDbCircle
 10
627.9084330541449
 20
185.3279677675479
 30
0.0
 40
0.3
100
AcDbArc
 50
90.0
 51
179.9999999999983
  0
ARC
  5
5D3
330
18
100
AcDbEntity
  8
L-1
  6
PHANTOM2
 62
     3
 48
0.3
100
AcDbCircle
 10
627.9084330541449
 20
186.6072479402044
 30
0.0
 40
0.3
100
AcDbArc
 50
180.0
 51
270.0
  0
LINE
  5
5D4
330
18
100
AcDbEntity
  8
L-1
  6
PHANTOM2
 62
     3
 48
0.3
100
AcDbLine
 10
627.6084330541448
 20
184.2176078538761
 30
0.0
 11
627.6084330541448
 21
185.3279677675479
 31
0.0
  0
LINE
  5
5D5
330
18
100
AcDbEntity
  8
L-1
  6
PHANTOM2
 62
     3
 48
0.3
100
AcDbLine
 10
629.0187929678165
 20
186.3072479402044
 30
0.0
 11
629.0187929678165
 21
185.6279677675479
 31
0.0
  0
ARC
  5
5D6
330
18
100
AcDbEntity
  8
L-1
  6
CONTINUOUS
 62
     7
100
AcDbCircle
 10
657.2687929678168
 20
170.9676078538762
 30
0.0
 40
2.0
100
AcDbArc
 50
270.0
 51
0.0
  0
LINE
  5
5D7
330
18
100
AcDbEntity
  8
L-1
  6
CONTINUOUS
 62
     7
100
AcDbLine
 10
659.0008437753856
 20
169.9676078538762
 30
0.0
 11
660.4187929678167
 21
169.9676078538762
 31
0.0
  0
LINE
  5
5D8
330
18
100
AcDbEntity
  8
L-1
  6
PHANTOM2
 62
     3
 48
0.5
100
AcDbLine
 10
685.2687929678165
 20
171.967607853876
 30
0.0
 11
686.2687929678165
 21
171.967607853876
 31
0.0
  0
LINE
  5
5D9
330
18
100
AcDbEntity
  8
L-1
  6
PHANTOM2
 62
     3
 48
0.5
100
AcDbLine
 10
685.2687929678163
 20
178.967607853876
 30
0.0
 11
685.2687929678163
 21
178.9676078538758
 31
0.0
  0
LINE
  5
5DA
330
18
100
AcDbEntity
  8
L-1
  6
PHANTOM2
 62
     3
 48
0.5
100
AcDbLine
 10
685.2687929678165
 20
178.7676078538762
 30
0.0
 11
685.2687929678163
 21
171.967607853876
 31
0.0
  0
LINE
  5
5DB
330
18
100
AcDbEntity
  8
L-1
  6
PHANTOM2
 62
     3
 48
0.5
100
AcDbLine
 10
686.2687929678165
 20
178.967607853876
 30
0.0
 11
686.2687929678165
 21
171.967607853876
 31
0.0
  0
LINE
  5
5DC
330
18
100
AcDbEntity
  8
L-1
  6
PHANTOM2
 62
     3
 48
0.5
100
AcDbLine
 10
732.2687929678161
 20
184.967607853876
 30
0.0
 11
732.2687929678161
 21
178.967607853876
 31
0.0
  0
LINE
  5
5DD
330
18
100
AcDbEntity
  8
L-1
  6
PHANTOM2
 62
     3
 48
0.5
100
AcDbLine
 10
621.2687929678166
 20
208.9676078538762
 30
0.0
 11
669.2687929678161
 21
208.9676078538762
 31
0.0
  0
CIRCLE
  5
5DE
330
18
100
AcDbEntity
  8
L-1
  6
PHANTOM2
 62
     3
 48
0.3
100
AcDbCircle
 10
627.2687929678165
 20
201.9676078538761
 30
0.0
 40
2.75
  0
LINE
  5
5DF
330
18
100
AcDbEntity
  8
L-1
  6
PHANTOM2
 62
     3
 48
0.3
100
AcDbLine
 10
626.9291528814883
 20
203.7176078538761
 30
0.0
 11
627.6084330541448
 21
203.7176078538761
 31
0.0
  0
LINE
  5
5E0
330
18
100
AcDbEntity
  8
L-1
  6
PHANTOM2
 62
     3
 48
0.3
100
AcDbLine
 10
626.9291528814883
 20
200.2176078538761
 30
0.0
 11
627.6084330541448
 21
200.2176078538761
 31
0.0
  0
CIRCLE
  5
5E1
330
18
100
AcDbEntity
  8
L-1
  6
PHANTOM2
 62
     3
 48
0.3
100
AcDbCircle
 10
627.2687929678165
 20
201.9676078538761
 30
0.0
 40
3.0
  0
LINE
  5
5E2
330
18
100
AcDbEntity
  8
L-1
  6
PHANTOM2
 62
     3
 48
0.3
100
AcDbLine
 10
626.9291528814883
 20
202.6072479402044
 30
0.0
 11
626.9291528814883
 21
203.7176078538761
 31
0.0
  0
LINE
  5
5E3
330
18
100
AcDbEntity
  8
L-1
  6
PHANTOM2
 62
     3
 48
0.3
100
AcDbLine
 10
626.9291528814883
 20
200.2176078538762
 30
0.0
 11
626.9291528814883
 21
201.3279677675479
 31
0.0
  0
LINE
  5
5E4
330
18
100
AcDbEntity
  8
L-1
  6
PHANTOM2
 62
     3
 48
0.3
100
AcDbLine
 10
625.5187929678165
 20
202.3072479402044
 30
0.0
 11
625.5187929678165
 21
201.6279677675479
 31
0.0
  0
LINE
  5
5E5
330
18
100
AcDbEntity
  8
L-1
  6
PHANTOM2
 62
     3
 48
0.3
100
AcDbLine
 10
625.5187929678165
 20
201.6279677675479
 30
0.0
 11
626.6291528814884
 21
201.6279677675479
 31
0.0
  0
LINE
  5
5E6
330
18
100
AcDbEntity
  8
L-1
  6
PHANTOM2
 62
     3
 48
0.3
100
AcDbLine
 10
625.5187929678165
 20
202.3072479402044
 30
0.0
 11
626.6291528814884
 21
202.3072479402044
 31
0.0
  0
ARC
  5
5E7
330
18
100
AcDbEntity
  8
L-1
  6
PHANTOM2
 62
     3
 48
0.3
100
AcDbCircle
 10
626.6291528814884
 20
201.3279677675479
 30
0.0
 40
0.3
100
AcDbArc
 50
0.0
 51
90.0
  0
ARC
  5
5E8
330
18
100
AcDbEntity
  8
L-1
  6
PHANTOM2
 62
     3
 48
0.3
100
AcDbCircle
 10
626.6291528814884
 20
202.6072479402044
 30
0.0
 40
0.3
100
AcDbArc
 50
270.0
 51
0.0
  0
ARC
  5
5E9
330
18
100
AcDbEntity
  8
L-1
  6
PHANTOM2
 62
     3
 48
0.5
100
AcDbCircle
 10
621.2687929678166
 20
206.9676078538762
 30
0.0
 40
2.0
100
AcDbArc
 50
90.0
 51
180.0
  0
LINE
  5
5EA
330
18
100
AcDbEntity
  8
L-1
  6
PHANTOM2
 62
     3
 48
0.3
100
AcDbLine
 10
627.6084330541448
 20
202.6072479402043
 30
0.0
 11
627.6084330541448
 21
203.7176078538761
 31
0.0
  0
LINE
  5
5EB
330
18
100
AcDbEntity
  8
L-1
  6
PHANTOM2
 62
     3
 48
0.3
100
AcDbLine
 10
627.9084330541449
 20
202.3072479402043
 30
0.0
 11
629.0187929678165
 21
202.3072479402044
 31
0.0
  0
LINE
  5
5EC
330
18
100
AcDbEntity
  8
L-1
  6
PHANTOM2
 62
     3
 48
0.3
100
AcDbLine
 10
627.9084330541449
 20
201.6279677675479
 30
0.0
 11
629.0187929678165
 21
201.6279677675479
 31
0.0
  0
ARC
  5
5ED
330
18
100
AcDbEntity
  8
L-1
  6
PHANTOM2
 62
     3
 48
0.3
100
AcDbCircle
 10
627.9084330541449
 20
201.3279677675479
 30
0.0
 40
0.3
100
AcDbArc
 50
90.0
 51
179.9999999999983
  0
ARC
  5
5EE
330
18
100
AcDbEntity
  8
L-1
  6
PHANTOM2
 62
     3
 48
0.3
100
AcDbCircle
 10
627.9084330541449
 20
202.6072479402043
 30
0.0
 40
0.3
100
AcDbArc
 50
180.0
 51
270.0
  0
LINE
  5
5EF
330
18
100
AcDbEntity
  8
L-1
  6
PHANTOM2
 62
     3
 48
0.3
100
AcDbLine
 10
627.6084330541448
 20
200.2176078538762
 30
0.0
 11
627.6084330541448
 21
201.3279677675479
 31
0.0
  0
LINE
  5
5F0
330
18
100
AcDbEntity
  8
L-1
  6
PHANTOM2
 62
     3
 48
0.3
100
AcDbLine
 10
629.0187929678165
 20
202.3072479402044
 30
0.0
 11
629.0187929678165
 21
201.6279677675479
 31
0.0
  0
ARC
  5
5F1
330
18
100
AcDbEntity
  8
L-1
  6
CONTINUOUS
 62
     7
100
AcDbCircle
 10
657.2687929678168
 20
210.9676078538762
 30
0.0
 40
2.0
100
AcDbArc
 50
0.0
 51
90.0
  0
LINE
  5
5F2
330
18
100
AcDbEntity
  8
L-1
  6
CONTINUOUS
 62
     7
100
AcDbLine
 10
659.0008437753856
 20
211.9676078538762
 30
0.0
 11
660.4187929678167
 21
211.9676078538762
 31
0.0
  0
LINE
  5
5F3
330
18
100
AcDbEntity
  8
L-1
  6
PHANTOM2
 62
     3
 48
0.5
100
AcDbLine
 10
701.2687929678159
 20
198.967607853876
 30
0.0
 11
705.2687929678161
 21
198.967607853876
 31
0.0
  0
ARC
  5
5F4
330
18
100
AcDbEntity
  8
L-1
  6
PHANTOM2
 62
     3
 48
0.5
100
AcDbCircle
 10
701.2687929678159
 20
197.967607853876
 30
0.0
 40
1.0
100
AcDbArc
 50
90.0
 51
180.0000000000016
  0
ARC
  5
5F5
330
18
100
AcDbEntity
  8
L-1
  6
PHANTOM2
 62
     3
 48
0.5
100
AcDbCircle
 10
705.2687929678161
 20
197.967607853876
 30
0.0
 40
1.0
100
AcDbArc
 50
0.0000000000016284
 51
90.0
  0
POINT
  5
5F6
330
18
100
AcDbEntity
  8
L-1
  6
PHANTOM2
 62
     3
 48
0.5
100
AcDbPoint
 10
735.2687929678161
 20
171.967607853876
 30
0.0
  0
POINT
  5
5F7
330
18
100
AcDbEntity
  8
L-1
  6
PHANTOM2
 62
     3
 48
0.5
100
AcDbPoint
 10
735.2687929678161
 20
171.967607853876
 30
0.0
  0
LINE
  5
5F8
330
18
100
AcDbEntity
  8
L-1
  6
PHANTOM2
 62
     3
 48
0.5
100
AcDbLine
 10
735.2687929678161
 20
178.7676078538757
 30
0.0
 11
735.2687929678161
 21
171.967607853876
 31
0.0
  0
POINT
  5
5F9
330
18
100
AcDbEntity
  8
L-1
  6
PHANTOM2
 62
     3
 48
0.5
100
AcDbPoint
 10
734.2687929678163
 20
178.967607853876
 30
0.0
  0
LINE
  5
5FA
330
18
100
AcDbEntity
  8
L-1
  6
PHANTOM2
 62
     3
 48
0.5
100
AcDbLine
 10
734.2687929678163
 20
178.967607853876
 30
0.0
 11
734.2687929678163
 21
171.967607853876
 31
0.0
  0
ARC
  5
5FB
330
18
100
AcDbEntity
  8
L-1
  6
PHANTOM2
 62
     3
 48
0.5
100
AcDbCircle
 10
734.0687929678162
 20
178.7676078538758
 30
0.0
 40
1.199999999999999
100
AcDbArc
 50
0.0
 51
90.0
  0
LINE
  5
5FC
330
18
100
AcDbEntity
  8
L-1
  6
PHANTOM2
 62
     3
 48
0.5
100
AcDbLine
 10
734.2687929678163
 20
171.967607853876
 30
0.0
 11
735.2687929678163
 21
171.967607853876
 31
0.0
  0
ARC
  5
600
330
18
100
AcDbEntity
  8
L-1
  6
PHANTOM2
 62
     3
 48
0.5
100
AcDbCircle
 10
455.112998943664
 20
404.3197534637775
 30
0.0
 40
2.5
100
AcDbArc
 50
0.0
 51
180.0
  0
ARC
  5
601
330
18
100
AcDbEntity
  8
L-1
  6
PHANTOM2
 62
     3
 48
0.5
100
AcDbCircle
 10
445.112998943664
 20
404.3197534637775
 30
0.0
 40
2.5
100
AcDbArc
 50
0.0
 51
180.0
  0
ARC
  5
602
330
18
100
AcDbEntity
  8
L-1
  6
PHANTOM2
 62
     3
 48
0.5
100
AcDbCircle
 10
400.1129989436639
 20
404.3197534637775
 30
0.0
 40
2.5
100
AcDbArc
 50
0.0
 51
180.0
  0
ARC
  5
603
330
18
100
AcDbEntity
  8
L-1
  6
PHANTOM2
 62
     3
 48
0.5
100
AcDbCircle
 10
410.112998943664
 20
404.3197534637775
 30
0.0
 40
2.5
100
AcDbArc
 50
0.0
 51
180.0
  0
LINE
  5
604
330
18
100
AcDbEntity
  8
L-1
  6
PHANTOM2
 62
     3
 48
0.5
100
AcDbLine
 10
509.612998943664
 20
310.3197534637779
 30
0.0
 11
509.612998943664
 21
423.3197534637774
 31
0.0
  0
LINE
  5
605
330
18
100
AcDbEntity
  8
L-1
  6
PHANTOM2
 62
     3
 48
0.5
100
AcDbLine
 10
510.612998943664
 20
310.3197534637779
 30
0.0
 11
510.612998943664
 21
423.3197534637773
 31
0.0
  0
LINE
  5
606
330
18
100
AcDbEntity
  8
L-1
  6
CONTINUOUS
 62
     7
100
AcDbLine
 10
497.0629989436638
 20
350.319753463778
 30
0.0
 11
506.612998943664
 21
350.319753463778
 31
0.0
  0
LINE
  5
607
330
18
100
AcDbEntity
  8
L-1
  6
CONTINUOUS
 62
     7
100
AcDbLine
 10
495.4414260684099
 20
293.319753463778
 30
0.0
 11
507.6129989436639
 21
293.319753463778
 31
0.0
  0
LINE
  5
608
330
18
100
AcDbEntity
  8
L-1
  6
CONTINUOUS
 62
     7
100
AcDbLine
 10
464.6129989436637
 20
323.319753463778
 30
0.0
 11
494.0272125060366
 21
293.9055399014049
 31
0.0
  0
ARC
  5
609
330
18
100
AcDbEntity
  8
L-1
  6
CONTINUOUS
 62
     7
100
AcDbCircle
 10
495.4414260684099
 20
295.319753463778
 30
0.0
 40
2.0
100
AcDbArc
 50
225.0000000000003
 51
270.0
  0
LINE
  5
60A
330
18
100
AcDbEntity
  8
L-1
  6
CONTINUOUS
 62
     7
100
AcDbLine
 10
417.1129989436638
 20
350.3197534637783
 30
0.0
 11
452.1129989436637
 21
350.3197534637783
 31
0.0
  0
LINE
  5
60B
330
18
100
AcDbEntity
  8
L-1
  6
CONTINUOUS
 62
     7
100
AcDbLine
 10
404.6129989436638
 20
323.319753463778
 30
0.0
 11
464.612998943664
 21
323.319753463778
 31
0.0
  0
LINE
  5
60E
330
18
100
AcDbEntity
  8
L-1
  6
CONTINUOUS
 62
     7
100
AcDbLine
 10
417.1129989436638
 20
347.319753463778
 30
0.0
 11
417.1129989436638
 21
350.319753463778
 31
0.0
  0
ARC
  5
613
330
18
100
AcDbEntity
  8
L-1
  6
PHANTOM2
 62
     3
 48
0.5
100
AcDbCircle
 10
410.112998943664
 20
384.3197534637774
 30
0.0
 40
2.5
100
AcDbArc
 50
180.0
 51
0.0
  0
ARC
  5
614
330
18
100
AcDbEntity
  8
L-1
  6
PHANTOM2
 62
     3
 48
0.5
100
AcDbCircle
 10
400.1129989436639
 20
384.3197534637774
 30
0.0
 40
2.5
100
AcDbArc
 50
180.0
 51
0.0
  0
LINE
  5
615
330
18
100
AcDbEntity
  8
L-1
  6
PHANTOM2
 62
     3
 48
0.3
100
AcDbLine
 10
390.0129989436639
 20
396.1197534637774
 30
0.0
 11
390.0129989436639
 21
392.5197534637774
 31
0.0
  0
ARC
  5
616
330
18
100
AcDbEntity
  8
L-1
  6
PHANTOM2
 62
     3
 48
0.3
100
AcDbCircle
 10
389.012998943664
 20
392.5197534637774
 30
0.0
 40
1.0
100
AcDbArc
 50
270.0
 51
0.0
  0
ARC
  5
617
330
18
100
AcDbEntity
  8
L-1
  6
PHANTOM2
 62
     3
 48
0.3
100
AcDbCircle
 10
389.012998943664
 20
396.1197534637774
 30
0.0
 40
1.0
100
AcDbArc
 50
0.0
 51
90.0
  0
LINE
  5
618
330
18
100
AcDbEntity
  8
L-1
  6
PHANTOM2
 62
     3
 48
0.5
100
AcDbLine
 10
407.612998943664
 20
384.3197534637774
 30
0.0
 11
407.612998943664
 21
404.3197534637774
 31
0.0
  0
LINE
  5
619
330
18
100
AcDbEntity
  8
L-1
  6
PHANTOM2
 62
     3
 48
0.5
100
AcDbLine
 10
402.612998943664
 20
384.3197534637774
 30
0.0
 11
402.612998943664
 21
404.3197534637774
 31
0.0
  0
LINE
  5
61A
330
18
100
AcDbEntity
  8
L-1
  6
PHANTOM2
 62
     3
 48
0.5
100
AcDbLine
 10
397.612998943664
 20
384.3197534637774
 30
0.0
 11
397.612998943664
 21
404.3197534637774
 31
0.0
  0
CIRCLE
  5
61B
330
18
100
AcDbEntity
  8
L-1
  6
PHANTOM2
 62
     3
 48
0.5
100
AcDbCircle
 10
427.612998943664
 20
394.3197534637775
 30
0.0
 40
2.299999999999999
  0
LINE
  5
61C
330
18
100
AcDbEntity
  8
L-1
  6
PHANTOM2
 62
     3
 48
0.5
100
AcDbLine
 10
412.6129989436639
 20
384.3197534637774
 30
0.0
 11
412.6129989436639
 21
404.3197534637774
 31
0.0
  0
LINE
  5
61D
330
18
100
AcDbEntity
  8
L-1
  6
CONTINUOUS
 62
     7
100
AcDbLine
 10
497.0629989436636
 20
347.319753463778
 30
0.0
 11
452.1129989436637
 21
347.319753463778
 31
0.0
  0
LINE
  5
620
330
18
100
AcDbEntity
  8
L-1
  6
CONTINUOUS
 62
     7
100
AcDbLine
 10
452.1129989436637
 20
347.319753463778
 30
0.0
 11
452.1129989436637
 21
350.319753463778
 31
0.0
  0
LINE
  5
627
330
18
100
AcDbEntity
  8
L-1
  6
CONTINUOUS
 62
     7
100
AcDbLine
 10
497.0629989436636
 20
347.319753463778
 30
0.0
 11
497.062998943664
 21
350.319753463778
 31
0.0
  0
LINE
  5
628
330
18
100
AcDbEntity
  8
L-1
  6
PHANTOM2
 62
     3
 48
0.3
100
AcDbLine
 10
479.012998943664
 20
391.5197534637774
 30
0.0
 11
466.2129989436639
 21
391.5197534637774
 31
0.0
  0
LINE
  5
629
330
18
100
AcDbEntity
  8
L-1
  6
PHANTOM2
 62
     3
 48
0.3
100
AcDbLine
 10
479.012998943664
 20
397.1197534637774
 30
0.0
 11
466.2129989436639
 21
397.1197534637774
 31
0.0
  0
ARC
  5
62A
330
18
100
AcDbEntity
  8
L-1
  6
PHANTOM2
 62
     3
 48
0.5
100
AcDbCircle
 10
455.112998943664
 20
384.3197534637774
 30
0.0
 40
2.5
100
AcDbArc
 50
180.0
 51
0.0
  0
ARC
  5
62B
330
18
100
AcDbEntity
  8
L-1
  6
PHANTOM2
 62
     3
 48
0.5
100
AcDbCircle
 10
445.112998943664
 20
384.3197534637774
 30
0.0
 40
2.5
100
AcDbArc
 50
180.0
 51
0.0
  0
LINE
  5
62C
330
18
100
AcDbEntity
  8
L-1
  6
PHANTOM2
 62
     3
 48
0.5
100
AcDbLine
 10
452.612998943664
 20
384.3197534637774
 30
0.0
 11
452.612998943664
 21
404.3197534637774
 31
0.0
  0
LINE
  5
62D
330
18
100
AcDbEntity
  8
L-1
  6
PHANTOM2
 62
     3
 48
0.5
100
AcDbLine
 10
447.612998943664
 20
384.3197534637774
 30
0.0
 11
447.612998943664
 21
404.3197534637774
 31
0.0
  0
LINE
  5
62E
330
18
100
AcDbEntity
  8
L-1
  6
PHANTOM2
 62
     3
 48
0.5
100
AcDbLine
 10
442.612998943664
 20
384.3197534637774
 30
0.0
 11
442.612998943664
 21
404.3197534637774
 31
0.0
  0
LINE
  5
62F
330
18
100
AcDbEntity
  8
L-1
  6
PHANTOM2
 62
     3
 48
0.3
100
AcDbLine
 10
465.2129989436639
 20
396.1197534637774
 30
0.0
 11
465.2129989436639
 21
392.5197534637774
 31
0.0
  0
LINE
  5
630
330
18
100
AcDbEntity
  8
L-1
  6
PHANTOM2
 62
     3
 48
0.5
100
AcDbLine
 10
457.612998943664
 20
384.3197534637774
 30
0.0
 11
457.612998943664
 21
404.3197534637774
 31
0.0
  0
ARC
  5
631
330
18
100
AcDbEntity
  8
L-1
  6
PHANTOM2
 62
     3
 48
0.3
100
AcDbCircle
 10
466.2129989436639
 20
392.5197534637774
 30
0.0
 40
1.0
100
AcDbArc
 50
180.0
 51
270.0
  0
ARC
  5
632
330
18
100
AcDbEntity
  8
L-1
  6
PHANTOM2
 62
     3
 48
0.3
100
AcDbCircle
 10
466.2129989436639
 20
396.1197534637774
 30
0.0
 40
1.0
100
AcDbArc
 50
89.99999999999959
 51
180.0
  0
LINE
  5
633
330
18
100
AcDbEntity
  8
L-1
  6
PHANTOM2
 62
     3
 48
0.3
100
AcDbLine
 10
480.012998943664
 20
396.1197534637774
 30
0.0
 11
480.012998943664
 21
392.5197534637774
 31
0.0
  0
ARC
  5
634
330
18
100
AcDbEntity
  8
L-1
  6
PHANTOM2
 62
     3
 48
0.3
100
AcDbCircle
 10
479.012998943664
 20
392.5197534637774
 30
0.0
 40
1.0
100
AcDbArc
 50
270.0
 51
0.0
  0
ARC
  5
635
330
18
100
AcDbEntity
  8
L-1
  6
PHANTOM2
 62
     3
 48
0.3
100
AcDbCircle
 10
479.012998943664
 20
396.1197534637774
 30
0.0
 40
1.0
100
AcDbArc
 50
0.0
 51
90.0
  0
LINE
  5
636
330
18
100
AcDbEntity
  8
L-1
  6
PHANTOM2
 62
     3
 48
0.3
100
AcDbLine
 10
511.112998943664
 20
314.8197534637779
 30
0.0
 11
511.1129989436639
 21
321.8197534637777
 31
0.0
  0
LINE
  5
637
330
18
100
AcDbEntity
  8
L-1
  6
PHANTOM2
 62
     3
 48
0.3
100
AcDbLine
 10
511.8129989436639
 20
315.5697534637778
 30
0.0
 11
511.8129989436639
 21
321.0697534637777
 31
0.0
  0
ARC
  5
638
330
18
100
AcDbEntity
  8
L-1
  6
PHANTOM2
 62
     3
 48
0.3
100
AcDbCircle
 10
506.812998943664
 20
318.3197534637778
 30
0.0
 40
7.0
100
AcDbArc
 50
343.7429721033957
 51
16.25702789660426
  0
LINE
  5
639
330
18
100
AcDbEntity
  8
L-1
  6
PHANTOM2
 62
     3
 48
0.3
100
AcDbLine
 10
511.8129989436639
 20
318.0259766174664
 30
0.0
 11
511.1129989436639
 21
318.750284258679
 31
0.0
  0
LINE
  5
63B
330
18
100
AcDbEntity
  8
L-1
  6
CONTINUOUS
 62
     7
100
AcDbLine
 10
509.612998943664
 20
293.319753463778
 30
0.0
 11
509.612998943664
 21
350.319753463778
 31
0.0
  0
LINE
  5
63C
330
18
100
AcDbEntity
  8
L-1
  6
CONTINUOUS
 62
     7
100
AcDbLine
 10
507.612998943664
 20
293.319753463778
 30
0.0
 11
507.612998943664
 21
350.319753463778
 31
0.0
  0
LINE
  5
63D
330
18
100
AcDbEntity
  8
L-1
  6
CONTINUOUS
 62
     7
100
AcDbLine
 10
533.612998943664
 20
293.319753463778
 30
0.0
 11
509.612998943664
 21
293.319753463778
 31
0.0
  0
LINE
  5
63E
330
18
100
AcDbEntity
  8
L-1
  6
CONTINUOUS
 62
     7
100
AcDbLine
 10
533.612998943664
 20
291.319753463778
 30
0.0
 11
509.612998943664
 21
291.319753463778
 31
0.0
  0
LINE
  5
63F
330
18
100
AcDbEntity
  8
L-1
  6
CENTER2
 62
     1
 48
0.3
100
AcDbLine
 10
525.112998943664
 20
286.3922716997509
 30
0.0
 11
525.112998943664
 21
297.3808255407162
 31
0.0
  0
ARC
  5
640
330
18
100
AcDbEntity
  8
L-1
  6
CONTINUOUS
 62
     7
100
AcDbCircle
 10
509.612998943664
 20
293.319753463778
 30
0.0
 40
2.0
100
AcDbArc
 50
180.0
 51
270.0
  0
ARC
  5
642
330
18
100
AcDbEntity
  8
L-1
  6
PHANTOM2
 62
     3
 48
0.3
100
AcDbCircle
 10
512.5730920837944
 20
316.6400728343063
 30
0.0
 40
1.0
100
AcDbArc
 50
274.9999999999997
 51
343.7429721033957
  0
LINE
  5
643
330
18
100
AcDbEntity
  8
L-1
  6
PHANTOM2
 62
     3
 48
0.3
100
AcDbLine
 10
512.6602478265421
 20
315.6438781362146
 30
0.0
 11
511.8129989436639
 21
315.5697534637778
 31
0.0
  0
LINE
  5
644
330
18
100
AcDbEntity
  8
L-1
  6
PHANTOM2
 62
     3
 48
0.3
100
AcDbLine
 10
511.8129989436639
 20
315.5697534637778
 30
0.0
 11
511.1129989436639
 21
315.5697534637778
 31
0.0
  0
LINE
  5
645
330
18
100
AcDbEntity
  8
L-1
  6
PHANTOM2
 62
     3
 48
0.3
100
AcDbLine
 10
511.112998943664
 20
314.8197534637779
 30
0.0
 11
510.612998943664
 21
314.8197534637778
 31
0.0
  0
LINE
  5
646
330
18
100
AcDbEntity
  8
L-1
  6
PHANTOM2
 62
     3
 48
0.5
100
AcDbLine
 10
509.612998943664
 20
310.3197534637779
 30
0.0
 11
510.612998943664
 21
310.3197534637779
 31
0.0
  0
LINE
  5
647
330
18
100
AcDbEntity
  8
L-1
  6
CONTINUOUS
 62
     7
100
AcDbLine
 10
533.612998943664
 20
291.319753463778
 30
0.0
 11
533.612998943664
 21
293.319753463778
 31
0.0
  0
LINE
  5
648
330
18
100
AcDbEntity
  8
L-1
  6
PHANTOM2
 62
     3
 48
0.3
100
AcDbLine
 10
512.6602478265421
 20
320.995628791341
 30
0.0
 11
511.8129989436639
 21
321.0697534637778
 31
0.0
  0
LINE
  5
649
330
18
100
AcDbEntity
  8
L-1
  6
PHANTOM2
 62
     3
 48
0.3
100
AcDbLine
 10
512.6602478265421
 20
320.995628791341
 30
0.0
 11
511.8129989436639
 21
321.0697534637778
 31
0.0
  0
ARC
  5
64A
330
18
100
AcDbEntity
  8
L-1
  6
PHANTOM2
 62
     3
 48
0.3
100
AcDbCircle
 10
512.5730920837944
 20
319.9994340932492
 30
0.0
 40
1.0
100
AcDbArc
 50
16.25702789660426
 51
85.00000000000026
  0
LINE
  5
64B
330
18
100
AcDbEntity
  8
L-1
  6
PHANTOM2
 62
     3
 48
0.3
100
AcDbLine
 10
511.8129989436639
 20
321.0697534637779
 30
0.0
 11
511.1129989436639
 21
321.0697534637778
 31
0.0
  0
LINE
  5
64C
330
18
100
AcDbEntity
  8
L-1
  6
PHANTOM2
 62
     3
 48
0.3
100
AcDbLine
 10
511.1129989436639
 20
321.8197534637777
 30
0.0
 11
510.6129989436639
 21
321.8197534637778
 31
0.0
  0
LINE
  5
64D
330
18
100
AcDbEntity
  8
L-1
  6
CONTINUOUS
 62
     7
100
AcDbLine
 10
509.612998943664
 20
350.319753463778
 30
0.0
 11
507.612998943664
 21
350.319753463778
 31
0.0
  0
ARC
  5
64E
330
18
100
AcDbEntity
  8
L-1
  6
CONTINUOUS
 62
     7
100
AcDbCircle
 10
506.612998943664
 20
349.319753463778
 30
0.0
 40
1.0
100
AcDbArc
 50
0.0
 51
90.0
  0
LINE
  5
64F
330
18
100
AcDbEntity
  8
L-1
  6
PHANTOM2
 62
     4
 48
0.5
100
AcDbLine
 10
510.612998943664
 20
360.3197534637776
 30
0.0
 11
509.612998943664
 21
360.3197534637776
 31
0.0
  0
LINE
  5
650
330
18
100
AcDbEntity
  8
L-1
  6
PHANTOM2
 62
     3
 48
0.5
100
AcDbLine
 10
440.112998943664
 20
411.8197534637775
 30
0.0
 11
460.112998943664
 21
411.8197534637775
 31
0.0
  0
LINE
  5
651
330
18
100
AcDbEntity
  8
L-1
  6
PHANTOM2
 62
     3
 48
0.5
100
AcDbLine
 10
440.112998943664
 20
416.8197534637775
 30
0.0
 11
460.112998943664
 21
416.8197534637775
 31
0.0
  0
LINE
  5
652
330
18
100
AcDbEntity
  8
L-1
  6
PHANTOM2
 62
     3
 48
0.5
100
AcDbLine
 10
395.112998943664
 20
411.8197534637775
 30
0.0
 11
415.112998943664
 21
411.8197534637775
 31
0.0
  0
LINE
  5
653
330
18
100
AcDbEntity
  8
L-1
  6
PHANTOM2
 62
     3
 48
0.5
100
AcDbLine
 10
395.112998943664
 20
416.8197534637775
 30
0.0
 11
415.112998943664
 21
416.8197534637775
 31
0.0
  0
ARC
  5
654
330
18
100
AcDbEntity
  8
L-1
  6
PHANTOM2
 62
     3
 48
0.5
100
AcDbCircle
 10
395.112998943664
 20
414.3197534637774
 30
0.0
 40
2.5
100
AcDbArc
 50
90.0
 51
270.0
  0
ARC
  5
655
330
18
100
AcDbEntity
  8
L-1
  6
PHANTOM2
 62
     3
 48
0.5
100
AcDbCircle
 10
415.112998943664
 20
414.3197534637774
 30
0.0
 40
2.5
100
AcDbArc
 50
270.0
 51
90.0
  0
ARC
  5
656
330
18
100
AcDbEntity
  8
L-1
  6
PHANTOM2
 62
     3
 48
0.5
100
AcDbCircle
 10
440.112998943664
 20
414.3197534637774
 30
0.0
 40
2.5
100
AcDbArc
 50
90.0
 51
270.0
  0
ARC
  5
657
330
18
100
AcDbEntity
  8
L-1
  6
PHANTOM2
 62
     3
 48
0.5
100
AcDbCircle
 10
460.112998943664
 20
414.3197534637774
 30
0.0
 40
2.5
100
AcDbArc
 50
270.0
 51
90.0
  0
LINE
  5
658
330
18
100
AcDbEntity
  8
L-1
  6
PHANTOM2
 62
     3
 48
0.5
100
AcDbLine
 10
510.612998943664
 20
423.3197534637773
 30
0.0
 11
506.612998943664
 21
423.3197534637773
 31
0.0
  0
LINE
  5
659
330
18
100
AcDbEntity
  8
L-1
  6
PHANTOM2
 62
     3
 48
0.5
100
AcDbLine
 10
506.612998943664
 20
426.3197534637773
 30
0.0
 11
506.612998943664
 21
423.3197534637773
 31
0.0
  0
LINE
  5
6FB
330
18
100
AcDbEntity
  8
L-1
  6
CONTINUOUS
 62
     5
100
AcDbLine
 10
12.0
 20
450.0
 30
0.0
 11
12.0
 21
430.0
 31
0.0
  0
LINE
  5
6FD
330
18
100
AcDbEntity
  8
L-1
  6
CONTINUOUS
 62
     5
100
AcDbLine
 10
12.0
 20
550.0
 30
0.0
 11
12.0
 21
12.0
 31
0.0
  0
LINE
  5
715
330
18
100
AcDbEntity
  8
L-1
  6
CONTINUOUS
 62
     5
100
AcDbLine
 10
12.0
 20
12.0
 30
0.0
 11
770.0
 21
12.0
 31
0.0
  0
LINE
  5
729
330
18
100
AcDbEntity
  8
L-1
  6
CONTINUOUS
 62
     5
100
AcDbLine
 10
770.0
 20
550.0
 30
0.0
 11
12.0
 21
550.0
 31
0.0
  0
LINE
  5
72A
330
18
100
AcDbEntity
  8
L-1
  6
CONTINUOUS
 62
     5
100
AcDbLine
 10
770.0
 20
550.0
 30
0.0
 11
770.0
 21
12.0
 31
0.0
  0
LINE
  5
F79
330
18
100
AcDbEntity
  8
L-1
  6
CONTINUOUS
 62
     7
100
AcDbLine
 10
77.6129989436638
 20
168.9676078538759
 30
0.0
 11
53.61299894366379
 21
168.967607853876
 31
0.0
  0
INSERT
  5
1000
330
18
100
AcDbEntity
  8
L-1
100
AcDbBlockReference
  2
TK
 10
635.4164576001124
 20
19.55368474931972
 30
0.0
 41
2.0
 42
2.0
 43
2.0
  0
LINE
  5
1001
330
18
100
AcDbEntity
  8
L-1
  6
CONTINUOUS
 62
     5
100
AcDbLine
 10
610.0
 20
28.0
 30
0.0
 11
770.0
 21
28.0
 31
0.0
  0
LINE
  5
1002
330
18
100
AcDbEntity
  8
L-1
  6
CONTINUOUS
 62
     5
100
AcDbLine
 10
610.0
 20
72.0
 30
0.0
 11
770.0
 21
72.0
 31
0.0
  0
LINE
  5
1003
330
18
100
AcDbEntity
  8
L-1
  6
CONTINUOUS
 62
     5
100
AcDbLine
 10
610.0
 20
72.0
 30
0.0
 11
610.0
 21
12.0
 31
0.0
  0
TEXT
  5
1004
330
18
100
AcDbEntity
  8
L-2
  6
CONTINUOUS
 62
     2
100
AcDbText
 10
699.2314750329092
 20
75.72553666463182
 30
0.0
 40
8.0
  1
（単位：ｍｍ）
  7
MSゴシック
100
AcDbText
  0
TEXT
  5
1005
330
18
100
AcDbEntity
  8
L-1
  6
CONTINUOUS
 62
     2
100
AcDbText
 10
639.467276625183
 20
15.74748096608317
 30
0.0
 40
8.8
  1
東京通信機工業株式会社
  7
MSゴシック
100
AcDbText
  0
TEXT
  5
1006
330
18
100
AcDbEntity
  8
L-2
  6
CONTINUOUS
 62
     2
100
AcDbText
 10
622.5141248606226
 20
45.92973750957617
 30
0.0
 40
9.0
  1
ＭＴ２０ラック用フレーム－１Ｕ Ａｓｓｙ
 41
0.6
  7
MSゴシック
100
AcDbText
  0
LINE
  5
1042
330
18
100
AcDbEntity
  8
L-1
  6
CENTER2
 62
     1
 48
0.2
100
AcDbLine
 10
428.1129989436635
 20
175.4676078538762
 30
0.0
 11
428.1129989436635
 21
182.4676078538762
 31
0.0
  0
LINE
  5
1043
330
18
100
AcDbEntity
  8
L-1
  6
CENTER2
 62
     1
 48
0.2
100
AcDbLine
 10
431.6129989436635
 20
178.9676078538762
 30
0.0
 11
424.6129989436635
 21
178.9676078538762
 31
0.0
  0
LINE
  5
1044
330
18
100
AcDbEntity
  8
L-1
  6
CENTER2
 62
     1
 48
0.2
100
AcDbLine
 10
157.1129989436637
 20
175.4676078538762
 30
0.0
 11
157.1129989436637
 21
182.4676078538762
 31
0.0
  0
LINE
  5
1045
330
18
100
AcDbEntity
  8
L-1
  6
CENTER2
 62
     1
 48
0.2
100
AcDbLine
 10
160.6129989436638
 20
178.9676078538762
 30
0.0
 11
153.6129989436638
 21
178.9676078538762
 31
0.0
  0
LINE
  5
1046
330
18
100
AcDbEntity
  8
L-1
  6
CENTER2
 62
     1
 48
0.2
100
AcDbLine
 10
144.1129989436638
 20
175.4676078538762
 30
0.0
 11
144.1129989436638
 21
182.4676078538762
 31
0.0
  0
LINE
  5
1047
330
18
100
AcDbEntity
  8
L-1
  6
CENTER2
 62
     1
 48
0.2
100
AcDbLine
 10
147.6129989436637
 20
178.9676078538762
 30
0.0
 11
140.6129989436637
 21
178.9676078538762
 31
0.0
  0
LINE
  5
1083
330
18
100
AcDbEntity
  8
L-1
  6
CENTER2
 62
     1
 48
0.3
100
AcDbLine
 10
518.6012032698079
 20
175.0926078538762
 30
0.0
 11
531.6247946175196
 21
175.0926078538762
 31
0.0
  0
LINE
  5
1098
330
18
100
AcDbEntity
  8
L-1
  6
CENTER2
 62
     1
 48
0.3
100
AcDbLine
 10
53.60120326980791
 20
175.0926078538762
 30
0.0
 11
66.62479461751968
 21
175.0926078538762
 31
0.0
  0
LINE
  5
1099
330
18
100
AcDbEntity
  8
L-1
  6
CENTER2
 62
     1
 48
0.3
100
AcDbLine
 10
53.60120326980791
 20
206.8426078538762
 30
0.0
 11
66.62479461751968
 21
206.8426078538762
 31
0.0
  0
LINE
  5
109A
330
18
100
AcDbEntity
  8
L-1
  6
CONTINUOUS
 62
     7
100
AcDbLine
 10
58.61299894366379
 20
210.3426078538762
 30
0.0
 11
61.61299894366391
 21
210.3426078538761
 31
0.0
  0
LINE
  5
109B
330
18
100
AcDbEntity
  8
L-1
  6
CONTINUOUS
 62
     7
100
AcDbLine
 10
61.71299894366382
 20
178.6426078538761
 30
0.0
 11
58.51299894366377
 21
178.6426078538761
 31
0.0
  0
LINE
  5
109C
330
18
100
AcDbEntity
  8
L-1
  6
CONTINUOUS
 62
     7
100
AcDbLine
 10
61.71299894366382
 20
171.5426078538761
 30
0.0
 11
58.51299894366377
 21
171.5426078538761
 31
0.0
  0
ARC
  5
109D
330
18
100
AcDbEntity
  8
L-1
  6
CONTINUOUS
 62
     7
100
AcDbCircle
 10
60.11299894366368
 20
190.9676078538762
 30
0.0
 40
5.99999999999999
100
AcDbArc
 50
120.0000000000012
 51
59.99999999999875
  0
LINE
  5
109E
330
18
100
AcDbEntity
  8
L-1
  6
CENTER2
 62
     1
100
AcDbLine
 10
60.1129989436638
 20
175.5868416825462
 30
0.0
 11
60.1129989436638
 21
178.5907383138558
 31
0.0
  0
ARC
  5
109F
330
18
100
AcDbEntity
  8
L-1
  6
CONTINUOUS
 62
     7
100
AcDbCircle
 10
58.51299894366377
 20
175.0926078538761
 30
0.0
 40
3.549999999999999
100
AcDbArc
 50
90.0
 51
270.0
  0
LINE
  5
10A0
330
18
100
AcDbEntity
  8
L-1
  6
CONTINUOUS
 62
     7
100
AcDbLine
 10
57.1129989436638
 20
196.1637602765828
 30
0.0
 11
57.11299894366425
 21
203.6720360127128
 31
0.0
  0
ARC
  5
10A1
330
18
100
AcDbEntity
  8
L-1
  6
CONTINUOUS
 62
     7
100
AcDbCircle
 10
58.61299894366379
 20
206.8426078538762
 30
0.0
 40
3.5
100
AcDbArc
 50
90.0
 51
244.6230664748536
  0
ARC
  5
10A2
330
18
100
AcDbEntity
  8
L-1
  6
CONTINUOUS
 62
     7
100
AcDbCircle
 10
61.71299894366382
 20
175.0926078538761
 30
0.0
 40
3.549999999999999
100
AcDbArc
 50
270.0
 51
90.0
  0
LINE
  5
10A3
330
18
100
AcDbEntity
  8
L-1
  6
CONTINUOUS
 62
     7
100
AcDbLine
 10
63.1129989436638
 20
196.1637602765827
 30
0.0
 11
63.1129989436638
 21
203.672036012713
 31
0.0
  0
ARC
  5
10A4
330
18
100
AcDbEntity
  8
L-1
  6
CONTINUOUS
 62
     7
100
AcDbCircle
 10
61.61299894366379
 20
206.8426078538761
 30
0.0
 40
3.499999999999988
100
AcDbArc
 50
295.3769335251539
 51
90.0
  0
LINE
  5
10A5
330
18
100
AcDbEntity
  8
L-1
  6
CENTER2
 62
     1
100
AcDbLine
 10
60.1129989436638
 20
213.3544035277321
 30
0.0
 11
60.1129989436638
 21
168.5808121800203
 31
0.0
  0
MTEXT
  5
10D6
330
18
100
AcDbEntity
  8
L-2
  6
CONTINUOUS
 62
     2
100
AcDbMText
 10
339.2009355346324
 20
142.632744498293
 30
0.0
 40
6.4
 41
0.0
 71
     7
 72
     1
  1
アース線取付用ねじ穴
  7
MSゴシック
1001
ACAD
1000
MTEXTBEGIN
1070
    73
1070
     1
1070
    44
1040
1.0
1070
    74
1070
     0
1000
MTEXTEND
  0
MTEXT
  5
10D7
330
18
100
AcDbEntity
  8
L-2
  6
CONTINUOUS
 62
     2
100
AcDbMText
 10
452.9660564909552
 20
142.632744498293
 30
0.0
 40
6.4
 41
0.0
 71
     7
 72
     1
  1
アース線取付用穴
  7
MSゴシック
1001
ACAD
1000
MTEXTBEGIN
1070
    73
1070
     1
1070
    44
1040
1.0
1070
    74
1070
     0
1000
MTEXTEND
  0
LEADER
  5
10D8
330
18
100
AcDbEntity
  8
L-2
  6
CONTINUOUS
100
AcDbLeader
  3
CAD-STD
 73
     0
 74
     0
 75
     1
 40
6.4
 41
28.26395939086294
 76
     3
 10
442.7239880149419
 20
177.6204945653137
 30
0.0
 10
448.2143649841582
 20
151.3226691027958
 30
0.0
 10
453.2143649841582
 20
151.3226691027958
 30
0.0
340
10D9
1001
ACAD
1000
DSTYLE
1002
{
1070
     6
1000
OPEN
1070
    40
1040
2.0
1070
    77
1070
     1
1070
   147
1040
0.5
1002
}
1000
LEANOF
1010
0.0
1020
0.0
1030
0.0
  0
MTEXT
  5
10D9
330
18
100
AcDbEntity
  8
L-2
  6
CONTINUOUS
 62
     2
100
AcDbMText
 10
454.2143649841582
 20
152.3226691027958
 30
0.0
 40
6.4
 41
0.0
 71
     7
 72
     1
  1
\A1;2×%%C4.2
  7
MSゴシック
1001
ACAD
1000
MTEXTBEGIN
1070
    73
1070
     1
1070
    44
1040
1.0
1070
    74
1070
     0
1000
MTEXTEND
  0
LEADER
  5
10DA
330
18
100
AcDbEntity
  8
L-2
  6
CONTINUOUS
100
AcDbLeader
  3
CAD-STD
 73
     0
 75
     1
 40
6.4
 41
19.91472081218274
 76
     3
 10
426.2747432264405
 20
177.273259625767
 30
0.0
 10
422.8300875384275
 20
151.3430013585833
 30
0.0
 10
417.8300875384275
 20
151.3430013585833
 30
0.0
340
10DB
1001
ACAD
1000
DSTYLE
1002
{
1070
     6
1000
OPEN
1070
    40
1040
2.0
1070
    77
1070
     1
1070
   147
1040
0.5
1002
}
1000
LEANOF
1010
0.0
1020
0.0
1030
0.0
  0
MTEXT
  5
10DB
330
18
100
AcDbEntity
  8
L-2
  6
CONTINUOUS
 62
     2
100
AcDbMText
 10
416.8300875384274
 20
152.3430013585833
 30
0.0
 40
6.4
 41
0.0
 71
     9
 72
     1
  1
\A1;2×M5
  7
MSゴシック
1001
ACAD
1000
MTEXTBEGIN
1070
    73
1070
     1
1070
    44
1040
1.0
1070
    74
1070
     0
1000
MTEXTEND
  0
ARC
  5
10DC
330
18
100
AcDbEntity
  8
L-1
  6
CONTINUOUS
 62
     3
100
AcDbCircle
 10
428.1129989436635
 20
178.9676078538762
 30
0.0
 40
2.5
100
AcDbArc
 50
79.99999999999819
 51
349.9999999999998
  0
ARC
  5
10DD
330
18
100
AcDbEntity
  8
L-1
  6
CONTINUOUS
 62
     3
100
AcDbCircle
 10
157.1129989436637
 20
178.9676078538762
 30
0.0
 40
2.5
100
AcDbArc
 50
79.99999999999819
 51
349.9999999999998
  0
DIMENSION
  5
1137
330
18
100
AcDbEntity
  8
L-2
  6
CONTINUOUS
100
AcDbDimension
  2
*D4
 10
51.61299894366379
 20
247.8723799813211
 30
0.0
 11
292.6129989436637
 21
247.8723799813211
 31
0.0
 70
   160
  3
CAD-STD1
100
AcDbAlignedDimension
 13
533.6129989436638
 23
210.967607853876
 33
0.0
 14
51.61299894366379
 24
210.967607853876
 34
0.0
100
AcDbRotatedDimension
  0
DIMENSION
  5
1138
330
18
100
AcDbEntity
  8
L-2
  6
CONTINUOUS
100
AcDbDimension
  2
*D5
 10
525.1129989436638
 20
229.7369209500574
 30
0.0
 11
292.6129989436637
 21
229.7369209500574
 31
0.0
 70
   160
  3
CAD-STD1
100
AcDbAlignedDimension
 13
60.11299894366368
 23
213.5794035277318
 33
0.0
 14
525.1129989436638
 24
213.5794035277318
 34
0.0
100
AcDbRotatedDimension
  0
DIMENSION
  5
1139
330
18
100
AcDbEntity
  8
L-2
  6
CONTINUOUS
100
AcDbDimension
  2
*D6
 10
549.6490820806092
 20
168.9676078538762
 30
0.0
 11
545.4490820806092
 21
190.9676078538761
 31
0.0
 70
    32
  3
CAD-STD1
100
AcDbAlignedDimension
 13
531.6129989436635
 23
212.9676078538759
 33
0.0
 14
531.6129989436638
 24
168.9676078538762
 34
0.0
 50
90.0
100
AcDbRotatedDimension
  0
DIMENSION
  5
113A
330
18
100
AcDbEntity
  8
L-2
  6
CONTINUOUS
100
AcDbDimension
  2
*D7
 10
567.1641450843354
 20
426.3197534637773
 30
0.0
 11
567.1641450843353
 21
357.9751642267283
 31
0.0
 70
   160
  1
（<>）
  3
CAD-STD1
100
AcDbAlignedDimension
 13
533.612998943664
 23
291.3197534637779
 33
0.0
 14
506.612998943664
 24
426.3197534637773
 34
0.0
 50
90.0
100
AcDbRotatedDimension
  0
DIMENSION
  5
113B
330
18
100
AcDbEntity
  8
L-2
  6
CONTINUOUS
100
AcDbDimension
  2
*D8
 10
549.6490820806092
 20
291.3197534637779
 30
0.0
 11
549.6490820806091
 21
320.819753463778
 31
0.0
 70
   160
  3
CAD-STD1
100
AcDbAlignedDimension
 13
509.612998943664
 23
350.3197534637779
 33
0.0
 14
533.612998943664
 24
291.3197534637779
 34
0.0
 50
90.0
100
AcDbRotatedDimension
  0
DIMENSION
  5
113C
330
18
100
AcDbEntity
  8
L-2
  6
CONTINUOUS
100
AcDbDimension
  2
*D9
 10
510.612998943664
 20
441.7726529655879
 30
0.0
 11
292.612998943664
 21
441.7726529655879
 31
0.0
 70
   160
  1
（<>）
  3
CAD-STD1
100
AcDbAlignedDimension
 13
74.61299894366402
 23
423.3197534637772
 33
0.0
 14
510.612998943664
 24
423.3197534637772
 34
0.0
100
AcDbRotatedDimension
  0
LEADER
  5
113D
330
18
100
AcDbEntity
  8
L-2
  6
CONTINUOUS
100
AcDbLeader
  3
CAD-STD2
 73
     0
 74
     0
 75
     1
 40
6.516363636363635
 41
50.67636363636363
 76
     3
 10
389.012998943664
 20
397.1197534637773
 30
0.0
 10
424.4693040435347
 20
461.455841836934
 30
0.0
 10
429.4693040435347
 20
461.455841836934
 30
0.0
340
113E
1001
ACAD
1000
DSTYLE
1002
{
1070
     6
1000
OPEN
1070
    77
1070
     1
1070
   147
1040
0.5
1002
}
1000
LEANOF
1010
0.0
1020
0.0
1030
0.0
  0
MTEXT
  5
113E
330
18
100
AcDbEntity
  8
L-2
  6
CONTINUOUS
 62
     2
100
AcDbMText
 10
430.4693040435347
 20
462.455841836934
 30
0.0
 40
6.4
 41
0.0
 71
     7
 72
     1
  1
ワイヤーサドル
  7
BGS
1001
ACAD
1000
MTEXTBEGIN
1070
    73
1070
     1
1070
    44
1040
1.0
1070
    74
1070
     0
1000
MTEXTEND
  0
LEADER
  5
113F
330
18
100
AcDbEntity
  8
L-2
  6
CONTINUOUS
100
AcDbLeader
  3
CAD-STD2
 73
     0
 74
     0
 75
     1
 40
6.822848962061561
 41
63.72848484848485
 76
     3
 10
506.612998943664
 20
426.3197534637773
 30
0.0
 10
534.9663705434693
 20
461.455841836934
 30
0.0
 10
539.9663705434693
 20
461.455841836934
 30
0.0
340
1140
1001
ACAD
1000
DSTYLE
1002
{
1070
     6
1000
OPEN
1070
    77
1070
     1
1070
   147
1040
0.5
1002
}
1000
LEANOF
1010
0.0
1020
0.0
1030
0.0
  0
MTEXT
  5
1140
330
18
100
AcDbEntity
  8
L-2
  6
CONTINUOUS
 62
     2
100
AcDbMText
 10
540.9663705434693
 20
462.455841836934
 30
0.0
 40
6.4
 41
0.0
 71
     7
 72
     1
  1
ケーブルブラケット
  7
BGS
1001
ACAD
1000
MTEXTBEGIN
1070
    73
1070
     1
1070
    44
1040
1.0
1070
    74
1070
     0
1000
MTEXTEND
  0
MTEXT
  5
1141
330
18
100
AcDbEntity
  8
L-2
  6
CONTINUOUS
 62
     2
100
AcDbMText
 10
425.9509850017841
 20
453.0315908865275
 30
0.0
 40
6.4
 41
0.0
 71
     7
 72
     1
  1
 添付品
  7
BGS
1001
ACAD
1000
MTEXTBEGIN
1070
    73
1070
     1
1070
    44
1040
1.0
1070
    74
1070
     0
1000
MTEXTEND
  0
MTEXT
  5
1142
330
18
100
AcDbEntity
  8
L-2
  6
CONTINUOUS
 62
     2
100
AcDbMText
 10
536.2957092193389
 20
453.0315908865275
 30
0.0
 40
6.4
 41
0.0
 71
     7
 72
     1
  1
 添付品
  7
BGS
1001
ACAD
1000
MTEXTBEGIN
1070
    73
1070
     1
1070
    44
1040
1.0
1070
    74
1070
     0
1000
MTEXTEND
  0
ENDSEC
  0
SECTION
  2
OBJECTS
  0
DICTIONARY
  5
C
330
0
100
AcDbDictionary
  3
ACAD_GROUP
350
D
  3
ACAD_LAYOUT
350
4B
  3
ACAD_MLINESTYLE
350
E
  3
ACAD_PLOTSETTINGS
350
4C
  3
ACADDIM
350
D1
1001
ACAD
1000
TREAT_AS_HARD
1070
     0
  0
DICTIONARY
  5
12D7
330
18
100
AcDbDictionary
  3
ACAD_LAYOUTSELFREF
350
12D8
  0
DICTIONARY
  5
12D5
330
15
100
AcDbDictionary
  3
ACAD_LAYOUTSELFREF
350
12D6
  0
DICTIONARY
  5
D
102
{ACAD_REACTORS
330
C
102
}
330
C
100
AcDbDictionary
1001
ACAD
1000
TREAT_AS_HARD
1070
     0
  0
DICTIONARY
  5
4B
102
{ACAD_REACTORS
330
C
102
}
330
C
100
AcDbDictionary
1001
ACAD
1000
TREAT_AS_HARD
1070
     0
  0
DICTIONARY
  5
E
102
{ACAD_REACTORS
330
C
102
}
330
C
100
AcDbDictionary
  3
STANDARD
350
1B
1001
ACAD
1000
TREAT_AS_HARD
1070
     0
  0
DICTIONARY
  5
4C
102
{ACAD_REACTORS
330
C
102
}
330
C
100
AcDbDictionary
  3
A2
350
BB
  3
A3
350
C8
  3
A4
350
C2
  3
PDF_A2
350
B4
  3
PDF_A3
350
A3
  3
PDF_A4
350
98
1001
ACAD
1000
TREAT_AS_HARD
1070
     0
  0
XRECORD
  5
D1
102
{ACAD_REACTORS
330
C
102
}
330
C
100
AcDbXrecord
 90
   990106
  3
OPEN
 60
     0
 61
     0
 62
     4
 63
     4
 64
     1
 65
     0
 66
     0
 67
     3
 68
     1
 69
     0
 70
     0
 71
     0
 72
     0
 40
0.0
170
     1
  0
XRECORD
  5
12D8
102
{ACAD_REACTORS
330
12D7
102
}
330
12D7
100
AcDbXrecord
340
18
  0
XRECORD
  5
12D6
102
{ACAD_REACTORS
330
12D5
102
}
330
12D5
100
AcDbXrecord
340
15
  0
MLINESTYLE
  5
1B
102
{ACAD_REACTORS
330
E
102
}
330
E
100
AcDbMlineStyle
  2
STANDARD
 70
     0
  3

 62
     0
 51
90.0
 52
90.0
 71
     2
 49
0.5
 62
   256
  6
BYLAYER
 49
-0.5
 62
   256
  6
BYLAYER
  0
PLOTSETTINGS
  5
BB
102
{ACAD_REACTORS
330
4C
102
}
330
4C
100
AcDbPlotSettings
  1
A2
  2
Graphtec JC8100-A2.pc3
  4
User260
  6

 40
21.6781940460205
 41
6.649852275848388
 42
6.57928466796875
 43
6.649871826171875
 44
593.9366455078125
 45
419.9466552734374
 46
0.0
 47
-3.0
 48
0.0
 49
0.0
140
0.0
141
0.0
142
1.0
143
1.0
 70
  1712
 72
     1
 73
     0
 74
     0
  7
JC8100.ctb
 75
    16
147
1.0
148
0.0
149
0.0
  0
PLOTSETTINGS
  5
C8
102
{ACAD_REACTORS
330
4C
102
}
330
4C
100
AcDbPlotSettings
  1
A3
  2
Graphtec JC8100-A3.pc3
  4
User261
  6

 40
21.6781940460205
 41
6.649852275848388
 42
6.649871826171875
 43
6.649871826171875
 44
419.9466552734374
 45
296.9683227539062
 46
0.0
 47
0.0
 48
0.0
 49
0.0
140
0.0
141
0.0
142
1.0
143
1.0
 70
  1712
 72
     1
 73
     0
 74
     0
  7
JC8100.ctb
 75
    16
147
1.0
148
0.0
149
0.0
  0
PLOTSETTINGS
  5
C2
102
{ACAD_REACTORS
330
4C
102
}
330
4C
100
AcDbPlotSettings
  1
A4
  2
Graphtec JC8100-A4.pc3
  4
User262
  6

 40
21.6781940460205
 41
6.649852275848388
 42
6.649856567382812
 43
6.649871826171875
 44
209.9733276367187
 45
296.9683227539062
 46
0.0
 47
0.0
 48
0.0
 49
0.0
140
0.0
141
0.0
142
1.0
143
1.0
 70
  1712
 72
     1
 73
     0
 74
     0
  7
JC8100.ctb
 75
    16
147
1.0
148
0.0
149
0.0
  0
PLOTSETTINGS
  5
B4
102
{ACAD_REACTORS
330
4C
102
}
330
4C
100
AcDbPlotSettings
  1
PDF A2
  2
Adobe PDF_A2.pc3
  4
User187
  6

 40
3.174999952316284
 41
3.174999952316284
 42
3.17498779296875
 43
3.17498779296875
 44
594.0636596679687
 45
420.1583251953125
 46
20.0
 47
0.0
 48
0.0
 49
0.0
140
0.0
141
0.0
142
1.0
143
1.0
 70
  1712
 72
     1
 73
     0
 74
     0
  7
PDFstyle.ctb
 75
    16
147
1.0
148
0.0
149
0.0
  0
PLOTSETTINGS
  5
A3
102
{ACAD_REACTORS
330
4C
102
}
330
4C
100
AcDbPlotSettings
  1
PDF A3
  2
Adobe PDF_A3.pc3
  4
A3
  6

 40
3.174999952316284
 41
3.174999952316284
 42
3.17498779296875
 43
3.17498779296875
 44
297.0530090332031
 45
420.1583251953125
 46
15.0
 47
3.0
 48
0.0
 49
0.0
140
0.0
141
0.0
142
1.0
143
1.0
 70
  1712
 72
     1
 73
     0
 74
     0
  7
PDFstyle.ctb
 75
    16
147
1.0
148
0.0
149
0.0
  0
PLOTSETTINGS
  5
98
102
{ACAD_REACTORS
330
4C
102
}
330
4C
100
AcDbPlotSettings
  1
PDF A4
  2
Adobe PDF_A4.pc3
  4
A4
  6

 40
3.174999952316284
 41
3.174999952316284
 42
3.175003051757812
 43
3.17498779296875
 44
209.8886566162109
 45
297.0530090332031
 46
15.0
 47
3.0
 48
0.0
 49
0.0
140
0.0
141
0.0
142
1.0
143
1.0
 70
  1712
 72
     1
 73
     0
 74
     0
  7
PDFstyle.ctb
 75
    16
147
1.0
148
0.0
149
0.0
  0
ENDSEC
  0
EOF
