  0
SECTION
  2
HEADER
  9
$ACADVER
  1
AC1012
  9
$DWGCODEPAGE
  3
dos932
  9
$INSBASE
 10
0.0
 20
0.0
 30
0.0
  9
$EXTMIN
 10
11.99234404698995
 20
11.98463669908119
 30
-0.0000000000000053
  9
$EXTMAX
 10
772.0570994695549
 20
550.0343396149558
 30
0.0000000000000099
  9
$LIMMIN
 10
0.0
 20
0.0
  9
$LIMMAX
 10
420.0
 20
297.0
  9
$ORTHOMODE
 70
     1
  9
$REGENMODE
 70
     1
  9
$FILLMODE
 70
     1
  9
$QTEXTMODE
 70
     0
  9
$MIRRTEXT
 70
     1
  9
$DRAGMODE
 70
     2
  9
$LTSCALE
 40
1.0
  9
$OSMODE
 70
  3071
  9
$ATTMODE
 70
     1
  9
$TEXTSIZE
 40
3.5
  9
$TRACEWID
 40
1.0
  9
$TEXTSTYLE
  7
BGS
  9
$CLAYER
  8
L-1
  9
$CELTYPE
  6
CONTINUOUS
  9
$CECOLOR
 62
     7
  9
$CELTSCALE
 40
1.0
  9
$DELOBJ
 70
     1
  9
$DISPSILH
 70
     0
  9
$DIMSCALE
 40
2.0
  9
$DIMASZ
 40
2.5
  9
$DIMEXO
 40
0.5
  9
$DIMDLI
 40
8.0
  9
$DIMRND
 40
0.0
  9
$DIMDLE
 40
0.0
  9
$DIMEXE
 40
1.0
  9
$DIMTP
 40
0.0
  9
$DIMTM
 40
0.0
  9
$DIMTXT
 40
3.2
  9
$DIMCEN
 40
-0.5
  9
$DIMTSZ
 40
0.0
  9
$DIMTOL
 70
     0
  9
$DIMLIM
 70
     0
  9
$DIMTIH
 70
     0
  9
$DIMTOH
 70
     0
  9
$DIMSE1
 70
     0
  9
$DIMSE2
 70
     0
  9
$DIMTAD
 70
     1
  9
$DIMZIN
 70
     8
  9
$DIMBLK
  1

  9
$DIMASO
 70
     1
  9
$DIMSHO
 70
     1
  9
$DIMPOST
  1

  9
$DIMAPOST
  1

  9
$DIMALT
 70
     0
  9
$DIMALTD
 70
     2
  9
$DIMALTF
 40
0.0394
  9
$DIMLFAC
 40
1.0
  9
$DIMTOFL
 70
     1
  9
$DIMTVP
 40
0.0
  9
$DIMTIX
 70
     0
  9
$DIMSOXD
 70
     0
  9
$DIMSAH
 70
     1
  9
$DIMBLK1
  1
OPEN
  9
$DIMBLK2
  1
OPEN
  9
$DIMSTYLE
  2
CAD-STD
  9
$DIMCLRD
 70
     4
  9
$DIMCLRE
 70
     4
  9
$DIMCLRT
 70
     2
  9
$DIMTFAC
 40
0.625
  9
$DIMGAP
 40
0.5
  9
$DIMJUST
 70
     0
  9
$DIMSD1
 70
     0
  9
$DIMSD2
 70
     0
  9
$DIMTOLJ
 70
     1
  9
$DIMTZIN
 70
     8
  9
$DIMALTZ
 70
     0
  9
$DIMALTTZ
 70
     0
  9
$DIMFIT
 70
     3
  9
$DIMUPT
 70
     0
  9
$DIMUNIT
 70
     2
  9
$DIMDEC
 70
     4
  9
$DIMTDEC
 70
     4
  9
$DIMALTU
 70
     2
  9
$DIMALTTD
 70
     2
  9
$DIMTXSTY
  7
BGS
  9
$DIMAUNIT
 70
     0
  9
$LUNITS
 70
     2
  9
$LUPREC
 70
     4
  9
$SKETCHINC
 40
1.0
  9
$FILLETRAD
 40
0.0
  9
$AUNITS
 70
     0
  9
$AUPREC
 70
     0
  9
$MENU
  1
acad
  9
$ELEVATION
 40
0.0
  9
$PELEVATION
 40
0.0
  9
$THICKNESS
 40
0.0
  9
$LIMCHECK
 70
     0
  9
$BLIPMODE
 70
     0
  9
$CHAMFERA
 40
0.0
  9
$CHAMFERB
 40
0.0
  9
$CHAMFERC
 40
0.0
  9
$CHAMFERD
 40
0.0
  9
$SKPOLY
 70
     0
  9
$TDCREATE
 40
2453699.640865335
  9
$TDUPDATE
 40
2455658.434824756
  9
$TDINDWG
 40
0.0737011458
  9
$TDUSRTIMER
 40
0.0737011458
  9
$USRTIMER
 70
     1
  9
$ANGBASE
 50
0.0
  9
$ANGDIR
 70
     0
  9
$PDMODE
 70
     0
  9
$PDSIZE
 40
0.0
  9
$PLINEWID
 40
0.0
  9
$COORDS
 70
     0
  9
$SPLFRAME
 70
     0
  9
$SPLINETYPE
 70
     6
  9
$SPLINESEGS
 70
     8
  9
$ATTDIA
 70
     0
  9
$ATTREQ
 70
     1
  9
$HANDLING
 70
     1
  9
$HANDSEED
  5
196A
  9
$SURFTAB1
 70
     6
  9
$SURFTAB2
 70
     6
  9
$SURFTYPE
 70
     6
  9
$SURFU
 70
     6
  9
$SURFV
 70
     6
  9
$UCSNAME
  2

  9
$UCSORG
 10
0.0
 20
0.0
 30
0.0
  9
$UCSXDIR
 10
1.0
 20
0.0
 30
0.0
  9
$UCSYDIR
 10
0.0
 20
1.0
 30
0.0
  9
$PUCSNAME
  2

  9
$PUCSORG
 10
0.0
 20
0.0
 30
0.0
  9
$PUCSXDIR
 10
1.0
 20
0.0
 30
0.0
  9
$PUCSYDIR
 10
0.0
 20
1.0
 30
0.0
  9
$USERI1
 70
     0
  9
$USERI2
 70
     0
  9
$USERI3
 70
     0
  9
$USERI4
 70
     0
  9
$USERI5
 70
     0
  9
$USERR1
 40
0.0
  9
$USERR2
 40
0.0
  9
$USERR3
 40
0.0
  9
$USERR4
 40
0.0
  9
$USERR5
 40
0.0
  9
$WORLDVIEW
 70
     1
  9
$SHADEDGE
 70
     3
  9
$SHADEDIF
 70
    70
  9
$TILEMODE
 70
     1
  9
$MAXACTVP
 70
    16
  9
$PINSBASE
 10
0.0
 20
0.0
 30
0.0
  9
$PLIMCHECK
 70
     0
  9
$PEXTMIN
 10
1.000000000000000E+20
 20
1.000000000000000E+20
 30
1.000000000000000E+20
  9
$PEXTMAX
 10
-1.000000000000000E+20
 20
-1.000000000000000E+20
 30
-1.000000000000000E+20
  9
$PLIMMIN
 10
0.0
 20
0.0
  9
$PLIMMAX
 10
420.0
 20
297.0
  9
$UNITMODE
 70
     0
  9
$VISRETAIN
 70
     0
  9
$PLINEGEN
 70
     0
  9
$PSLTSCALE
 70
     1
  9
$TREEDEPTH
 70
  3020
  9
$PICKSTYLE
 70
     1
  9
$CMLSTYLE
  2
STANDARD
  9
$CMLJUST
 70
     0
  9
$CMLSCALE
 40
1.0
  9
$SAVEIMAGES
 70
     1
  0
ENDSEC
  0
SECTION
  2
CLASSES
  0
CLASS
  1
ACDBDICTIONARYWDFLT
  2
AcDbDictionaryWithDefault
  3
AutoCAD 2000
 90
    32768
280
     0
281
     0
  0
CLASS
  1
ACDBPLACEHOLDER
  2
AcDbPlaceHolder
  3
AutoCAD 2000
 90
    32768
280
     0
281
     0
  0
CLASS
  1
LAYOUT
  2
AcDbLayout
  3
AutoCAD 2000
 90
    32768
280
     0
281
     0
  0
CLASS
  1
PLOTSETTINGS
  2
AcDbPlotSettings
  3
AutoCAD 2000
 90
    32768
280
     0
281
     0
  0
CLASS
  1
DICTIONARYVAR
  2
AcDbDictionaryVar
  3
AutoCAD 2000
 90
    32768
280
     0
281
     0
  0
CLASS
  1
LONG_TRANSACTION
  2
AcDbLongTransaction
  3
AutoCAD 2000
 90
    32768
280
     0
281
     0
  0
CLASS
  1
LWPOLYLINE
  2
AcDbPolyline
  3
AutoCAD 2000
 90
    32768
280
     0
281
     1
  0
CLASS
  1
HATCH
  2
AcDbHatch
  3
AutoCAD 2000
 90
    32768
280
     0
281
     1
  0
CLASS
  1
XRECORD
  2
AcDbXrecord
  3
AutoCAD 2000
 90
    32768
280
     0
281
     0
  0
ENDSEC
  0
SECTION
  2
TABLES
  0
TABLE
  2
VPORT
  5
8
330
0
100
AcDbSymbolTable
 70
     2
  0
VPORT
  5
1965
330
8
100
AcDbSymbolTableRecord
100
AcDbViewportTableRecord
  2
*ACTIVE
 70
     0
 10
0.0
 20
0.0
 11
1.0
 21
1.0
 12
392.0247217582724
 22
281.0094881570185
 13
0.0
 23
0.0
 14
10.0
 24
10.0
 15
10.0
 25
10.0
 16
0.0
 26
0.0
 36
1.0
 17
0.0
 27
0.0
 37
0.0
 40
543.2566355247379
 41
2.182552504038772
 42
50.0
 43
0.0
 44
0.0
 50
0.0
 51
0.0
 71
     0
 72
   100
 73
     1
 74
     0
 75
     0
 76
     0
 77
     0
 78
     0
  0
ENDTAB
  0
TABLE
  2
LTYPE
  5
5
330
0
100
AcDbSymbolTable
 70
     4
  0
LTYPE
  5
12
330
5
100
AcDbSymbolTableRecord
100
AcDbLinetypeTableRecord
  2
BYBLOCK
 70
     0
  3

 72
    65
 73
     0
 40
0.0
  0
LTYPE
  5
13
330
5
100
AcDbSymbolTableRecord
100
AcDbLinetypeTableRecord
  2
BYLAYER
 70
     0
  3

 72
    65
 73
     0
 40
0.0
  0
LTYPE
  5
14
330
5
100
AcDbSymbolTableRecord
100
AcDbLinetypeTableRecord
  2
CONTINUOUS
 70
     0
  3
Solid line
 72
    65
 73
     0
 40
0.0
  0
LTYPE
  5
1F
330
5
100
AcDbSymbolTableRecord
100
AcDbLinetypeTableRecord
  2
CENTER2
 70
     0
  3
___ _ ___ _ ___ _ ___ _ ___ _ ___ _ ___ _ ___ _
 72
    65
 73
     4
 40
28.57499999999999
 49
19.05
 74
     0
 49
-3.174999999999999
 74
     0
 49
3.174999999999999
 74
     0
 49
-3.174999999999999
 74
     0
  0
LTYPE
  5
20
330
5
100
AcDbSymbolTableRecord
100
AcDbLinetypeTableRecord
  2
DASHED2
 70
     0
  3
_ _ _ _ _ _ _ _ _ _ _ _ _ _ _ _ _ _ _ _ _ _ _ _
 72
    65
 73
     2
 40
9.524999999999998
 49
6.349999999999999
 74
     0
 49
-3.174999999999999
 74
     0
  0
LTYPE
  5
D9
330
5
100
AcDbSymbolTableRecord
100
AcDbLinetypeTableRecord
  2
PHANTOM2
 70
     0
  3
Phantom (.5x) ___ _ _ ___ _ _ ___ _ _ ___ _ _
 72
    65
 73
     6
 40
31.75
 49
15.875
 74
     0
 49
-3.174999999999999
 74
     0
 49
3.174999999999999
 74
     0
 49
-3.174999999999999
 74
     0
 49
3.174999999999999
 74
     0
 49
-3.174999999999999
 74
     0
  0
ENDTAB
  0
TABLE
  2
LAYER
  5
2
330
0
100
AcDbSymbolTable
 70
     6
  0
LAYER
  5
F
330
2
100
AcDbSymbolTableRecord
100
AcDbLayerTableRecord
  2
0
 70
     0
 62
     7
  6
CONTINUOUS
  0
LAYER
  5
24
330
2
100
AcDbSymbolTableRecord
100
AcDbLayerTableRecord
  2
L-1
 70
     0
 62
     7
  6
CONTINUOUS
  0
LAYER
  5
25
330
2
100
AcDbSymbolTableRecord
100
AcDbLayerTableRecord
  2
L-2
 70
     0
 62
     7
  6
CONTINUOUS
  0
LAYER
  5
26
330
2
100
AcDbSymbolTableRecord
100
AcDbLayerTableRecord
  2
L-3
 70
     0
 62
     7
  6
CONTINUOUS
  0
LAYER
  5
27
330
2
100
AcDbSymbolTableRecord
100
AcDbLayerTableRecord
  2
L-4
 70
     0
 62
     7
  6
CONTINUOUS
  0
LAYER
  5
28
330
2
100
AcDbSymbolTableRecord
100
AcDbLayerTableRecord
  2
DEFPOINTS
 70
     0
 62
     7
  6
CONTINUOUS
  0
ENDTAB
  0
TABLE
  2
STYLE
  5
3
330
0
100
AcDbSymbolTable
 70
     6
  0
STYLE
  5
10
330
3
100
AcDbSymbolTableRecord
100
AcDbTextStyleTableRecord
  2
STANDARD
 70
     0
 40
0.0
 41
1.0
 50
0.0
 71
     0
 42
3.5
  3
txt
  4

  0
STYLE
  5
1D
330
3
100
AcDbSymbolTableRecord
100
AcDbTextStyleTableRecord
  2
BGS
 70
     0
 40
0.0
 41
1.0
 50
0.0
 71
     0
 42
3.5
  3
SIMPLEX.SHX
  4
BGSGS.SHX
  0
STYLE
  5
1E
330
3
100
AcDbSymbolTableRecord
100
AcDbTextStyleTableRecord
  2
TATEGAKI
 70
     4
 40
0.0
 41
1.0
 50
0.0
 71
     0
 42
3.5
  3
SIMPLEX.SHX
  4
BGSGS.SHX
  0
STYLE
  5
D8
330
3
100
AcDbSymbolTableRecord
100
AcDbTextStyleTableRecord
  2

 70
     1
 40
0.0
 41
1.0
 50
0.0
 71
     0
 42
3.5
  3
ltypeshp.shx
  4

  0
STYLE
  5
E8
330
3
100
AcDbSymbolTableRecord
100
AcDbTextStyleTableRecord
  2
SIMPLEX
 70
     0
 40
0.0
 41
1.0
 50
0.0
 71
     0
 42
0.2
  3
simplex
  4
bigfont
  0
STYLE
  5
FF2
330
3
100
AcDbSymbolTableRecord
100
AcDbTextStyleTableRecord
  2
MSゴシック
 70
     0
 40
0.0
 41
1.0
 50
0.0
 71
     0
 42
4.0
  3
MS Gothic.ttf
  4

1001
ACAD
1000
MS Gothic
1071
    32817
  0
ENDTAB
  0
TABLE
  2
VIEW
  5
6
330
0
100
AcDbSymbolTable
 70
     0
  0
ENDTAB
  0
TABLE
  2
UCS
  5
7
330
0
100
AcDbSymbolTable
 70
     0
  0
ENDTAB
  0
TABLE
  2
APPID
  5
9
330
0
100
AcDbSymbolTable
 70
     1
  0
APPID
  5
11
330
9
100
AcDbSymbolTableRecord
100
AcDbRegAppTableRecord
  2
ACAD
 70
     0
  0
ENDTAB
  0
TABLE
  2
DIMSTYLE
  5
A
330
0
100
AcDbSymbolTable
 70
     3
  0
DIMSTYLE
105
23
330
A
100
AcDbSymbolTableRecord
100
AcDbDimStyleTableRecord
  2
CAD-STD
 70
     0
  3

  4

  5

  6
OPEN
  7
OPEN
 40
1.0
 41
2.5
 42
0.5
 43
8.0
 44
1.0
 45
0.0
 46
0.0
 47
0.0
 48
0.0
140
3.2
141
-0.5
142
0.0
143
0.0394
144
1.0
145
0.0
146
0.625
147
0.5
 71
     0
 72
     0
 73
     0
 74
     0
 75
     0
 76
     0
 77
     1
 78
     8
170
     0
171
     2
172
     1
173
     1
174
     0
175
     0
176
     4
177
     4
178
     2
270
     2
271
     4
272
     4
273
     2
274
     2
340
1D
275
     0
280
     0
281
     0
282
     0
283
     1
284
     8
285
     0
286
     0
287
     3
288
     0
  0
DIMSTYLE
105
19F
330
A
100
AcDbSymbolTableRecord
100
AcDbDimStyleTableRecord
  2
CAD-STD2
 70
     0
  3

  4

  5

  6
OPEN
  7
OPEN
 40
2.0
 41
2.5
 42
0.5
 43
8.0
 44
1.0
 45
0.0
 46
0.0
 47
0.0
 48
0.0
140
3.2
141
-0.5
142
0.0
143
0.0394
144
1.0
145
0.0
146
0.625
147
0.5
 71
     0
 72
     0
 73
     0
 74
     0
 75
     0
 76
     0
 77
     1
 78
     8
170
     0
171
     2
172
     1
173
     1
174
     0
175
     0
176
     4
177
     4
178
     2
270
     2
271
     4
272
     4
273
     2
274
     2
340
1D
275
     0
280
     0
281
     0
282
     0
283
     1
284
     8
285
     0
286
     0
287
     3
288
     0
  0
DIMSTYLE
105
FF3
102
{ACAD_REACTORS
330
17DD
330
17DE
330
17DF
330
17E0
330
17E1
330
17E2
102
}
330
A
100
AcDbSymbolTableRecord
100
AcDbDimStyleTableRecord
  2
CAD-STD1
 70
     0
  3

  4

  5

  6
OPEN
  7
OPEN
 40
2.0
 41
2.5
 42
0.5
 43
8.0
 44
1.0
 45
0.0
 46
0.0
 47
0.0
 48
0.0
140
3.2
141
-0.5
142
0.0
143
0.0394
144
1.0
145
0.0
146
0.625
147
0.5
 71
     0
 72
     0
 73
     0
 74
     0
 75
     0
 76
     0
 77
     1
 78
     8
170
     0
171
     2
172
     0
173
     1
174
     0
175
     0
176
     4
177
     4
178
     2
270
     2
271
     4
272
     4
273
     2
274
     2
340
FF2
275
     0
280
     0
281
     0
282
     0
283
     1
284
     8
285
     0
286
     0
287
     3
288
     0
  0
ENDTAB
  0
TABLE
  2
BLOCK_RECORD
  5
1
330
0
100
AcDbSymbolTable
 70
    10
  0
BLOCK_RECORD
  5
18
102
{ACAD_XDICTIONARY
360
1968
102
}
330
1
100
AcDbSymbolTableRecord
100
AcDbBlockTableRecord
  2
*MODEL_SPACE
  0
BLOCK_RECORD
  5
15
102
{ACAD_XDICTIONARY
360
1966
102
}
330
1
100
AcDbSymbolTableRecord
100
AcDbBlockTableRecord
  2
*PAPER_SPACE
  0
BLOCK_RECORD
  5
1C
330
1
100
AcDbSymbolTableRecord
100
AcDbBlockTableRecord
  2
ADARROW
  0
BLOCK_RECORD
  5
35
330
1
100
AcDbSymbolTableRecord
100
AcDbBlockTableRecord
  2
_OPEN
  0
BLOCK_RECORD
  5
E0
330
1
100
AcDbSymbolTableRecord
100
AcDbBlockTableRecord
  2
TK
  0
BLOCK_RECORD
  5
E9
330
1
100
AcDbSymbolTableRecord
100
AcDbBlockTableRecord
  2
A3-WAKU
  0
BLOCK_RECORD
  5
17E9
330
1
100
AcDbSymbolTableRecord
100
AcDbBlockTableRecord
  2
*D4
  0
BLOCK_RECORD
  5
17F5
330
1
100
AcDbSymbolTableRecord
100
AcDbBlockTableRecord
  2
*D5
  0
BLOCK_RECORD
  5
1801
330
1
100
AcDbSymbolTableRecord
100
AcDbBlockTableRecord
  2
*D6
  0
BLOCK_RECORD
  5
180D
330
1
100
AcDbSymbolTableRecord
100
AcDbBlockTableRecord
  2
*D7
  0
BLOCK_RECORD
  5
1819
330
1
100
AcDbSymbolTableRecord
100
AcDbBlockTableRecord
  2
*D8
  0
BLOCK_RECORD
  5
1825
330
1
100
AcDbSymbolTableRecord
100
AcDbBlockTableRecord
  2
*D9
  0
ENDTAB
  0
ENDSEC
  0
SECTION
  2
BLOCKS
  0
BLOCK
  5
2B
330
18
100
AcDbEntity
  8
0
100
AcDbBlockBegin
  2
*MODEL_SPACE
 70
     0
 10
0.0
 20
0.0
 30
0.0
  3
*MODEL_SPACE
  1

  0
ENDBLK
  5
2C
330
18
100
AcDbEntity
  8
0
100
AcDbBlockEnd
  0
BLOCK
  5
29
330
15
100
AcDbEntity
 67
     1
  8
0
100
AcDbBlockBegin
  2
*PAPER_SPACE
 70
     0
 10
0.0
 20
0.0
 30
0.0
  3
*PAPER_SPACE
  1

  0
ENDBLK
  5
2A
330
15
100
AcDbEntity
 67
     1
  8
0
100
AcDbBlockEnd
  0
BLOCK
  5
2D
330
1C
100
AcDbEntity
  8
0
100
AcDbBlockBegin
  2
ADARROW
 70
     0
 10
0.0
 20
0.0
 30
0.0
  3
ADARROW
  1

  0
LINE
  5
2E
330
1C
100
AcDbEntity
  8
0
  6
BYBLOCK
 62
     0
100
AcDbLine
 10
0.0
 20
0.0
 30
0.0
 11
-0.9659258262890659
 21
-0.2588190451025127
 31
0.0
  0
LINE
  5
2F
330
1C
100
AcDbEntity
  8
0
  6
BYBLOCK
 62
     0
100
AcDbLine
 10
-1.0
 20
0.0
 30
0.0
 11
0.0
 21
0.0
 31
0.0
  0
LINE
  5
30
330
1C
100
AcDbEntity
  8
0
  6
BYBLOCK
 62
     0
100
AcDbLine
 10
0.0
 20
0.0
 30
0.0
 11
-0.9659258262890659
 21
0.2588190451025127
 31
0.0
  0
ENDBLK
  5
31
330
1C
100
AcDbEntity
  8
0
100
AcDbBlockEnd
  0
BLOCK
  5
36
330
35
100
AcDbEntity
  8
0
100
AcDbBlockBegin
  2
_OPEN
 70
     0
 10
0.0
 20
0.0
 30
0.0
  3
_OPEN
  1

  0
LINE
  5
37
330
35
100
AcDbEntity
  8
0
  6
BYBLOCK
 62
     0
100
AcDbLine
 10
-1.0
 20
0.1666666666666666
 30
0.0
 11
0.0
 21
0.0
 31
0.0
  0
LINE
  5
38
330
35
100
AcDbEntity
  8
0
  6
BYBLOCK
 62
     0
100
AcDbLine
 10
0.0
 20
0.0
 30
0.0
 11
-1.0
 21
-0.1666666666666666
 31
0.0
  0
LINE
  5
39
330
35
100
AcDbEntity
  8
0
  6
BYBLOCK
 62
     0
100
AcDbLine
 10
0.0
 20
0.0
 30
0.0
 11
-1.0
 21
0.0
 31
0.0
  0
ENDBLK
  5
3A
330
35
100
AcDbEntity
  8
0
100
AcDbBlockEnd
  0
BLOCK
  5
E6
330
E0
100
AcDbEntity
  8
0
100
AcDbBlockBegin
  2
TK
 70
     0
 10
0.0
 20
0.0
 30
0.0
  3
TK
  1

  0
TEXT
  5
E1
330
E0
100
AcDbEntity
  8
0
  6
CONTINUOUS
 62
     2
100
AcDbText
 10
-8.056255308109314
 20
-1.428396170613346
 30
0.0
 40
2.7
  1
ＴＫ
  7
BGS
100
AcDbText
  0
LINE
  5
E2
330
E0
100
AcDbEntity
  8
0
  6
CONTINUOUS
 62
     2
100
AcDbLine
 10
-10.09705202413073
 20
0.1332646889774125
 30
0.0
 11
-5.095052024130723
 21
3.133264688977412
 31
0.0
  0
LINE
  5
E3
330
E0
100
AcDbEntity
  8
0
  6
CONTINUOUS
 62
     2
100
AcDbLine
 10
-10.09705202413073
 20
0.1332646889774125
 30
0.0
 11
-5.095052024130723
 21
-2.866735311022587
 31
0.0
  0
LINE
  5
E4
330
E0
100
AcDbEntity
  8
0
  6
CONTINUOUS
 62
     2
100
AcDbLine
 10
-5.095052024130723
 20
3.133264688977412
 30
0.0
 11
-0.0970520241307327
 21
0.1332646889774125
 31
0.0
  0
LINE
  5
E5
330
E0
100
AcDbEntity
  8
0
  6
CONTINUOUS
 62
     2
100
AcDbLine
 10
-5.095052024130723
 20
-2.866735311022587
 30
0.0
 11
-0.0970520241307327
 21
0.1332646889774125
 31
0.0
  0
ENDBLK
  5
E7
330
E0
100
AcDbEntity
  8
0
100
AcDbBlockEnd
  0
BLOCK
  5
153
330
E9
100
AcDbEntity
  8
0
100
AcDbBlockBegin
  2
A3-WAKU
 70
     0
 10
0.0
 20
0.0
 30
0.0
  3
A3-WAKU
  1

  0
INSERT
  5
EA
330
E9
100
AcDbEntity
  8
0
100
AcDbBlockReference
  2
TK
 10
317.0726460431471
 20
9.776842374659864
 30
0.0
  0
TEXT
  5
EB
330
E9
100
AcDbEntity
  8
L-1
  6
CONTINUOUS
 62
     2
100
AcDbText
 10
221.7734457438838
 20
41.38067661600113
 30
0.0
 40
4.0
  1
日
  7
BGS
100
AcDbText
  0
TEXT
  5
EC
330
E9
100
AcDbEntity
  8
L-1
  6
CONTINUOUS
 62
     2
100
AcDbText
 10
217.9265709142159
 20
41.24471250686361
 30
0.0
 40
4.0
  1
月
  7
BGS
100
AcDbText
  0
TEXT
  5
ED
330
E9
100
AcDbEntity
  8
L-1
  6
CONTINUOUS
 62
     2
100
AcDbText
 10
214.3020587914652
 20
41.4214658487424
 30
0.0
 40
4.0
  1
年
  7
BGS
100
AcDbText
  0
LINE
  5
EE
330
E9
100
AcDbEntity
  8
L-1
  6
CONTINUOUS
 62
     5
100
AcDbLine
 10
305.0
 20
46.0
 30
0.0
 11
305.0
 21
6.0
 31
0.0
  0
LINE
  5
EF
330
E9
100
AcDbEntity
  8
L-1
  6
CONTINUOUS
 62
     4
100
AcDbLine
 10
209.0
 20
11.0
 30
0.0
 11
210.4999999999999
 21
11.0
 31
0.0
  0
LINE
  5
F0
330
E9
100
AcDbEntity
  8
L-1
  6
CONTINUOUS
 62
     4
100
AcDbLine
 10
209.0
 20
16.0
 30
0.0
 11
210.4999999999999
 21
16.0
 31
0.0
  0
LINE
  5
F1
330
E9
100
AcDbEntity
  8
L-1
  6
CONTINUOUS
 62
     4
100
AcDbLine
 10
214.0
 20
46.0
 30
0.0
 11
214.0
 21
6.0
 31
0.0
  0
LINE
  5
F2
330
E9
100
AcDbEntity
  8
L-1
  6
CONTINUOUS
 62
     5
100
AcDbLine
 10
6.0
 20
225.0
 30
0.0
 11
6.0
 21
215.0
 31
0.0
  0
LINE
  5
F3
330
E9
100
AcDbEntity
  8
L-1
  6
CONTINUOUS
 62
     5
100
AcDbLine
 10
6.0
 20
215.0
 30
0.0
 11
16.0
 21
215.0
 31
0.0
  0
LINE
  5
F4
330
E9
100
AcDbEntity
  8
L-1
  6
CONTINUOUS
 62
     5
100
AcDbLine
 10
6.0
 20
275.0
 30
0.0
 11
6.0
 21
225.0
 31
0.0
  0
LINE
  5
F5
330
E9
100
AcDbEntity
  8
L-1
  6
CONTINUOUS
 62
     5
100
AcDbLine
 10
16.0
 20
275.0
 30
0.0
 11
16.0
 21
228.0
 31
0.0
  0
LINE
  5
F6
330
E9
100
AcDbEntity
  8
L-1
  6
CONTINUOUS
 62
     5
100
AcDbLine
 10
16.0
 20
228.0
 30
0.0
 11
16.0
 21
228.0
 31
0.0
  0
LINE
  5
F7
330
E9
100
AcDbEntity
  8
L-1
  6
CONTINUOUS
 62
     5
100
AcDbLine
 10
16.0
 20
228.0
 30
0.0
 11
16.0
 21
228.0
 31
0.0
  0
LINE
  5
F8
330
E9
100
AcDbEntity
  8
L-1
  6
CONTINUOUS
 62
     5
100
AcDbLine
 10
16.0
 20
228.0
 30
0.0
 11
16.0
 21
225.0
 31
0.0
  0
TEXT
  5
F9
330
E9
100
AcDbEntity
  8
L-1
  6
CONTINUOUS
 62
     2
100
AcDbText
 10
3.14847458495825
 20
248.9633550277341
 30
0.0
 40
2.5
  1
Ａ
  7
SIMPLEX
100
AcDbText
  0
LINE
  5
FA
330
E9
100
AcDbEntity
  8
L-1
  6
CONTINUOUS
 62
     5
100
AcDbLine
 10
378.0
 20
24.0
 30
0.0
 11
378.0
 21
6.0
 31
0.0
  0
LINE
  5
FB
330
E9
100
AcDbEntity
  8
L-1
  6
CONTINUOUS
 62
     4
100
AcDbLine
 10
357.0
 20
275.0
 30
0.0
 11
357.0
 21
273.4999999999999
 31
0.0
  0
LINE
  5
FC
330
E9
100
AcDbEntity
  8
L-1
  6
CONTINUOUS
 62
     4
100
AcDbLine
 10
345.0
 20
275.0
 30
0.0
 11
345.0
 21
273.4999999999999
 31
0.0
  0
LINE
  5
FD
330
E9
100
AcDbEntity
  8
L-1
  6
CONTINUOUS
 62
     4
100
AcDbLine
 10
310.0
 20
275.0
 30
0.0
 11
310.0
 21
273.4999999999999
 31
0.0
  0
LINE
  5
FE
330
E9
100
AcDbEntity
  8
L-1
  6
CONTINUOUS
 62
     4
100
AcDbLine
 10
275.0
 20
275.0
 30
0.0
 11
275.0
 21
273.4999999999999
 31
0.0
  0
LINE
  5
FF
330
E9
100
AcDbEntity
  8
L-1
  6
CONTINUOUS
 62
     4
100
AcDbLine
 10
227.0
 20
275.0
 30
0.0
 11
227.0
 21
273.4999999999999
 31
0.0
  0
LINE
  5
100
330
E9
100
AcDbEntity
  8
L-1
  6
CONTINUOUS
 62
     4
100
AcDbLine
 10
215.0
 20
275.0
 30
0.0
 11
215.0
 21
273.4999999999999
 31
0.0
  0
LINE
  5
101
330
E9
100
AcDbEntity
  8
L-1
  6
CONTINUOUS
 62
     4
100
AcDbLine
 10
383.4999999999999
 20
209.0
 30
0.0
 11
385.0
 21
209.0
 31
0.0
  0
LINE
  5
102
330
E9
100
AcDbEntity
  8
L-1
  6
CONTINUOUS
 62
     4
100
AcDbLine
 10
383.4999999999999
 20
215.0
 30
0.0
 11
385.0
 21
215.0
 31
0.0
  0
LINE
  5
103
330
E9
100
AcDbEntity
  8
L-1
  6
CONTINUOUS
 62
     4
100
AcDbLine
 10
383.4999999999999
 20
221.0
 30
0.0
 11
385.0
 21
221.0
 31
0.0
  0
LINE
  5
104
330
E9
100
AcDbEntity
  8
L-1
  6
CONTINUOUS
 62
     4
100
AcDbLine
 10
383.4999999999999
 20
227.0
 30
0.0
 11
385.0
 21
227.0
 31
0.0
  0
LINE
  5
105
330
E9
100
AcDbEntity
  8
L-1
  6
CONTINUOUS
 62
     4
100
AcDbLine
 10
383.4999999999999
 20
233.0
 30
0.0
 11
385.0
 21
233.0
 31
0.0
  0
LINE
  5
106
330
E9
100
AcDbEntity
  8
L-1
  6
CONTINUOUS
 62
     4
100
AcDbLine
 10
383.4999999999999
 20
239.0
 30
0.0
 11
385.0
 21
239.0
 31
0.0
  0
LINE
  5
107
330
E9
100
AcDbEntity
  8
L-1
  6
CONTINUOUS
 62
     4
100
AcDbLine
 10
383.4999999999999
 20
245.0
 30
0.0
 11
385.0
 21
245.0
 31
0.0
  0
LINE
  5
108
330
E9
100
AcDbEntity
  8
L-1
  6
CONTINUOUS
 62
     4
100
AcDbLine
 10
383.4999999999999
 20
251.0
 30
0.0
 11
385.0
 21
251.0
 31
0.0
  0
LINE
  5
109
330
E9
100
AcDbEntity
  8
L-1
  6
CONTINUOUS
 62
     4
100
AcDbLine
 10
383.4999999999999
 20
257.0
 30
0.0
 11
385.0
 21
257.0
 31
0.0
  0
LINE
  5
10A
330
E9
100
AcDbEntity
  8
L-1
  6
CONTINUOUS
 62
     4
100
AcDbLine
 10
383.4999999999999
 20
263.0
 30
0.0
 11
385.0
 21
263.0
 31
0.0
  0
LINE
  5
10B
330
E9
100
AcDbEntity
  8
L-1
  6
CONTINUOUS
 62
     4
100
AcDbLine
 10
383.4999999999999
 20
269.0
 30
0.0
 11
385.0
 21
269.0
 31
0.0
  0
LINE
  5
10C
330
E9
100
AcDbEntity
  8
L-1
  6
CONTINUOUS
 62
     5
100
AcDbLine
 10
16.0
 20
6.0
 30
0.0
 11
385.0
 21
6.0
 31
0.0
  0
LINE
  5
10D
330
E9
100
AcDbEntity
  8
L-1
  6
CONTINUOUS
 62
     4
100
AcDbLine
 10
271.4999999999999
 20
31.0
 30
0.0
 11
273.0
 21
31.0
 31
0.0
  0
LINE
  5
10E
330
E9
100
AcDbEntity
  8
L-1
  6
CONTINUOUS
 62
     4
100
AcDbLine
 10
271.4999999999999
 20
36.0
 30
0.0
 11
273.0
 21
36.0
 31
0.0
  0
LINE
  5
10F
330
E9
100
AcDbEntity
  8
L-1
  6
CONTINUOUS
 62
     4
100
AcDbLine
 10
209.0
 20
21.0
 30
0.0
 11
210.4999999999999
 21
21.0
 31
0.0
  0
LINE
  5
110
330
E9
100
AcDbEntity
  8
L-1
  6
CONTINUOUS
 62
     4
100
AcDbLine
 10
209.0
 20
26.0
 30
0.0
 11
210.4999999999999
 21
26.0
 31
0.0
  0
LINE
  5
111
330
E9
100
AcDbEntity
  8
L-1
  6
CONTINUOUS
 62
     4
100
AcDbLine
 10
209.0
 20
31.0
 30
0.0
 11
210.4999999999999
 21
31.0
 31
0.0
  0
LINE
  5
112
330
E9
100
AcDbEntity
  8
L-1
  6
CONTINUOUS
 62
     4
100
AcDbLine
 10
209.0
 20
36.0
 30
0.0
 11
210.4999999999999
 21
36.0
 31
0.0
  0
LINE
  5
113
330
E9
100
AcDbEntity
  8
L-1
  6
CONTINUOUS
 62
     4
100
AcDbLine
 10
16.0
 20
41.0
 30
0.0
 11
17.5
 21
41.0
 31
0.0
  0
LINE
  5
114
330
E9
100
AcDbEntity
  8
L-1
  6
CONTINUOUS
 62
     4
100
AcDbLine
 10
16.0
 20
36.0
 30
0.0
 11
17.5
 21
36.0
 31
0.0
  0
LINE
  5
115
330
E9
100
AcDbEntity
  8
L-1
  6
CONTINUOUS
 62
     4
100
AcDbLine
 10
16.0
 20
31.0
 30
0.0
 11
17.5
 21
31.0
 31
0.0
  0
LINE
  5
116
330
E9
100
AcDbEntity
  8
L-1
  6
CONTINUOUS
 62
     4
100
AcDbLine
 10
16.0
 20
26.0
 30
0.0
 11
17.5
 21
26.0
 31
0.0
  0
LINE
  5
117
330
E9
100
AcDbEntity
  8
L-1
  6
CONTINUOUS
 62
     4
100
AcDbLine
 10
16.0
 20
21.0
 30
0.0
 11
17.5
 21
21.0
 31
0.0
  0
LINE
  5
118
330
E9
100
AcDbEntity
  8
L-1
  6
CONTINUOUS
 62
     4
100
AcDbLine
 10
16.0
 20
16.0
 30
0.0
 11
17.5
 21
16.0
 31
0.0
  0
LINE
  5
119
330
E9
100
AcDbEntity
  8
L-1
  6
CONTINUOUS
 62
     4
100
AcDbLine
 10
16.0
 20
11.0
 30
0.0
 11
17.5
 21
11.0
 31
0.0
  0
TEXT
  5
11A
330
E9
100
AcDbEntity
  8
L-1
  6
CONTINUOUS
 62
     2
100
AcDbText
 10
12.76631437922492
 20
14.65247426876108
 30
0.0
 40
2.5
  1
Ｆ
  7
SIMPLEX
100
AcDbText
  0
TEXT
  5
11B
330
E9
100
AcDbEntity
  8
L-1
  6
CONTINUOUS
 62
     2
100
AcDbText
 10
12.98891014823959
 20
49.71822326110082
 30
0.0
 40
2.5
  1
Ｅ
  7
SIMPLEX
100
AcDbText
  0
TEXT
  5
11C
330
E9
100
AcDbEntity
  8
L-1
  6
CONTINUOUS
 62
     2
100
AcDbText
 10
12.79390151665018
 20
99.7796990401785
 30
0.0
 40
2.5
  1
Ｄ
  7
SIMPLEX
100
AcDbText
  0
TEXT
  5
11D
330
E9
100
AcDbEntity
  8
L-1
  6
CONTINUOUS
 62
     2
100
AcDbText
 10
12.8389035085554
 20
149.6780080942729
 30
0.0
 40
2.5
  1
Ｃ
  7
SIMPLEX
100
AcDbText
  0
TEXT
  5
11E
330
E9
100
AcDbEntity
  8
L-1
  6
CONTINUOUS
 62
     2
100
AcDbText
 10
12.77890085268177
 20
199.7444459295554
 30
0.0
 40
2.5
  1
Ｂ
  7
SIMPLEX
100
AcDbText
  0
LINE
  5
11F
330
E9
100
AcDbEntity
  8
L-1
  6
CONTINUOUS
 62
     5
100
AcDbLine
 10
16.0
 20
225.0
 30
0.0
 11
16.0
 21
6.0
 31
0.0
  0
LINE
  5
120
330
E9
100
AcDbEntity
  8
L-1
  6
CONTINUOUS
 62
     5
100
AcDbLine
 10
385.0
 20
275.0
 30
0.0
 11
6.0
 21
275.0
 31
0.0
  0
LINE
  5
121
330
E9
100
AcDbEntity
  8
L-1
  6
CONTINUOUS
 62
     5
100
AcDbLine
 10
385.0
 20
275.0
 30
0.0
 11
385.0
 21
6.0
 31
0.0
  0
TEXT
  5
122
330
E9
100
AcDbEntity
  8
L-1
  6
CONTINUOUS
 62
     2
100
AcDbText
 10
374.3530698408897
 20
275.518653884599
 30
0.0
 40
2.5
  1
８
  7
SIMPLEX
100
AcDbText
  0
TEXT
  5
123
330
E9
100
AcDbEntity
  8
L-1
  6
CONTINUOUS
 62
     2
100
AcDbText
 10
339.8896317304588
 20
275.4702655871128
 30
0.0
 40
2.5
  1
７
  7
SIMPLEX
100
AcDbText
  0
TEXT
  5
124
330
E9
100
AcDbEntity
  8
L-1
  6
CONTINUOUS
 62
     2
100
AcDbText
 10
289.8442613906334
 20
275.4841364783273
 30
0.0
 40
2.5
  1
６
  7
SIMPLEX
100
AcDbText
  0
TEXT
  5
125
330
E9
100
AcDbEntity
  8
L-1
  6
CONTINUOUS
 62
     2
100
AcDbText
 10
239.7308355410698
 20
275.5018948672063
 30
0.0
 40
2.5
  1
５
  7
SIMPLEX
100
AcDbText
  0
TEXT
  5
126
330
E9
100
AcDbEntity
  8
L-1
  6
CONTINUOUS
 62
     2
100
AcDbText
 10
189.7535207109825
 20
275.4425238046838
 30
0.0
 40
2.5
  1
４
  7
SIMPLEX
100
AcDbText
  0
TEXT
  5
127
330
E9
100
AcDbEntity
  8
L-1
  6
CONTINUOUS
 62
     2
100
AcDbText
 10
139.8669465605461
 20
275.4841364783273
 30
0.0
 40
2.5
  1
３
  7
SIMPLEX
100
AcDbText
  0
TEXT
  5
128
330
E9
100
AcDbEntity
  8
L-1
  6
CONTINUOUS
 62
     2
100
AcDbText
 10
89.82157622072065
 20
275.4702655871128
 30
0.0
 40
2.5
  1
２
  7
SIMPLEX
100
AcDbText
  0
TEXT
  5
129
330
E9
100
AcDbEntity
  8
L-1
  6
CONTINUOUS
 62
     2
100
AcDbText
 10
39.84426139063344
 20
275.4880239759918
 30
0.0
 40
2.5
  1
１
  7
SIMPLEX
100
AcDbText
  0
LINE
  5
12A
330
E9
100
AcDbEntity
  8
L-1
  6
CONTINUOUS
 62
     4
100
AcDbLine
 10
366.0
 20
278.0
 30
0.0
 11
366.0
 21
275.0
 31
0.0
  0
LINE
  5
12B
330
E9
100
AcDbEntity
  8
L-1
  6
CONTINUOUS
 62
     4
100
AcDbLine
 10
316.0
 20
278.0
 30
0.0
 11
316.0
 21
275.0
 31
0.0
  0
LINE
  5
12C
330
E9
100
AcDbEntity
  8
L-1
  6
CONTINUOUS
 62
     4
100
AcDbLine
 10
266.0
 20
278.0
 30
0.0
 11
266.0
 21
275.0
 31
0.0
  0
LINE
  5
12D
330
E9
100
AcDbEntity
  8
L-1
  6
CONTINUOUS
 62
     4
100
AcDbLine
 10
216.0
 20
278.0
 30
0.0
 11
216.0
 21
275.0
 31
0.0
  0
LINE
  5
12E
330
E9
100
AcDbEntity
  8
L-1
  6
CONTINUOUS
 62
     4
100
AcDbLine
 10
166.0
 20
278.0
 30
0.0
 11
166.0
 21
275.0
 31
0.0
  0
LINE
  5
12F
330
E9
100
AcDbEntity
  8
L-1
  6
CONTINUOUS
 62
     4
100
AcDbLine
 10
116.0
 20
278.0
 30
0.0
 11
116.0
 21
275.0
 31
0.0
  0
LINE
  5
130
330
E9
100
AcDbEntity
  8
L-1
  6
CONTINUOUS
 62
     4
100
AcDbLine
 10
66.0
 20
278.0
 30
0.0
 11
66.0
 21
275.0
 31
0.0
  0
LINE
  5
131
330
E9
100
AcDbEntity
  8
L-1
  6
CONTINUOUS
 62
     5
100
AcDbLine
 10
209.0
 20
46.0
 30
0.0
 11
385.0
 21
46.0
 31
0.0
  0
LINE
  5
132
330
E9
100
AcDbEntity
  8
L-1
  6
CONTINUOUS
 62
     5
100
AcDbLine
 10
209.0
 20
6.0
 30
0.0
 11
209.0
 21
46.0
 31
0.0
  0
LINE
  5
133
330
E9
100
AcDbEntity
  8
L-1
  6
CONTINUOUS
 62
     4
100
AcDbLine
 10
312.0
 20
46.0
 30
0.0
 11
312.0
 21
14.0
 31
0.0
  0
LINE
  5
134
330
E9
100
AcDbEntity
  8
L-1
  6
CONTINUOUS
 62
     5
100
AcDbLine
 10
305.0
 20
14.0
 30
0.0
 11
378.0
 21
14.0
 31
0.0
  0
LINE
  5
135
330
E9
100
AcDbEntity
  8
L-1
  6
CONTINUOUS
 62
     4
100
AcDbLine
 10
289.0
 20
46.0
 30
0.0
 11
289.0
 21
31.0
 31
0.0
  0
LINE
  5
136
330
E9
100
AcDbEntity
  8
L-1
  6
CONTINUOUS
 62
     5
100
AcDbLine
 10
273.0
 20
46.0
 30
0.0
 11
273.0
 21
31.0
 31
0.0
  0
LINE
  5
137
330
E9
100
AcDbEntity
  8
L-1
  6
CONTINUOUS
 62
     4
100
AcDbLine
 10
209.0
 20
41.0
 30
0.0
 11
305.0
 21
41.0
 31
0.0
  0
LINE
  5
138
330
E9
100
AcDbEntity
  8
L-1
  6
CONTINUOUS
 62
     5
100
AcDbLine
 10
273.0
 20
31.0
 30
0.0
 11
305.0
 21
31.0
 31
0.0
  0
LINE
  5
139
330
E9
100
AcDbEntity
  8
L-1
  6
CONTINUOUS
 62
     5
100
AcDbLine
 10
273.0
 20
31.0
 30
0.0
 11
273.0
 21
6.0
 31
0.0
  0
LINE
  5
13A
330
E9
100
AcDbEntity
  8
L-1
  6
CONTINUOUS
 62
     4
100
AcDbLine
 10
271.4999999999999
 20
11.0
 30
0.0
 11
305.0
 21
11.0
 31
0.0
  0
LINE
  5
13B
330
E9
100
AcDbEntity
  8
L-1
  6
CONTINUOUS
 62
     4
100
AcDbLine
 10
271.4999999999999
 20
16.0
 30
0.0
 11
305.0
 21
16.0
 31
0.0
  0
LINE
  5
13C
330
E9
100
AcDbEntity
  8
L-1
  6
CONTINUOUS
 62
     4
100
AcDbLine
 10
271.4999999999999
 20
21.0
 30
0.0
 11
305.0
 21
21.0
 31
0.0
  0
LINE
  5
13D
330
E9
100
AcDbEntity
  8
L-1
  6
CONTINUOUS
 62
     4
100
AcDbLine
 10
271.4999999999999
 20
26.0
 30
0.0
 11
305.0
 21
26.0
 31
0.0
  0
LINE
  5
13E
330
E9
100
AcDbEntity
  8
L-1
  6
CONTINUOUS
 62
     4
100
AcDbLine
 10
226.0
 20
46.0
 30
0.0
 11
226.0
 21
6.0
 31
0.0
  0
LINE
  5
13F
330
E9
100
AcDbEntity
  8
L-1
  6
CONTINUOUS
 62
     5
100
AcDbLine
 10
305.0
 20
24.0
 30
0.0
 11
385.0
 21
24.0
 31
0.0
  0
LINE
  5
140
330
E9
100
AcDbEntity
  8
L-1
  6
CONTINUOUS
 62
     4
100
AcDbLine
 10
285.0
 20
31.0
 30
0.0
 11
285.0
 21
6.0
 31
0.0
  0
TEXT
  5
141
330
E9
100
AcDbEntity
  8
L-1
  6
CONTINUOUS
 62
     2
100
AcDbText
 10
209.6219833982407
 20
41.55131843984618
 30
0.0
 40
4.0
  1
版
  7
SIMPLEX
100
AcDbText
  0
TEXT
  5
142
330
E9
100
AcDbEntity
  8
L-1
  6
CONTINUOUS
 62
     2
100
AcDbText
 10
233.2878071567374
 20
41.56491485075992
 30
0.0
 40
4.0
  1
変　更　事　項
  7
SIMPLEX
100
AcDbText
  0
TEXT
  5
143
330
E9
100
AcDbEntity
  8
L-1
  6
CONTINUOUS
 62
     2
100
AcDbText
 10
274.310043427429
 20
41.57851126167368
 30
0.0
 40
4.0
  1
単　位
  7
SIMPLEX
100
AcDbText
  0
TEXT
  5
144
330
E9
100
AcDbEntity
  8
L-1
  6
CONTINUOUS
 62
     2
100
AcDbText
 10
290.3100434274291
 20
41.57851126167368
 30
0.0
 40
4.0
  1
尺　度
  7
SIMPLEX
100
AcDbText
  0
TEXT
  5
145
330
E9
100
AcDbEntity
  8
L-1
  6
CONTINUOUS
 62
     2
100
AcDbText
 10
274.0667088120751
 20
26.52412561801867
 30
0.0
 40
4.0
  1
設 計
  7
SIMPLEX
100
AcDbText
  0
TEXT
  5
146
330
E9
100
AcDbEntity
  8
L-1
  6
CONTINUOUS
 62
     2
100
AcDbText
 10
273.9555274586165
 20
21.67368613806994
 30
0.0
 40
4.0
  1
製 図
  7
SIMPLEX
100
AcDbText
  0
TEXT
  5
147
330
E9
100
AcDbEntity
  8
L-1
  6
CONTINUOUS
 62
     2
100
AcDbText
 10
273.8443461051579
 20
16.61930049441493
 30
0.0
 40
4.0
  1
担 当
  7
SIMPLEX
100
AcDbText
  0
TEXT
  5
148
330
E9
100
AcDbEntity
  8
L-1
  6
CONTINUOUS
 62
     2
100
AcDbText
 10
274.0
 20
11.57851126167367
 30
0.0
 40
4.0
  1
査 閲
  7
SIMPLEX
100
AcDbText
  0
TEXT
  5
149
330
E9
100
AcDbEntity
  8
L-1
  6
CONTINUOUS
 62
     2
100
AcDbText
 10
273.8443461051579
 20
6.46973997436366
 30
0.0
 40
4.0
  1
承 認
  7
SIMPLEX
100
AcDbText
  0
TEXT
  5
14A
330
E9
100
AcDbEntity
  8
L-1
  6
CONTINUOUS
 62
     2
100
AcDbText
 10
306.5330383154738
 20
19.41535433070865
 30
0.0
 40
4.0
  1
図
  7
SIMPLEX
100
AcDbText
  0
TEXT
  5
14B
330
E9
100
AcDbEntity
  8
L-1
  6
CONTINUOUS
 62
     2
100
AcDbText
 10
306.5330383154738
 20
14.41535433070865
 30
0.0
 40
4.0
  1
番
  7
SIMPLEX
100
AcDbText
  0
TEXT
  5
14C
330
E9
100
AcDbEntity
  8
L-1
  6
CONTINUOUS
 62
     2
100
AcDbText
 10
319.0980555556825
 20
7.873740483041579
 30
0.0
 40
4.4
  1
東京通信機工業株式会社
  7
SIMPLEX
100
AcDbText
  0
TEXT
  5
14D
330
E9
100
AcDbEntity
  8
L-1
  6
CONTINUOUS
 62
     2
100
AcDbText
 10
306.4663295033986
 20
40.94561435634498
 30
0.0
 40
4.0
  1
名
  7
SIMPLEX
100
AcDbText
  0
TEXT
  5
14E
330
E9
100
AcDbEntity
  8
L-1
  6
CONTINUOUS
 62
     2
100
AcDbText
 10
306.4663295033986
 20
25.94561435634499
 30
0.0
 40
4.0
  1
称
  7
SIMPLEX
100
AcDbText
  0
LINE
  5
14F
330
E9
100
AcDbEntity
  8
L-1
  6
CONTINUOUS
 62
     4
100
AcDbLine
 10
14.0
 20
176.0
 30
0.0
 11
16.0
 21
176.0
 31
0.0
  0
LINE
  5
150
330
E9
100
AcDbEntity
  8
L-1
  6
CONTINUOUS
 62
     4
100
AcDbLine
 10
14.0
 20
126.0
 30
0.0
 11
16.0
 21
126.0
 31
0.0
  0
LINE
  5
151
330
E9
100
AcDbEntity
  8
L-1
  6
CONTINUOUS
 62
     4
100
AcDbLine
 10
14.0
 20
76.0
 30
0.0
 11
16.0
 21
76.0
 31
0.0
  0
LINE
  5
152
330
E9
100
AcDbEntity
  8
L-1
  6
CONTINUOUS
 62
     4
100
AcDbLine
 10
14.0
 20
26.0
 30
0.0
 11
16.0
 21
26.0
 31
0.0
  0
ENDBLK
  5
154
330
E9
100
AcDbEntity
  8
0
100
AcDbBlockEnd
  0
BLOCK
  5
17F3
330
17E9
100
AcDbEntity
  8
0
 62
     7
100
AcDbBlockBegin
  2
*D4
 70
     1
 10
0.0
 20
0.0
 30
0.0
  3
*D4
  1

  0
LINE
  5
18F4
330
17E9
100
AcDbEntity
  8
L-2
  6
CONTINUOUS
 62
     4
100
AcDbLine
 10
533.6129989436638
 20
242.5894679099836
 30
0.0
 11
533.6129989436638
 21
280.4942400374286
 31
0.0
  0
LINE
  5
18F5
330
17E9
100
AcDbEntity
  8
L-2
  6
CONTINUOUS
 62
     4
100
AcDbLine
 10
51.61299894366379
 20
242.5894679099836
 30
0.0
 11
51.61299894366379
 21
280.4942400374286
 31
0.0
  0
LINE
  5
18F6
330
17E9
100
AcDbEntity
  8
L-2
  6
CONTINUOUS
 62
     4
100
AcDbLine
 10
528.6129989436638
 20
278.4942400374286
 30
0.0
 11
56.61299894366379
 21
278.4942400374286
 31
0.0
  0
INSERT
  5
18F7
330
17E9
100
AcDbEntity
  8
L-2
  6
CONTINUOUS
 62
     4
100
AcDbBlockReference
  2
_OPEN
 10
533.6129989436638
 20
278.4942400374286
 30
0.0
 41
5.0
 42
5.0
 43
5.0
  0
INSERT
  5
18F8
330
17E9
100
AcDbEntity
  8
L-2
  6
CONTINUOUS
 62
     4
100
AcDbBlockReference
  2
_OPEN
 10
51.61299894366379
 20
278.4942400374286
 30
0.0
 41
5.0
 42
5.0
 43
5.0
 50
180.0
  0
MTEXT
  5
18F9
330
17E9
100
AcDbEntity
  8
L-2
  6
CONTINUOUS
 62
     2
100
AcDbMText
 10
292.6129989436637
 20
282.6942400374286
 30
0.0
 40
6.4
 41
0.0
 71
     5
 72
     1
  1
\A1;482
  7
MSゴシック
1001
ACAD
1000
MTEXTBEGIN
1070
    73
1070
     1
1070
    44
1040
1.0
1070
    74
1070
     0
1000
MTEXTEND
  0
POINT
  5
18FA
330
17E9
100
AcDbEntity
  8
DEFPOINTS
  6
CONTINUOUS
 62
     0
100
AcDbPoint
 10
533.6129989436638
 20
241.5894679099836
 30
0.0
  0
POINT
  5
18FB
330
17E9
100
AcDbEntity
  8
DEFPOINTS
  6
CONTINUOUS
 62
     0
100
AcDbPoint
 10
51.61299894366379
 20
241.5894679099836
 30
0.0
  0
POINT
  5
18FC
330
17E9
100
AcDbEntity
  8
DEFPOINTS
  6
CONTINUOUS
 62
     0
100
AcDbPoint
 10
51.61299894366379
 20
278.4942400374286
 30
0.0
  0
ENDBLK
  5
17F4
330
17E9
100
AcDbEntity
  8
0
 62
     7
100
AcDbBlockEnd
  0
BLOCK
  5
17FF
330
17F5
100
AcDbEntity
  8
0
 62
     7
100
AcDbBlockBegin
  2
*D5
 70
     1
 10
0.0
 20
0.0
 30
0.0
  3
*D5
  1

  0
LINE
  5
1934
330
17F5
100
AcDbEntity
  8
L-2
  6
CONTINUOUS
 62
     4
100
AcDbLine
 10
60.1129989436638
 20
213.6762635838394
 30
0.0
 11
60.1129989436638
 21
262.3587810061649
 31
0.0
  0
LINE
  5
1935
330
17F5
100
AcDbEntity
  8
L-2
  6
CONTINUOUS
 62
     4
100
AcDbLine
 10
525.1129989436638
 20
213.6762635838394
 30
0.0
 11
525.1129989436638
 21
262.3587810061649
 31
0.0
  0
LINE
  5
1936
330
17F5
100
AcDbEntity
  8
L-2
  6
CONTINUOUS
 62
     4
100
AcDbLine
 10
65.1129989436638
 20
260.3587810061649
 30
0.0
 11
520.1129989436638
 21
260.3587810061649
 31
0.0
  0
INSERT
  5
1937
330
17F5
100
AcDbEntity
  8
L-2
  6
CONTINUOUS
 62
     4
100
AcDbBlockReference
  2
_OPEN
 10
60.1129989436638
 20
260.3587810061649
 30
0.0
 41
5.0
 42
5.0
 43
5.0
 50
180.0
  0
INSERT
  5
1938
330
17F5
100
AcDbEntity
  8
L-2
  6
CONTINUOUS
 62
     4
100
AcDbBlockReference
  2
_OPEN
 10
525.1129989436638
 20
260.3587810061649
 30
0.0
 41
5.0
 42
5.0
 43
5.0
  0
MTEXT
  5
1939
330
17F5
100
AcDbEntity
  8
L-2
  6
CONTINUOUS
 62
     2
100
AcDbMText
 10
292.6129989436637
 20
264.5587810061649
 30
0.0
 40
6.4
 41
0.0
 71
     5
 72
     1
  1
\A1;465
  7
MSゴシック
1001
ACAD
1000
MTEXTBEGIN
1070
    73
1070
     1
1070
    44
1040
1.0
1070
    74
1070
     0
1000
MTEXTEND
  0
POINT
  5
193A
330
17F5
100
AcDbEntity
  8
DEFPOINTS
  6
CONTINUOUS
 62
     0
100
AcDbPoint
 10
60.1129989436638
 20
212.6762635838394
 30
0.0
  0
POINT
  5
193B
330
17F5
100
AcDbEntity
  8
DEFPOINTS
  6
CONTINUOUS
 62
     0
100
AcDbPoint
 10
525.1129989436638
 20
212.6762635838395
 30
0.0
  0
POINT
  5
193C
330
17F5
100
AcDbEntity
  8
DEFPOINTS
  6
CONTINUOUS
 62
     0
100
AcDbPoint
 10
525.1129989436638
 20
260.3587810061649
 30
0.0
  0
ENDBLK
  5
1800
330
17F5
100
AcDbEntity
  8
0
 62
     7
100
AcDbBlockEnd
  0
BLOCK
  5
180B
330
1801
100
AcDbEntity
  8
0
 62
     7
100
AcDbBlockBegin
  2
*D6
 70
     1
 10
0.0
 20
0.0
 30
0.0
  3
*D6
  1

  0
LINE
  5
1906
330
1801
100
AcDbEntity
  8
L-2
  6
CONTINUOUS
 62
     4
100
AcDbLine
 10
532.6129989436635
 20
243.5894679099834
 30
0.0
 11
551.649082080609
 21
243.5894679099834
 31
0.0
  0
LINE
  5
1907
330
1801
100
AcDbEntity
  8
L-2
  6
CONTINUOUS
 62
     4
100
AcDbLine
 10
532.6129989436638
 20
111.5894679099835
 30
0.0
 11
551.649082080609
 21
111.5894679099835
 31
0.0
  0
LINE
  5
1908
330
1801
100
AcDbEntity
  8
L-2
  6
CONTINUOUS
 62
     4
100
AcDbLine
 10
549.6490820806091
 20
238.5894679099834
 30
0.0
 11
549.6490820806091
 21
116.5894679099835
 31
0.0
  0
INSERT
  5
1909
330
1801
100
AcDbEntity
  8
L-2
  6
CONTINUOUS
 62
     4
100
AcDbBlockReference
  2
_OPEN
 10
549.6490820806091
 20
243.5894679099834
 30
0.0
 41
5.0
 42
5.0
 43
5.0
 50
90.0
  0
INSERT
  5
190A
330
1801
100
AcDbEntity
  8
L-2
  6
CONTINUOUS
 62
     4
100
AcDbBlockReference
  2
_OPEN
 10
549.6490820806091
 20
111.5894679099835
 30
0.0
 41
5.0
 42
5.0
 43
5.0
 50
270.0
  0
MTEXT
  5
190B
330
1801
100
AcDbEntity
  8
L-2
  6
CONTINUOUS
 62
     2
100
AcDbMText
 10
545.449082080609
 20
177.5894679099836
 30
0.0
 40
6.4
 41
0.0
 71
     5
 72
     1
  1
\A1;132
  7
MSゴシック
 11
0.0000000000000001
 21
1.0
 31
0.0
1001
ACAD
1000
MTEXTBEGIN
1070
    73
1070
     1
1070
    44
1040
1.0
1070
    74
1070
     0
1000
MTEXTEND
  0
POINT
  5
190C
330
1801
100
AcDbEntity
  8
DEFPOINTS
  6
CONTINUOUS
 62
     0
100
AcDbPoint
 10
531.6129989436635
 20
243.5894679099834
 30
0.0
  0
POINT
  5
190D
330
1801
100
AcDbEntity
  8
DEFPOINTS
  6
CONTINUOUS
 62
     0
100
AcDbPoint
 10
531.6129989436638
 20
111.5894679099835
 30
0.0
  0
POINT
  5
190E
330
1801
100
AcDbEntity
  8
DEFPOINTS
  6
CONTINUOUS
 62
     0
100
AcDbPoint
 10
549.6490820806091
 20
111.5894679099835
 30
0.0
  0
ENDBLK
  5
180C
330
1801
100
AcDbEntity
  8
0
 62
     7
100
AcDbBlockEnd
  0
BLOCK
  5
1817
330
180D
100
AcDbEntity
  8
0
 62
     7
100
AcDbBlockBegin
  2
*D7
 70
     1
 10
0.0
 20
0.0
 30
0.0
  3
*D7
  1

  0
LINE
  5
190F
330
180D
100
AcDbEntity
  8
L-2
  6
CONTINUOUS
 62
     4
100
AcDbLine
 10
534.612998943664
 20
321.9416135198854
 30
0.0
 11
569.1641450843355
 21
321.9416135198854
 31
0.0
  0
LINE
  5
1910
330
180D
100
AcDbEntity
  8
L-2
  6
CONTINUOUS
 62
     4
100
AcDbLine
 10
507.612998943664
 20
456.9416135198848
 30
0.0
 11
569.1641450843355
 21
456.9416135198848
 31
0.0
  0
LINE
  5
1911
330
180D
100
AcDbEntity
  8
L-2
  6
CONTINUOUS
 62
     4
100
AcDbLine
 10
567.1641450843354
 20
326.9416135198854
 30
0.0
 11
567.1641450843354
 21
451.9416135198849
 31
0.0
  0
INSERT
  5
1912
330
180D
100
AcDbEntity
  8
L-2
  6
CONTINUOUS
 62
     4
100
AcDbBlockReference
  2
_OPEN
 10
567.1641450843354
 20
321.9416135198854
 30
0.0
 41
5.0
 42
5.0
 43
5.0
 50
270.0
  0
INSERT
  5
1913
330
180D
100
AcDbEntity
  8
L-2
  6
CONTINUOUS
 62
     4
100
AcDbBlockReference
  2
_OPEN
 10
567.1641450843354
 20
456.9416135198848
 30
0.0
 41
5.0
 42
5.0
 43
5.0
 50
90.0
  0
MTEXT
  5
1914
330
180D
100
AcDbEntity
  8
L-2
  6
CONTINUOUS
 62
     2
100
AcDbMText
 10
562.5905410234216
 20
388.5970242828358
 30
0.0
 40
6.4
 41
0.0
 71
     5
 72
     1
  1
\A1;（135）
  7
MSゴシック
 11
0.0000000000000001
 21
1.0
 31
0.0
1001
ACAD
1000
MTEXTBEGIN
1070
    73
1070
     1
1070
    44
1040
1.0
1070
    74
1070
     0
1000
MTEXTEND
  0
POINT
  5
1915
330
180D
100
AcDbEntity
  8
DEFPOINTS
  6
CONTINUOUS
 62
     0
100
AcDbPoint
 10
533.612998943664
 20
321.9416135198854
 30
0.0
  0
POINT
  5
1916
330
180D
100
AcDbEntity
  8
DEFPOINTS
  6
CONTINUOUS
 62
     0
100
AcDbPoint
 10
506.612998943664
 20
456.9416135198848
 30
0.0
  0
POINT
  5
1917
330
180D
100
AcDbEntity
  8
DEFPOINTS
  6
CONTINUOUS
 62
     0
100
AcDbPoint
 10
567.1641450843354
 20
456.9416135198848
 30
0.0
  0
ENDBLK
  5
1818
330
180D
100
AcDbEntity
  8
0
 62
     7
100
AcDbBlockEnd
  0
BLOCK
  5
1823
330
1819
100
AcDbEntity
  8
0
 62
     7
100
AcDbBlockBegin
  2
*D8
 70
     1
 10
0.0
 20
0.0
 30
0.0
  3
*D8
  1

  0
LINE
  5
1918
330
1819
100
AcDbEntity
  8
L-2
  6
CONTINUOUS
 62
     4
100
AcDbLine
 10
510.612998943664
 20
380.9416135198854
 30
0.0
 11
551.6490820806092
 21
380.9416135198854
 31
0.0
  0
LINE
  5
1919
330
1819
100
AcDbEntity
  8
L-2
  6
CONTINUOUS
 62
     4
100
AcDbLine
 10
534.612998943664
 20
321.9416135198854
 30
0.0
 11
551.6490820806092
 21
321.9416135198854
 31
0.0
  0
LINE
  5
191A
330
1819
100
AcDbEntity
  8
L-2
  6
CONTINUOUS
 62
     4
100
AcDbLine
 10
549.6490820806092
 20
375.9416135198854
 30
0.0
 11
549.6490820806092
 21
326.9416135198854
 31
0.0
  0
INSERT
  5
191B
330
1819
100
AcDbEntity
  8
L-2
  6
CONTINUOUS
 62
     4
100
AcDbBlockReference
  2
_OPEN
 10
549.6490820806092
 20
380.9416135198854
 30
0.0
 41
5.0
 42
5.0
 43
5.0
 50
90.0
  0
INSERT
  5
191C
330
1819
100
AcDbEntity
  8
L-2
  6
CONTINUOUS
 62
     4
100
AcDbBlockReference
  2
_OPEN
 10
549.6490820806092
 20
321.9416135198854
 30
0.0
 41
5.0
 42
5.0
 43
5.0
 50
270.0
  0
MTEXT
  5
191D
330
1819
100
AcDbEntity
  8
L-2
  6
CONTINUOUS
 62
     2
100
AcDbMText
 10
545.449082080609
 20
351.4416135198854
 30
0.0
 40
6.4
 41
0.0
 71
     5
 72
     1
  1
\A1;59
  7
MSゴシック
 11
0.0000000000000001
 21
1.0
 31
0.0
1001
ACAD
1000
MTEXTBEGIN
1070
    73
1070
     1
1070
    44
1040
1.0
1070
    74
1070
     0
1000
MTEXTEND
  0
POINT
  5
191E
330
1819
100
AcDbEntity
  8
DEFPOINTS
  6
CONTINUOUS
 62
     0
100
AcDbPoint
 10
509.612998943664
 20
380.9416135198854
 30
0.0
  0
POINT
  5
191F
330
1819
100
AcDbEntity
  8
DEFPOINTS
  6
CONTINUOUS
 62
     0
100
AcDbPoint
 10
533.612998943664
 20
321.9416135198854
 30
0.0
  0
POINT
  5
1920
330
1819
100
AcDbEntity
  8
DEFPOINTS
  6
CONTINUOUS
 62
     0
100
AcDbPoint
 10
549.6490820806092
 20
321.9416135198854
 30
0.0
  0
ENDBLK
  5
1824
330
1819
100
AcDbEntity
  8
0
 62
     7
100
AcDbBlockEnd
  0
BLOCK
  5
182F
330
1825
100
AcDbEntity
  8
0
 62
     7
100
AcDbBlockBegin
  2
*D9
 70
     1
 10
0.0
 20
0.0
 30
0.0
  3
*D9
  1

  0
LINE
  5
1921
330
1825
100
AcDbEntity
  8
L-2
  6
CONTINUOUS
 62
     4
100
AcDbLine
 10
74.61299894366402
 20
454.9416135198847
 30
0.0
 11
74.61299894366402
 21
474.3945130216953
 31
0.0
  0
LINE
  5
1922
330
1825
100
AcDbEntity
  8
L-2
  6
CONTINUOUS
 62
     4
100
AcDbLine
 10
510.612998943664
 20
454.9416135198847
 30
0.0
 11
510.612998943664
 21
474.3945130216953
 31
0.0
  0
LINE
  5
1923
330
1825
100
AcDbEntity
  8
L-2
  6
CONTINUOUS
 62
     4
100
AcDbLine
 10
79.61299894366402
 20
472.3945130216954
 30
0.0
 11
505.612998943664
 21
472.3945130216954
 31
0.0
  0
INSERT
  5
1924
330
1825
100
AcDbEntity
  8
L-2
  6
CONTINUOUS
 62
     4
100
AcDbBlockReference
  2
_OPEN
 10
74.61299894366402
 20
472.3945130216954
 30
0.0
 41
5.0
 42
5.0
 43
5.0
 50
180.0
  0
INSERT
  5
1925
330
1825
100
AcDbEntity
  8
L-2
  6
CONTINUOUS
 62
     4
100
AcDbBlockReference
  2
_OPEN
 10
510.612998943664
 20
472.3945130216954
 30
0.0
 41
5.0
 42
5.0
 43
5.0
  0
MTEXT
  5
1926
330
1825
100
AcDbEntity
  8
L-2
  6
CONTINUOUS
 62
     2
100
AcDbMText
 10
292.612998943664
 20
476.968117082609
 30
0.0
 40
6.4
 41
0.0
 71
     5
 72
     1
  1
\A1;（436）
  7
MSゴシック
1001
ACAD
1000
MTEXTBEGIN
1070
    73
1070
     1
1070
    44
1040
1.0
1070
    74
1070
     0
1000
MTEXTEND
  0
POINT
  5
1927
330
1825
100
AcDbEntity
  8
DEFPOINTS
  6
CONTINUOUS
 62
     0
100
AcDbPoint
 10
74.61299894366402
 20
453.9416135198847
 30
0.0
  0
POINT
  5
1928
330
1825
100
AcDbEntity
  8
DEFPOINTS
  6
CONTINUOUS
 62
     0
100
AcDbPoint
 10
510.612998943664
 20
453.9416135198847
 30
0.0
  0
POINT
  5
1929
330
1825
100
AcDbEntity
  8
DEFPOINTS
  6
CONTINUOUS
 62
     0
100
AcDbPoint
 10
510.612998943664
 20
472.3945130216954
 30
0.0
  0
ENDBLK
  5
1830
330
1825
100
AcDbEntity
  8
0
 62
     7
100
AcDbBlockEnd
  0
ENDSEC
  0
SECTION
  2
ENTITIES
  0
LINE
  5
3FF
330
18
100
AcDbEntity
  8
L-1
  6
CONTINUOUS
 62
     7
100
AcDbLine
 10
372.1629989436637
 20
377.9416135198853
 30
0.0
 11
417.1129989436638
 21
377.9416135198854
 31
0.0
  0
LINE
  5
401
330
18
100
AcDbEntity
  8
L-1
  6
PHANTOM2
 62
     3
 48
0.3
100
AcDbLine
 10
389.012998943664
 20
422.1416135198848
 30
0.0
 11
376.2129989436639
 21
422.1416135198848
 31
0.0
  0
LINE
  5
402
330
18
100
AcDbEntity
  8
L-1
  6
PHANTOM2
 62
     3
 48
0.3
100
AcDbLine
 10
389.012998943664
 20
427.7416135198848
 30
0.0
 11
376.2129989436639
 21
427.7416135198848
 31
0.0
  0
LINE
  5
407
330
18
100
AcDbEntity
  8
L-1
  6
PHANTOM2
 62
     3
 48
0.5
100
AcDbLine
 10
75.61299894366403
 20
406.9416135198848
 30
0.0
 11
509.612998943664
 21
406.9416135198848
 31
0.0
  0
LINE
  5
408
330
18
100
AcDbEntity
  8
L-1
  6
PHANTOM2
 62
     3
 48
0.5
100
AcDbLine
 10
78.61299894366391
 20
456.9416135198848
 30
0.0
 11
506.612998943664
 21
456.9416135198848
 31
0.0
  0
LINE
  5
40C
330
18
100
AcDbEntity
  8
L-1
  6
CONTINUOUS
 62
     7
100
AcDbLine
 10
404.6129989436638
 20
353.9416135198854
 30
0.0
 11
373.1987853812908
 21
322.527399957512
 31
0.0
  0
LINE
  5
495
330
18
100
AcDbEntity
  8
L-1
  6
PHANTOM2
 62
     3
 48
0.5
100
AcDbLine
 10
125.112998943664
 20
442.4416135198848
 30
0.0
 11
145.112998943664
 21
442.4416135198848
 31
0.0
  0
LINE
  5
496
330
18
100
AcDbEntity
  8
L-1
  6
PHANTOM2
 62
     3
 48
0.5
100
AcDbLine
 10
125.112998943664
 20
447.4416135198849
 30
0.0
 11
145.112998943664
 21
447.4416135198849
 31
0.0
  0
ARC
  5
497
330
18
100
AcDbEntity
  8
L-1
  6
PHANTOM2
 62
     3
 48
0.5
100
AcDbCircle
 10
140.112998943664
 20
434.9416135198847
 30
0.0
 40
2.5
100
AcDbArc
 50
0.0
 51
180.0
  0
ARC
  5
498
330
18
100
AcDbEntity
  8
L-1
  6
PHANTOM2
 62
     3
 48
0.5
100
AcDbCircle
 10
140.112998943664
 20
414.9416135198848
 30
0.0
 40
2.5
100
AcDbArc
 50
180.0
 51
0.0
  0
LINE
  5
499
330
18
100
AcDbEntity
  8
L-1
  6
CONTINUOUS
 62
     7
100
AcDbLine
 10
120.6129989436636
 20
353.9416135198854
 30
0.0
 11
180.612998943664
 21
353.9416135198854
 31
0.0
  0
LINE
  5
49A
330
18
100
AcDbEntity
  8
L-1
  6
CONTINUOUS
 62
     7
100
AcDbLine
 10
133.1129989436637
 20
380.9416135198854
 30
0.0
 11
168.1129989436638
 21
380.9416135198854
 31
0.0
  0
ARC
  5
49B
330
18
100
AcDbEntity
  8
L-1
  6
PHANTOM2
 62
     3
 48
0.5
100
AcDbCircle
 10
130.112998943664
 20
434.9416135198847
 30
0.0
 40
2.5
100
AcDbArc
 50
0.0
 51
180.0
  0
LINE
  5
49C
330
18
100
AcDbEntity
  8
L-1
  6
PHANTOM2
 62
     3
 48
0.5
100
AcDbLine
 10
75.61299894366403
 20
340.9416135198852
 30
0.0
 11
75.61299894366403
 21
453.9416135198848
 31
0.0
  0
LINE
  5
49D
330
18
100
AcDbEntity
  8
L-1
  6
PHANTOM2
 62
     3
 48
0.5
100
AcDbLine
 10
74.61299894366402
 20
340.9416135198852
 30
0.0
 11
74.61299894366402
 21
453.9416135198848
 31
0.0
  0
LINE
  5
49E
330
18
100
AcDbEntity
  8
L-1
  6
PHANTOM2
 62
     3
 48
0.3
100
AcDbLine
 10
74.11299894366334
 20
345.4416135198853
 30
0.0
 11
74.11299894366345
 21
352.4416135198851
 31
0.0
  0
LINE
  5
49F
330
18
100
AcDbEntity
  8
L-1
  6
PHANTOM2
 62
     3
 48
0.3
100
AcDbLine
 10
73.41299894366341
 20
346.1916135198852
 30
0.0
 11
73.41299894366341
 21
351.6916135198851
 31
0.0
  0
ARC
  5
4A0
330
18
100
AcDbEntity
  8
L-1
  6
PHANTOM2
 62
     3
 48
0.3
100
AcDbCircle
 10
78.41299894366341
 20
348.9416135198851
 30
0.0
 40
7.0
100
AcDbArc
 50
163.7429721033957
 51
196.2570278966042
  0
LINE
  5
4A1
330
18
100
AcDbEntity
  8
L-1
  6
PHANTOM2
 62
     3
 48
0.3
100
AcDbLine
 10
73.41299894366341
 20
348.6478366735738
 30
0.0
 11
74.11299894366345
 21
349.3721443147864
 31
0.0
  0
LINE
  5
4A2
330
18
100
AcDbEntity
  8
L-1
  6
CONTINUOUS
 62
     7
100
AcDbLine
 10
75.6129989436638
 20
323.9416135198856
 30
0.0
 11
75.6129989436638
 21
380.9416135198856
 31
0.0
  0
LINE
  5
4A3
330
18
100
AcDbEntity
  8
L-1
  6
CONTINUOUS
 62
     7
100
AcDbLine
 10
77.6129989436638
 20
323.9416135198856
 30
0.0
 11
77.6129989436638
 21
380.9416135198856
 31
0.0
  0
LINE
  5
4A4
330
18
100
AcDbEntity
  8
L-1
  6
CONTINUOUS
 62
     7
100
AcDbLine
 10
120.6129989436637
 20
353.9416135198854
 30
0.0
 11
91.1987853812907
 21
324.5273999575124
 31
0.0
  0
LINE
  5
4A6
330
18
100
AcDbEntity
  8
L-1
  6
CONTINUOUS
 62
     7
100
AcDbLine
 10
77.61299894366368
 20
323.9416135198854
 30
0.0
 11
89.78457181891769
 21
323.9416135198854
 31
0.0
  0
LINE
  5
4A7
330
18
100
AcDbEntity
  8
L-1
  6
CENTER2
 62
     1
 48
0.3
100
AcDbLine
 10
60.1129989436638
 20
317.0141317558585
 30
0.0
 11
60.1129989436638
 21
328.0026855968238
 31
0.0
  0
LINE
  5
4A8
330
18
100
AcDbEntity
  8
L-1
  6
CONTINUOUS
 62
     7
100
AcDbLine
 10
51.61299894366379
 20
323.9416135198856
 30
0.0
 11
75.6129989436638
 21
323.9416135198856
 31
0.0
  0
LINE
  5
4A9
330
18
100
AcDbEntity
  8
L-1
  6
CONTINUOUS
 62
     7
100
AcDbLine
 10
51.61299894366379
 20
321.9416135198856
 30
0.0
 11
75.6129989436638
 21
321.9416135198856
 31
0.0
  0
LINE
  5
4AA
330
18
100
AcDbEntity
  8
L-1
  6
CONTINUOUS
 62
     7
100
AcDbLine
 10
51.61299894366379
 20
321.9416135198856
 30
0.0
 11
51.61299894366379
 21
323.9416135198856
 31
0.0
  0
ARC
  5
4AB
330
18
100
AcDbEntity
  8
L-1
  6
CONTINUOUS
 62
     7
100
AcDbCircle
 10
75.6129989436638
 20
323.9416135198856
 30
0.0
 40
2.0
100
AcDbArc
 50
270.0
 51
0.0
  0
LINE
  5
4AC
330
18
100
AcDbEntity
  8
L-1
  6
PHANTOM2
 62
     3
 48
0.3
100
AcDbLine
 10
72.56575006078526
 20
346.265738192322
 30
0.0
 11
73.41299894366341
 21
346.1916135198852
 31
0.0
  0
ARC
  5
4AD
330
18
100
AcDbEntity
  8
L-1
  6
PHANTOM2
 62
     3
 48
0.3
100
AcDbCircle
 10
72.65290580353291
 20
347.2619328904138
 30
0.0
 40
1.0
100
AcDbArc
 50
196.2570278966042
 51
265.0000000000003
  0
LINE
  5
4AE
330
18
100
AcDbEntity
  8
L-1
  6
PHANTOM2
 62
     3
 48
0.3
100
AcDbLine
 10
73.41299894366341
 20
346.1916135198852
 30
0.0
 11
74.11299894366345
 21
346.1916135198852
 31
0.0
  0
LINE
  5
4AF
330
18
100
AcDbEntity
  8
L-1
  6
PHANTOM2
 62
     3
 48
0.3
100
AcDbLine
 10
74.11299894366334
 20
345.4416135198853
 30
0.0
 11
74.61299894366334
 21
345.4416135198852
 31
0.0
  0
LINE
  5
4B0
330
18
100
AcDbEntity
  8
L-1
  6
PHANTOM2
 62
     3
 48
0.5
100
AcDbLine
 10
75.61299894366403
 20
340.9416135198852
 30
0.0
 11
74.61299894366402
 21
340.9416135198852
 31
0.0
  0
ARC
  5
4B1
330
18
100
AcDbEntity
  8
L-1
  6
CONTINUOUS
 62
     7
100
AcDbCircle
 10
89.78457181891769
 20
325.9416135198854
 30
0.0
 40
2.0
100
AcDbArc
 50
269.9999999999996
 51
314.9999999999997
  0
LINE
  5
4B2
330
18
100
AcDbEntity
  8
L-1
  6
CONTINUOUS
 62
     7
100
AcDbLine
 10
78.61299894366379
 20
380.9416135198856
 30
0.0
 11
88.16299894366375
 21
380.9416135198856
 31
0.0
  0
LINE
  5
4B3
330
18
100
AcDbEntity
  8
L-1
  6
PHANTOM2
 62
     3
 48
0.3
100
AcDbLine
 10
72.56575006078526
 20
351.6174888474484
 30
0.0
 11
73.41299894366341
 21
351.6916135198852
 31
0.0
  0
LINE
  5
4B4
330
18
100
AcDbEntity
  8
L-1
  6
PHANTOM2
 62
     3
 48
0.3
100
AcDbLine
 10
72.56575006078526
 20
351.6174888474484
 30
0.0
 11
73.41299894366341
 21
351.6916135198852
 31
0.0
  0
ARC
  5
4B5
330
18
100
AcDbEntity
  8
L-1
  6
PHANTOM2
 62
     3
 48
0.3
100
AcDbCircle
 10
72.65290580353291
 20
350.6212941493566
 30
0.0
 40
1.0
100
AcDbArc
 50
94.99999999999975
 51
163.7429721033957
  0
LINE
  5
4B6
330
18
100
AcDbEntity
  8
L-1
  6
PHANTOM2
 62
     3
 48
0.3
100
AcDbLine
 10
73.41299894366341
 20
351.6916135198852
 30
0.0
 11
74.11299894366345
 21
351.6916135198852
 31
0.0
  0
LINE
  5
4B7
330
18
100
AcDbEntity
  8
L-1
  6
PHANTOM2
 62
     3
 48
0.3
100
AcDbLine
 10
74.11299894366345
 20
352.4416135198851
 30
0.0
 11
74.61299894366345
 21
352.4416135198852
 31
0.0
  0
LINE
  5
4B8
330
18
100
AcDbEntity
  8
L-1
  6
CONTINUOUS
 62
     7
100
AcDbLine
 10
75.6129989436638
 20
380.9416135198856
 30
0.0
 11
77.6129989436638
 21
380.9416135198856
 31
0.0
  0
ARC
  5
4B9
330
18
100
AcDbEntity
  8
L-1
  6
CONTINUOUS
 62
     7
100
AcDbCircle
 10
78.61299894366379
 20
379.9416135198856
 30
0.0
 40
1.0
100
AcDbArc
 50
90.0
 51
180.0
  0
LINE
  5
4BA
330
18
100
AcDbEntity
  8
L-1
  6
PHANTOM2
 62
     4
 48
0.5
100
AcDbLine
 10
75.61299894366403
 20
390.941613519885
 30
0.0
 11
74.61299894366402
 21
390.9416135198849
 31
0.0
  0
LINE
  5
4BB
330
18
100
AcDbEntity
  8
L-1
  6
CONTINUOUS
 62
     7
100
AcDbLine
 10
88.16299894366386
 20
377.9416135198856
 30
0.0
 11
133.1129989436637
 21
377.9416135198856
 31
0.0
  0
LINE
  5
4BD
330
18
100
AcDbEntity
  8
L-1
  6
CONTINUOUS
 62
     7
100
AcDbLine
 10
88.16299894366375
 20
377.9416135198856
 30
0.0
 11
88.16299894366375
 21
380.9416135198856
 31
0.0
  0
LINE
  5
4C4
330
18
100
AcDbEntity
  8
L-1
  6
CONTINUOUS
 62
     7
100
AcDbLine
 10
133.1129989436637
 20
377.9416135198856
 30
0.0
 11
133.1129989436637
 21
380.9416135198854
 31
0.0
  0
LINE
  5
4C6
330
18
100
AcDbEntity
  8
L-1
  6
PHANTOM2
 62
     3
 48
0.3
100
AcDbLine
 10
119.0129989436639
 20
422.1416135198847
 30
0.0
 11
106.2129989436639
 21
422.1416135198847
 31
0.0
  0
LINE
  5
4C7
330
18
100
AcDbEntity
  8
L-1
  6
PHANTOM2
 62
     3
 48
0.3
100
AcDbLine
 10
119.0129989436639
 20
427.7416135198847
 30
0.0
 11
106.2129989436639
 21
427.7416135198847
 31
0.0
  0
LINE
  5
4C8
330
18
100
AcDbEntity
  8
L-1
  6
PHANTOM2
 62
     3
 48
0.3
100
AcDbLine
 10
105.2129989436639
 20
426.7416135198847
 30
0.0
 11
105.2129989436639
 21
423.1416135198847
 31
0.0
  0
ARC
  5
4C9
330
18
100
AcDbEntity
  8
L-1
  6
PHANTOM2
 62
     3
 48
0.3
100
AcDbCircle
 10
106.2129989436639
 20
423.1416135198847
 30
0.0
 40
1.0
100
AcDbArc
 50
180.0
 51
270.0
  0
ARC
  5
4CA
330
18
100
AcDbEntity
  8
L-1
  6
PHANTOM2
 62
     3
 48
0.3
100
AcDbCircle
 10
106.2129989436639
 20
426.7416135198847
 30
0.0
 40
1.0
100
AcDbArc
 50
89.99999999999959
 51
180.0
  0
ARC
  5
4CB
330
18
100
AcDbEntity
  8
L-1
  6
PHANTOM2
 62
     3
 48
0.5
100
AcDbCircle
 10
130.112998943664
 20
414.9416135198848
 30
0.0
 40
2.5
100
AcDbArc
 50
180.0
 51
0.0
  0
LINE
  5
4CC
330
18
100
AcDbEntity
  8
L-1
  6
PHANTOM2
 62
     3
 48
0.3
100
AcDbLine
 10
120.0129989436639
 20
426.7416135198847
 30
0.0
 11
120.0129989436639
 21
423.1416135198847
 31
0.0
  0
ARC
  5
4CD
330
18
100
AcDbEntity
  8
L-1
  6
PHANTOM2
 62
     3
 48
0.3
100
AcDbCircle
 10
119.0129989436639
 20
423.1416135198847
 30
0.0
 40
1.0
100
AcDbArc
 50
270.0
 51
0.0
  0
ARC
  5
4CE
330
18
100
AcDbEntity
  8
L-1
  6
PHANTOM2
 62
     3
 48
0.3
100
AcDbCircle
 10
119.0129989436639
 20
426.7416135198847
 30
0.0
 40
1.0
100
AcDbArc
 50
0.0
 51
90.0
  0
LINE
  5
4CF
330
18
100
AcDbEntity
  8
L-1
  6
PHANTOM2
 62
     3
 48
0.5
100
AcDbLine
 10
137.612998943664
 20
414.9416135198848
 30
0.0
 11
137.612998943664
 21
434.9416135198847
 31
0.0
  0
LINE
  5
4D0
330
18
100
AcDbEntity
  8
L-1
  6
PHANTOM2
 62
     3
 48
0.5
100
AcDbLine
 10
132.612998943664
 20
414.9416135198848
 30
0.0
 11
132.612998943664
 21
434.9416135198847
 31
0.0
  0
LINE
  5
4D1
330
18
100
AcDbEntity
  8
L-1
  6
PHANTOM2
 62
     3
 48
0.5
100
AcDbLine
 10
127.612998943664
 20
414.9416135198848
 30
0.0
 11
127.612998943664
 21
434.9416135198847
 31
0.0
  0
LINE
  5
4D2
330
18
100
AcDbEntity
  8
L-1
  6
PHANTOM2
 62
     3
 48
0.5
100
AcDbLine
 10
74.61299894366402
 20
453.9416135198847
 30
0.0
 11
78.61299894366402
 21
453.9416135198847
 31
0.0
  0
LINE
  5
4D3
330
18
100
AcDbEntity
  8
L-1
  6
PHANTOM2
 62
     3
 48
0.5
100
AcDbLine
 10
78.61299894366402
 20
456.9416135198848
 30
0.0
 11
78.61299894366402
 21
453.9416135198847
 31
0.0
  0
ARC
  5
4D4
330
18
100
AcDbEntity
  8
L-1
  6
PHANTOM2
 62
     3
 48
0.5
100
AcDbCircle
 10
125.112998943664
 20
444.9416135198848
 30
0.0
 40
2.5
100
AcDbArc
 50
90.0
 51
270.0
  0
ARC
  5
4D5
330
18
100
AcDbEntity
  8
L-1
  6
PHANTOM2
 62
     3
 48
0.5
100
AcDbCircle
 10
365.112998943664
 20
434.9416135198849
 30
0.0
 40
2.5
100
AcDbArc
 50
0.0
 51
180.0
  0
ARC
  5
4D6
330
18
100
AcDbEntity
  8
L-1
  6
PHANTOM2
 62
     3
 48
0.5
100
AcDbCircle
 10
355.112998943664
 20
434.9416135198849
 30
0.0
 40
2.5
100
AcDbArc
 50
0.0
 51
180.0
  0
ARC
  5
4D7
330
18
100
AcDbEntity
  8
L-1
  6
PHANTOM2
 62
     3
 48
0.5
100
AcDbCircle
 10
320.112998943664
 20
434.9416135198849
 30
0.0
 40
2.5
100
AcDbArc
 50
0.0
 51
180.0
  0
ARC
  5
4D8
330
18
100
AcDbEntity
  8
L-1
  6
PHANTOM2
 62
     3
 48
0.5
100
AcDbCircle
 10
310.112998943664
 20
434.9416135198849
 30
0.0
 40
2.5
100
AcDbArc
 50
0.0
 51
180.0
  0
ARC
  5
4D9
330
18
100
AcDbEntity
  8
L-1
  6
PHANTOM2
 62
     3
 48
0.5
100
AcDbCircle
 10
265.112998943664
 20
434.9416135198849
 30
0.0
 40
2.5
100
AcDbArc
 50
0.0
 51
180.0
  0
ARC
  5
4DA
330
18
100
AcDbEntity
  8
L-1
  6
PHANTOM2
 62
     3
 48
0.5
100
AcDbCircle
 10
230.112998943664
 20
434.9416135198849
 30
0.0
 40
2.5
100
AcDbArc
 50
0.0
 51
180.0
  0
ARC
  5
4DB
330
18
100
AcDbEntity
  8
L-1
  6
PHANTOM2
 62
     3
 48
0.5
100
AcDbCircle
 10
185.112998943664
 20
434.9416135198849
 30
0.0
 40
2.5
100
AcDbArc
 50
0.0
 51
180.0
  0
ARC
  5
4DC
330
18
100
AcDbEntity
  8
L-1
  6
PHANTOM2
 62
     3
 48
0.5
100
AcDbCircle
 10
175.112998943664
 20
434.9416135198849
 30
0.0
 40
2.5
100
AcDbArc
 50
0.0
 51
180.0
  0
ARC
  5
4DD
330
18
100
AcDbEntity
  8
L-1
  6
PHANTOM2
 62
     3
 48
0.5
100
AcDbCircle
 10
220.112998943664
 20
434.9416135198849
 30
0.0
 40
2.5
100
AcDbArc
 50
0.0
 51
180.0
  0
ARC
  5
4DE
330
18
100
AcDbEntity
  8
L-1
  6
PHANTOM2
 62
     3
 48
0.5
100
AcDbCircle
 10
275.112998943664
 20
434.9416135198849
 30
0.0
 40
2.5
100
AcDbArc
 50
0.0
 51
180.0
  0
LINE
  5
4DF
330
18
100
AcDbEntity
  8
L-1
  6
CONTINUOUS
 62
     7
100
AcDbLine
 10
262.6129989436638
 20
353.9416135198854
 30
0.0
 11
231.1987853812906
 21
322.5273999575123
 31
0.0
  0
LINE
  5
4E0
330
18
100
AcDbEntity
  8
L-1
  6
CONTINUOUS
 62
     7
100
AcDbLine
 10
230.1629989436639
 20
377.9416135198854
 30
0.0
 11
275.1129989436638
 21
377.9416135198854
 31
0.0
  0
LINE
  5
4E1
330
18
100
AcDbEntity
  8
L-1
  6
CONTINUOUS
 62
     7
100
AcDbLine
 10
180.6129989436638
 20
353.9416135198854
 30
0.0
 11
212.0272125060366
 21
322.5273999575122
 31
0.0
  0
ARC
  5
4E2
330
18
100
AcDbEntity
  8
L-1
  6
CONTINUOUS
 62
     7
100
AcDbCircle
 10
229.7845718189175
 20
323.9416135198854
 30
0.0
 40
2.0
100
AcDbArc
 50
270.0000000000004
 51
314.9999999999997
  0
LINE
  5
4E3
330
18
100
AcDbEntity
  8
L-1
  6
CONTINUOUS
 62
     7
100
AcDbLine
 10
226.6129989436636
 20
328.5416135198854
 30
0.0
 11
226.6129989436635
 21
327.2416135198854
 31
0.0
  0
LINE
  5
4E4
330
18
100
AcDbEntity
  8
L-1
  6
CONTINUOUS
 62
     7
100
AcDbLine
 10
216.6129989436635
 20
328.5416135198854
 30
0.0
 11
216.6129989436636
 21
327.2416135198854
 31
0.0
  0
LINE
  5
4E6
330
18
100
AcDbEntity
  8
L-1
  6
CONTINUOUS
 62
     7
100
AcDbLine
 10
213.4414260684099
 20
321.9416135198853
 30
0.0
 11
229.7845718189175
 21
321.9416135198854
 31
0.0
  0
ARC
  5
4E7
330
18
100
AcDbEntity
  8
L-1
  6
CONTINUOUS
 62
     7
100
AcDbCircle
 10
213.4414260684097
 20
323.9416135198853
 30
0.0
 40
2.0
100
AcDbArc
 50
225.0000000000003
 51
270.0000000000004
  0
LINE
  5
4E8
330
18
100
AcDbEntity
  8
L-1
  6
CONTINUOUS
 62
     7
100
AcDbLine
 10
216.6129989436636
 20
327.2416135198854
 30
0.0
 11
226.6129989436635
 21
327.2416135198854
 31
0.0
  0
LINE
  5
4E9
330
18
100
AcDbEntity
  8
L-1
  6
CONTINUOUS
 62
     7
100
AcDbLine
 10
216.6129989436636
 20
323.9416135198854
 30
0.0
 11
226.6129989436636
 21
323.9416135198854
 31
0.0
  0
LINE
  5
4EA
330
18
100
AcDbEntity
  8
L-1
  6
CONTINUOUS
 62
     7
100
AcDbLine
 10
216.6129989436636
 20
325.2416135198854
 30
0.0
 11
226.6129989436636
 21
325.2416135198856
 31
0.0
  0
LINE
  5
4EB
330
18
100
AcDbEntity
  8
L-1
  6
CONTINUOUS
 62
     4
100
AcDbLine
 10
217.2828719247417
 20
325.7416135198853
 30
0.0
 11
217.2828719247417
 21
326.7416135198853
 31
0.0
  0
LINE
  5
4EC
330
18
100
AcDbEntity
  8
L-1
  6
CONTINUOUS
 62
     4
100
AcDbLine
 10
217.2828719247417
 20
322.4416135198854
 30
0.0
 11
217.2828719247417
 21
323.4416135198853
 31
0.0
  0
LINE
  5
4ED
330
18
100
AcDbEntity
  8
L-1
  6
CONTINUOUS
 62
     7
100
AcDbLine
 10
216.6129989436636
 20
325.2416135198854
 30
0.0
 11
216.6129989436636
 21
323.9416135198854
 31
0.0
  0
LINE
  5
4EE
330
18
100
AcDbEntity
  8
L-1
  6
CONTINUOUS
 62
     4
100
AcDbLine
 10
225.9431259625859
 20
325.7416135198855
 30
0.0
 11
225.9431259625859
 21
326.7416135198854
 31
0.0
  0
LINE
  5
4EF
330
18
100
AcDbEntity
  8
L-1
  6
CONTINUOUS
 62
     4
100
AcDbLine
 10
225.9431259625859
 20
322.4416135198855
 30
0.0
 11
225.9431259625859
 21
323.4416135198854
 31
0.0
  0
LINE
  5
4F0
330
18
100
AcDbEntity
  8
L-1
  6
CONTINUOUS
 62
     7
100
AcDbLine
 10
226.6129989436636
 20
325.2416135198854
 30
0.0
 11
226.6129989436636
 21
323.9416135198854
 31
0.0
  0
LINE
  5
4F1
330
18
100
AcDbEntity
  8
L-1
  6
CONTINUOUS
 62
     7
100
AcDbLine
 10
216.6129989436635
 20
328.5416135198854
 30
0.0
 11
226.6129989436636
 21
328.5416135198856
 31
0.0
  0
LINE
  5
4F2
330
18
100
AcDbEntity
  8
L-1
  6
PHANTOM2
 62
     3
 48
0.3
100
AcDbLine
 10
209.0129989436639
 20
422.1416135198848
 30
0.0
 11
196.2129989436639
 21
422.1416135198848
 31
0.0
  0
LINE
  5
4F3
330
18
100
AcDbEntity
  8
L-1
  6
PHANTOM2
 62
     3
 48
0.3
100
AcDbLine
 10
209.0129989436639
 20
427.7416135198848
 30
0.0
 11
196.2129989436639
 21
427.7416135198848
 31
0.0
  0
LINE
  5
4F4
330
18
100
AcDbEntity
  8
L-1
  6
CONTINUOUS
 62
     7
100
AcDbLine
 10
213.0629989436636
 20
377.9416135198856
 30
0.0
 11
168.1129989436638
 21
377.9416135198856
 31
0.0
  0
LINE
  5
4FA
330
18
100
AcDbEntity
  8
L-1
  6
CONTINUOUS
 62
     7
100
AcDbLine
 10
168.1129989436638
 20
377.9416135198856
 30
0.0
 11
168.1129989436638
 21
380.9416135198854
 31
0.0
  0
CIRCLE
  5
4FC
330
18
100
AcDbEntity
  8
L-1
  6
PHANTOM2
 62
     3
 48
0.5
100
AcDbCircle
 10
157.612998943664
 20
424.9416135198848
 30
0.0
 40
2.299999999999999
  0
LINE
  5
4FD
330
18
100
AcDbEntity
  8
L-1
  6
PHANTOM2
 62
     3
 48
0.5
100
AcDbLine
 10
142.612998943664
 20
414.9416135198848
 30
0.0
 11
142.612998943664
 21
434.9416135198847
 31
0.0
  0
ARC
  5
4FE
330
18
100
AcDbEntity
  8
L-1
  6
PHANTOM2
 62
     3
 48
0.5
100
AcDbCircle
 10
185.112998943664
 20
414.9416135198848
 30
0.0
 40
2.5
100
AcDbArc
 50
180.0
 51
0.0
  0
ARC
  5
4FF
330
18
100
AcDbEntity
  8
L-1
  6
PHANTOM2
 62
     3
 48
0.5
100
AcDbCircle
 10
175.112998943664
 20
414.9416135198848
 30
0.0
 40
2.5
100
AcDbArc
 50
180.0
 51
0.0
  0
LINE
  5
500
330
18
100
AcDbEntity
  8
L-1
  6
PHANTOM2
 62
     3
 48
0.5
100
AcDbLine
 10
177.612998943664
 20
414.9416135198848
 30
0.0
 11
177.612998943664
 21
434.9416135198847
 31
0.0
  0
LINE
  5
501
330
18
100
AcDbEntity
  8
L-1
  6
PHANTOM2
 62
     3
 48
0.5
100
AcDbLine
 10
172.612998943664
 20
414.9416135198848
 30
0.0
 11
172.612998943664
 21
434.9416135198847
 31
0.0
  0
LINE
  5
502
330
18
100
AcDbEntity
  8
L-1
  6
PHANTOM2
 62
     3
 48
0.5
100
AcDbLine
 10
182.612998943664
 20
414.9416135198848
 30
0.0
 11
182.612998943664
 21
434.9416135198847
 31
0.0
  0
LINE
  5
503
330
18
100
AcDbEntity
  8
L-1
  6
PHANTOM2
 62
     3
 48
0.3
100
AcDbLine
 10
195.2129989436639
 20
426.7416135198848
 30
0.0
 11
195.2129989436639
 21
423.1416135198847
 31
0.0
  0
LINE
  5
504
330
18
100
AcDbEntity
  8
L-1
  6
PHANTOM2
 62
     3
 48
0.5
100
AcDbLine
 10
187.612998943664
 20
414.9416135198848
 30
0.0
 11
187.612998943664
 21
434.9416135198847
 31
0.0
  0
ARC
  5
505
330
18
100
AcDbEntity
  8
L-1
  6
PHANTOM2
 62
     3
 48
0.3
100
AcDbCircle
 10
196.2129989436639
 20
423.1416135198847
 30
0.0
 40
1.0
100
AcDbArc
 50
180.0
 51
270.0
  0
ARC
  5
506
330
18
100
AcDbEntity
  8
L-1
  6
PHANTOM2
 62
     3
 48
0.3
100
AcDbCircle
 10
196.2129989436639
 20
426.7416135198848
 30
0.0
 40
1.0
100
AcDbArc
 50
89.99999999999959
 51
180.0
  0
LINE
  5
508
330
18
100
AcDbEntity
  8
L-1
  6
CONTINUOUS
 62
     7
100
AcDbLine
 10
213.0629989436638
 20
380.9416135198854
 30
0.0
 11
230.1629989436637
 21
380.9416135198854
 31
0.0
  0
LINE
  5
50B
330
18
100
AcDbEntity
  8
L-1
  6
CONTINUOUS
 62
     7
100
AcDbLine
 10
213.0629989436638
 20
377.9416135198856
 30
0.0
 11
213.0629989436638
 21
380.9416135198854
 31
0.0
  0
LINE
  5
50D
330
18
100
AcDbEntity
  8
L-1
  6
CONTINUOUS
 62
     7
100
AcDbLine
 10
230.1629989436637
 20
377.9416135198854
 30
0.0
 11
230.1629989436637
 21
380.9416135198854
 31
0.0
  0
ARC
  5
50E
330
18
100
AcDbEntity
  8
L-1
  6
PHANTOM2
 62
     3
 48
0.5
100
AcDbCircle
 10
230.112998943664
 20
414.9416135198848
 30
0.0
 40
2.5
100
AcDbArc
 50
180.0
 51
0.0
  0
ARC
  5
50F
330
18
100
AcDbEntity
  8
L-1
  6
PHANTOM2
 62
     3
 48
0.5
100
AcDbCircle
 10
220.112998943664
 20
414.9416135198848
 30
0.0
 40
2.5
100
AcDbArc
 50
180.0
 51
0.0
  0
LINE
  5
510
330
18
100
AcDbEntity
  8
L-1
  6
PHANTOM2
 62
     3
 48
0.3
100
AcDbLine
 10
210.012998943664
 20
426.7416135198848
 30
0.0
 11
210.012998943664
 21
423.1416135198847
 31
0.0
  0
ARC
  5
511
330
18
100
AcDbEntity
  8
L-1
  6
PHANTOM2
 62
     3
 48
0.3
100
AcDbCircle
 10
209.0129989436639
 20
423.1416135198847
 30
0.0
 40
1.0
100
AcDbArc
 50
270.0
 51
0.0
  0
ARC
  5
512
330
18
100
AcDbEntity
  8
L-1
  6
PHANTOM2
 62
     3
 48
0.3
100
AcDbCircle
 10
209.0129989436639
 20
426.7416135198848
 30
0.0
 40
1.0
100
AcDbArc
 50
0.0
 51
90.0
  0
LINE
  5
513
330
18
100
AcDbEntity
  8
L-1
  6
PHANTOM2
 62
     3
 48
0.5
100
AcDbLine
 10
227.612998943664
 20
414.9416135198848
 30
0.0
 11
227.612998943664
 21
434.9416135198847
 31
0.0
  0
LINE
  5
514
330
18
100
AcDbEntity
  8
L-1
  6
PHANTOM2
 62
     3
 48
0.5
100
AcDbLine
 10
222.612998943664
 20
414.9416135198848
 30
0.0
 11
222.612998943664
 21
434.9416135198847
 31
0.0
  0
LINE
  5
515
330
18
100
AcDbEntity
  8
L-1
  6
PHANTOM2
 62
     3
 48
0.5
100
AcDbLine
 10
217.612998943664
 20
414.9416135198848
 30
0.0
 11
217.612998943664
 21
434.9416135198847
 31
0.0
  0
LINE
  5
516
330
18
100
AcDbEntity
  8
L-1
  6
PHANTOM2
 62
     3
 48
0.3
100
AcDbLine
 10
254.012998943664
 20
422.1416135198848
 30
0.0
 11
241.2129989436639
 21
422.1416135198848
 31
0.0
  0
LINE
  5
517
330
18
100
AcDbEntity
  8
L-1
  6
PHANTOM2
 62
     3
 48
0.3
100
AcDbLine
 10
254.012998943664
 20
427.7416135198848
 30
0.0
 11
241.2129989436639
 21
427.7416135198848
 31
0.0
  0
LINE
  5
518
330
18
100
AcDbEntity
  8
L-1
  6
PHANTOM2
 62
     3
 48
0.3
100
AcDbLine
 10
240.2129989436639
 20
426.7416135198848
 30
0.0
 11
240.2129989436639
 21
423.1416135198847
 31
0.0
  0
LINE
  5
519
330
18
100
AcDbEntity
  8
L-1
  6
PHANTOM2
 62
     3
 48
0.5
100
AcDbLine
 10
232.612998943664
 20
414.9416135198848
 30
0.0
 11
232.612998943664
 21
434.9416135198847
 31
0.0
  0
ARC
  5
51A
330
18
100
AcDbEntity
  8
L-1
  6
PHANTOM2
 62
     3
 48
0.3
100
AcDbCircle
 10
241.2129989436639
 20
423.1416135198847
 30
0.0
 40
1.0
100
AcDbArc
 50
180.0
 51
270.0
  0
ARC
  5
51B
330
18
100
AcDbEntity
  8
L-1
  6
PHANTOM2
 62
     3
 48
0.3
100
AcDbCircle
 10
241.2129989436639
 20
426.7416135198848
 30
0.0
 40
1.0
100
AcDbArc
 50
89.99999999999959
 51
180.0
  0
LINE
  5
51C
330
18
100
AcDbEntity
  8
L-1
  6
PHANTOM2
 62
     3
 48
0.3
100
AcDbLine
 10
255.012998943664
 20
426.7416135198848
 30
0.0
 11
255.012998943664
 21
423.1416135198847
 31
0.0
  0
ARC
  5
51D
330
18
100
AcDbEntity
  8
L-1
  6
PHANTOM2
 62
     3
 48
0.3
100
AcDbCircle
 10
254.012998943664
 20
423.1416135198847
 30
0.0
 40
1.0
100
AcDbArc
 50
270.0
 51
0.0
  0
ARC
  5
51E
330
18
100
AcDbEntity
  8
L-1
  6
PHANTOM2
 62
     3
 48
0.3
100
AcDbCircle
 10
254.012998943664
 20
426.7416135198848
 30
0.0
 40
1.0
100
AcDbArc
 50
0.0
 51
90.0
  0
LINE
  5
51F
330
18
100
AcDbEntity
  8
L-1
  6
CONTINUOUS
 62
     7
100
AcDbLine
 10
322.6129989436638
 20
353.9416135198854
 30
0.0
 11
354.0272125060369
 21
322.5273999575123
 31
0.0
  0
LINE
  5
520
330
18
100
AcDbEntity
  8
L-1
  6
CONTINUOUS
 62
     7
100
AcDbLine
 10
368.6129989436638
 20
328.5416135198853
 30
0.0
 11
368.6129989436638
 21
327.2416135198854
 31
0.0
  0
LINE
  5
521
330
18
100
AcDbEntity
  8
L-1
  6
CONTINUOUS
 62
     7
100
AcDbLine
 10
358.6129989436638
 20
328.5416135198853
 30
0.0
 11
358.6129989436638
 21
327.2416135198854
 31
0.0
  0
LINE
  5
523
330
18
100
AcDbEntity
  8
L-1
  6
CONTINUOUS
 62
     7
100
AcDbLine
 10
358.6129989436638
 20
327.2416135198854
 30
0.0
 11
368.6129989436638
 21
327.2416135198854
 31
0.0
  0
LINE
  5
524
330
18
100
AcDbEntity
  8
L-1
  6
CONTINUOUS
 62
     7
100
AcDbLine
 10
371.7845718189177
 20
321.9416135198851
 30
0.0
 11
355.44142606841
 21
321.9416135198854
 31
0.0
  0
LINE
  5
525
330
18
100
AcDbEntity
  8
L-1
  6
CONTINUOUS
 62
     7
100
AcDbLine
 10
368.6129989436638
 20
323.9416135198854
 30
0.0
 11
358.612998943664
 21
323.9416135198854
 31
0.0
  0
LINE
  5
526
330
18
100
AcDbEntity
  8
L-1
  6
CONTINUOUS
 62
     7
100
AcDbLine
 10
368.612998943664
 20
325.2416135198854
 30
0.0
 11
358.6129989436638
 21
325.2416135198856
 31
0.0
  0
ARC
  5
527
330
18
100
AcDbEntity
  8
L-1
  6
CONTINUOUS
 62
     7
100
AcDbCircle
 10
355.44142606841
 20
323.9416135198854
 30
0.0
 40
2.0
100
AcDbArc
 50
225.0000000000003
 51
269.9999999999996
  0
LINE
  5
528
330
18
100
AcDbEntity
  8
L-1
  6
CONTINUOUS
 62
     7
100
AcDbLine
 10
358.6129989436638
 20
325.2416135198854
 30
0.0
 11
358.612998943664
 21
323.9416135198854
 31
0.0
  0
LINE
  5
529
330
18
100
AcDbEntity
  8
L-1
  6
CONTINUOUS
 62
     4
100
AcDbLine
 10
359.2828719247417
 20
322.4416135198853
 30
0.0
 11
359.2828719247417
 21
323.4416135198853
 31
0.0
  0
LINE
  5
52A
330
18
100
AcDbEntity
  8
L-1
  6
CONTINUOUS
 62
     4
100
AcDbLine
 10
359.2828719247417
 20
325.7416135198853
 30
0.0
 11
359.2828719247417
 21
326.7416135198853
 31
0.0
  0
LINE
  5
52B
330
18
100
AcDbEntity
  8
L-1
  6
CONTINUOUS
 62
     4
100
AcDbLine
 10
367.943125962586
 20
322.4416135198854
 30
0.0
 11
367.943125962586
 21
323.4416135198853
 31
0.0
  0
LINE
  5
52C
330
18
100
AcDbEntity
  8
L-1
  6
CONTINUOUS
 62
     4
100
AcDbLine
 10
367.943125962586
 20
325.7416135198855
 30
0.0
 11
367.943125962586
 21
326.7416135198853
 31
0.0
  0
ARC
  5
52D
330
18
100
AcDbEntity
  8
L-1
  6
CONTINUOUS
 62
     7
100
AcDbCircle
 10
371.7845718189177
 20
323.9416135198851
 30
0.0
 40
2.0
100
AcDbArc
 50
269.9999999999996
 51
314.9999999999997
  0
LINE
  5
52E
330
18
100
AcDbEntity
  8
L-1
  6
CONTINUOUS
 62
     7
100
AcDbLine
 10
368.612998943664
 20
325.2416135198854
 30
0.0
 11
368.6129989436638
 21
323.9416135198854
 31
0.0
  0
LINE
  5
52F
330
18
100
AcDbEntity
  8
L-1
  6
CONTINUOUS
 62
     7
100
AcDbLine
 10
358.6129989436638
 20
328.5416135198853
 30
0.0
 11
368.6129989436638
 21
328.5416135198855
 31
0.0
  0
LINE
  5
530
330
18
100
AcDbEntity
  8
L-1
  6
CONTINUOUS
 62
     7
100
AcDbLine
 10
355.0629989436638
 20
377.9416135198854
 30
0.0
 11
310.1129989436638
 21
377.9416135198854
 31
0.0
  0
ARC
  5
531
330
18
100
AcDbEntity
  8
L-1
  6
PHANTOM2
 62
     3
 48
0.5
100
AcDbCircle
 10
320.112998943664
 20
414.9416135198848
 30
0.0
 40
2.5
100
AcDbArc
 50
180.0
 51
0.0
  0
LINE
  5
532
330
18
100
AcDbEntity
  8
L-1
  6
CONTINUOUS
 62
     7
100
AcDbLine
 10
262.6129989436638
 20
353.9416135198854
 30
0.0
 11
322.612998943664
 21
353.9416135198854
 31
0.0
  0
LINE
  5
533
330
18
100
AcDbEntity
  8
L-1
  6
CONTINUOUS
 62
     7
100
AcDbLine
 10
275.1129989436638
 20
380.9416135198856
 30
0.0
 11
310.1129989436638
 21
380.9416135198856
 31
0.0
  0
LINE
  5
539
330
18
100
AcDbEntity
  8
L-1
  6
CONTINUOUS
 62
     7
100
AcDbLine
 10
275.1129989436638
 20
377.9416135198854
 30
0.0
 11
275.1129989436638
 21
380.9416135198854
 31
0.0
  0
LINE
  5
541
330
18
100
AcDbEntity
  8
L-1
  6
CONTINUOUS
 62
     7
100
AcDbLine
 10
310.1129989436638
 20
377.9416135198854
 30
0.0
 11
310.1129989436638
 21
380.9416135198854
 31
0.0
  0
CIRCLE
  5
542
330
18
100
AcDbEntity
  8
L-1
  6
PHANTOM2
 62
     3
 48
0.5
100
AcDbCircle
 10
292.612998943664
 20
424.9416135198848
 30
0.0
 40
2.299999999999999
  0
ARC
  5
543
330
18
100
AcDbEntity
  8
L-1
  6
PHANTOM2
 62
     3
 48
0.5
100
AcDbCircle
 10
265.112998943664
 20
414.9416135198848
 30
0.0
 40
2.5
100
AcDbArc
 50
180.0
 51
0.0
  0
ARC
  5
544
330
18
100
AcDbEntity
  8
L-1
  6
PHANTOM2
 62
     3
 48
0.5
100
AcDbCircle
 10
275.112998943664
 20
414.9416135198848
 30
0.0
 40
2.5
100
AcDbArc
 50
180.0
 51
0.0
  0
LINE
  5
545
330
18
100
AcDbEntity
  8
L-1
  6
PHANTOM2
 62
     3
 48
0.5
100
AcDbLine
 10
272.612998943664
 20
414.9416135198848
 30
0.0
 11
272.612998943664
 21
434.9416135198847
 31
0.0
  0
LINE
  5
546
330
18
100
AcDbEntity
  8
L-1
  6
PHANTOM2
 62
     3
 48
0.5
100
AcDbLine
 10
267.612998943664
 20
414.9416135198848
 30
0.0
 11
267.612998943664
 21
434.9416135198847
 31
0.0
  0
LINE
  5
547
330
18
100
AcDbEntity
  8
L-1
  6
PHANTOM2
 62
     3
 48
0.5
100
AcDbLine
 10
262.612998943664
 20
414.9416135198848
 30
0.0
 11
262.612998943664
 21
434.9416135198847
 31
0.0
  0
LINE
  5
548
330
18
100
AcDbEntity
  8
L-1
  6
PHANTOM2
 62
     3
 48
0.5
100
AcDbLine
 10
277.612998943664
 20
414.9416135198848
 30
0.0
 11
277.612998943664
 21
434.9416135198847
 31
0.0
  0
ARC
  5
549
330
18
100
AcDbEntity
  8
L-1
  6
PHANTOM2
 62
     3
 48
0.5
100
AcDbCircle
 10
310.112998943664
 20
414.9416135198848
 30
0.0
 40
2.5
100
AcDbArc
 50
180.0
 51
0.0
  0
LINE
  5
54A
330
18
100
AcDbEntity
  8
L-1
  6
PHANTOM2
 62
     3
 48
0.5
100
AcDbLine
 10
307.612998943664
 20
414.9416135198848
 30
0.0
 11
307.612998943664
 21
434.9416135198847
 31
0.0
  0
LINE
  5
54B
330
18
100
AcDbEntity
  8
L-1
  6
PHANTOM2
 62
     3
 48
0.5
100
AcDbLine
 10
317.612998943664
 20
414.9416135198848
 30
0.0
 11
317.612998943664
 21
434.9416135198847
 31
0.0
  0
LINE
  5
54C
330
18
100
AcDbEntity
  8
L-1
  6
PHANTOM2
 62
     3
 48
0.5
100
AcDbLine
 10
312.612998943664
 20
414.9416135198848
 30
0.0
 11
312.612998943664
 21
434.9416135198847
 31
0.0
  0
LINE
  5
54D
330
18
100
AcDbEntity
  8
L-1
  6
CONTINUOUS
 62
     7
100
AcDbLine
 10
355.0629989436638
 20
380.9416135198854
 30
0.0
 11
372.1629989436637
 21
380.9416135198854
 31
0.0
  0
LINE
  5
54E
330
18
100
AcDbEntity
  8
L-1
  6
CONTINUOUS
 62
     7
100
AcDbLine
 10
355.0629989436638
 20
377.9416135198854
 30
0.0
 11
355.0629989436638
 21
380.9416135198854
 31
0.0
  0
LINE
  5
551
330
18
100
AcDbEntity
  8
L-1
  6
CONTINUOUS
 62
     7
100
AcDbLine
 10
372.1629989436637
 20
377.9416135198853
 30
0.0
 11
372.1629989436637
 21
380.9416135198854
 31
0.0
  0
LINE
  5
554
330
18
100
AcDbEntity
  8
L-1
  6
PHANTOM2
 62
     3
 48
0.3
100
AcDbLine
 10
344.0129989436639
 20
422.1416135198848
 30
0.0
 11
331.2129989436639
 21
422.1416135198848
 31
0.0
  0
LINE
  5
555
330
18
100
AcDbEntity
  8
L-1
  6
PHANTOM2
 62
     3
 48
0.3
100
AcDbLine
 10
344.0129989436639
 20
427.7416135198848
 30
0.0
 11
331.2129989436639
 21
427.7416135198848
 31
0.0
  0
LINE
  5
556
330
18
100
AcDbEntity
  8
L-1
  6
PHANTOM2
 62
     3
 48
0.3
100
AcDbLine
 10
330.2129989436639
 20
426.7416135198848
 30
0.0
 11
330.2129989436639
 21
423.1416135198847
 31
0.0
  0
LINE
  5
557
330
18
100
AcDbEntity
  8
L-1
  6
PHANTOM2
 62
     3
 48
0.5
100
AcDbLine
 10
322.612998943664
 20
414.9416135198848
 30
0.0
 11
322.612998943664
 21
434.9416135198847
 31
0.0
  0
ARC
  5
558
330
18
100
AcDbEntity
  8
L-1
  6
PHANTOM2
 62
     3
 48
0.3
100
AcDbCircle
 10
331.2129989436639
 20
423.1416135198847
 30
0.0
 40
1.0
100
AcDbArc
 50
180.0
 51
270.0
  0
ARC
  5
559
330
18
100
AcDbEntity
  8
L-1
  6
PHANTOM2
 62
     3
 48
0.3
100
AcDbCircle
 10
331.2129989436639
 20
426.7416135198848
 30
0.0
 40
1.0
100
AcDbArc
 50
89.99999999999959
 51
180.0
  0
LINE
  5
55A
330
18
100
AcDbEntity
  8
L-1
  6
PHANTOM2
 62
     3
 48
0.3
100
AcDbLine
 10
345.012998943664
 20
426.7416135198848
 30
0.0
 11
345.012998943664
 21
423.1416135198847
 31
0.0
  0
ARC
  5
55B
330
18
100
AcDbEntity
  8
L-1
  6
PHANTOM2
 62
     3
 48
0.3
100
AcDbCircle
 10
344.0129989436639
 20
423.1416135198847
 30
0.0
 40
1.0
100
AcDbArc
 50
270.0
 51
0.0
  0
ARC
  5
55C
330
18
100
AcDbEntity
  8
L-1
  6
PHANTOM2
 62
     3
 48
0.3
100
AcDbCircle
 10
344.0129989436639
 20
426.7416135198848
 30
0.0
 40
1.0
100
AcDbArc
 50
0.0
 51
90.0
  0
ARC
  5
55D
330
18
100
AcDbEntity
  8
L-1
  6
PHANTOM2
 62
     3
 48
0.5
100
AcDbCircle
 10
365.112998943664
 20
414.9416135198848
 30
0.0
 40
2.5
100
AcDbArc
 50
180.0
 51
0.0
  0
ARC
  5
55E
330
18
100
AcDbEntity
  8
L-1
  6
PHANTOM2
 62
     3
 48
0.5
100
AcDbCircle
 10
355.112998943664
 20
414.9416135198848
 30
0.0
 40
2.5
100
AcDbArc
 50
180.0
 51
0.0
  0
LINE
  5
55F
330
18
100
AcDbEntity
  8
L-1
  6
PHANTOM2
 62
     3
 48
0.5
100
AcDbLine
 10
362.612998943664
 20
414.9416135198848
 30
0.0
 11
362.612998943664
 21
434.9416135198847
 31
0.0
  0
LINE
  5
560
330
18
100
AcDbEntity
  8
L-1
  6
PHANTOM2
 62
     3
 48
0.5
100
AcDbLine
 10
357.612998943664
 20
414.9416135198848
 30
0.0
 11
357.612998943664
 21
434.9416135198847
 31
0.0
  0
LINE
  5
561
330
18
100
AcDbEntity
  8
L-1
  6
PHANTOM2
 62
     3
 48
0.5
100
AcDbLine
 10
352.612998943664
 20
414.9416135198848
 30
0.0
 11
352.612998943664
 21
434.9416135198847
 31
0.0
  0
LINE
  5
562
330
18
100
AcDbEntity
  8
L-1
  6
PHANTOM2
 62
     3
 48
0.3
100
AcDbLine
 10
375.2129989436639
 20
426.7416135198848
 30
0.0
 11
375.2129989436639
 21
423.1416135198847
 31
0.0
  0
LINE
  5
563
330
18
100
AcDbEntity
  8
L-1
  6
PHANTOM2
 62
     3
 48
0.5
100
AcDbLine
 10
367.612998943664
 20
414.9416135198848
 30
0.0
 11
367.612998943664
 21
434.9416135198847
 31
0.0
  0
ARC
  5
564
330
18
100
AcDbEntity
  8
L-1
  6
PHANTOM2
 62
     3
 48
0.3
100
AcDbCircle
 10
376.2129989436639
 20
423.1416135198847
 30
0.0
 40
1.0
100
AcDbArc
 50
180.0
 51
270.0
  0
ARC
  5
565
330
18
100
AcDbEntity
  8
L-1
  6
PHANTOM2
 62
     3
 48
0.3
100
AcDbCircle
 10
376.2129989436639
 20
426.7416135198848
 30
0.0
 40
1.0
100
AcDbArc
 50
89.99999999999959
 51
180.0
  0
LINE
  5
566
330
18
100
AcDbEntity
  8
L-1
  6
PHANTOM2
 62
     3
 48
0.5
100
AcDbLine
 10
260.112998943664
 20
442.4416135198848
 30
0.0
 11
280.112998943664
 21
442.4416135198848
 31
0.0
  0
LINE
  5
567
330
18
100
AcDbEntity
  8
L-1
  6
PHANTOM2
 62
     3
 48
0.5
100
AcDbLine
 10
260.112998943664
 20
447.4416135198849
 30
0.0
 11
280.112998943664
 21
447.4416135198849
 31
0.0
  0
LINE
  5
568
330
18
100
AcDbEntity
  8
L-1
  6
PHANTOM2
 62
     3
 48
0.5
100
AcDbLine
 10
170.112998943664
 20
447.4416135198849
 30
0.0
 11
190.112998943664
 21
447.4416135198849
 31
0.0
  0
LINE
  5
569
330
18
100
AcDbEntity
  8
L-1
  6
PHANTOM2
 62
     3
 48
0.5
100
AcDbLine
 10
170.112998943664
 20
442.4416135198848
 30
0.0
 11
190.112998943664
 21
442.4416135198848
 31
0.0
  0
ARC
  5
56A
330
18
100
AcDbEntity
  8
L-1
  6
PHANTOM2
 62
     3
 48
0.5
100
AcDbCircle
 10
145.112998943664
 20
444.9416135198848
 30
0.0
 40
2.5
100
AcDbArc
 50
270.0
 51
90.0
  0
ARC
  5
56B
330
18
100
AcDbEntity
  8
L-1
  6
PHANTOM2
 62
     3
 48
0.5
100
AcDbCircle
 10
170.112998943664
 20
444.9416135198848
 30
0.0
 40
2.5
100
AcDbArc
 50
90.0
 51
270.0
  0
ARC
  5
56C
330
18
100
AcDbEntity
  8
L-1
  6
PHANTOM2
 62
     3
 48
0.5
100
AcDbCircle
 10
190.112998943664
 20
444.9416135198848
 30
0.0
 40
2.5
100
AcDbArc
 50
270.0
 51
90.0
  0
LINE
  5
56D
330
18
100
AcDbEntity
  8
L-1
  6
PHANTOM2
 62
     3
 48
0.5
100
AcDbLine
 10
215.112998943664
 20
442.4416135198848
 30
0.0
 11
235.112998943664
 21
442.4416135198848
 31
0.0
  0
LINE
  5
56E
330
18
100
AcDbEntity
  8
L-1
  6
PHANTOM2
 62
     3
 48
0.5
100
AcDbLine
 10
215.112998943664
 20
447.4416135198849
 30
0.0
 11
235.112998943664
 21
447.4416135198849
 31
0.0
  0
ARC
  5
56F
330
18
100
AcDbEntity
  8
L-1
  6
PHANTOM2
 62
     3
 48
0.5
100
AcDbCircle
 10
215.112998943664
 20
444.9416135198848
 30
0.0
 40
2.5
100
AcDbArc
 50
90.0
 51
270.0
  0
ARC
  5
570
330
18
100
AcDbEntity
  8
L-1
  6
PHANTOM2
 62
     3
 48
0.5
100
AcDbCircle
 10
235.112998943664
 20
444.9416135198848
 30
0.0
 40
2.5
100
AcDbArc
 50
270.0
 51
90.0
  0
ARC
  5
571
330
18
100
AcDbEntity
  8
L-1
  6
PHANTOM2
 62
     3
 48
0.5
100
AcDbCircle
 10
260.112998943664
 20
444.9416135198848
 30
0.0
 40
2.5
100
AcDbArc
 50
90.0
 51
270.0
  0
LINE
  5
572
330
18
100
AcDbEntity
  8
L-1
  6
PHANTOM2
 62
     3
 48
0.5
100
AcDbLine
 10
305.112998943664
 20
442.4416135198848
 30
0.0
 11
325.112998943664
 21
442.4416135198848
 31
0.0
  0
LINE
  5
573
330
18
100
AcDbEntity
  8
L-1
  6
PHANTOM2
 62
     3
 48
0.5
100
AcDbLine
 10
305.112998943664
 20
447.4416135198849
 30
0.0
 11
325.112998943664
 21
447.4416135198849
 31
0.0
  0
ARC
  5
574
330
18
100
AcDbEntity
  8
L-1
  6
PHANTOM2
 62
     3
 48
0.5
100
AcDbCircle
 10
280.112998943664
 20
444.9416135198848
 30
0.0
 40
2.5
100
AcDbArc
 50
270.0
 51
90.0
  0
ARC
  5
575
330
18
100
AcDbEntity
  8
L-1
  6
PHANTOM2
 62
     3
 48
0.5
100
AcDbCircle
 10
305.112998943664
 20
444.9416135198848
 30
0.0
 40
2.5
100
AcDbArc
 50
90.0
 51
270.0
  0
LINE
  5
576
330
18
100
AcDbEntity
  8
L-1
  6
PHANTOM2
 62
     3
 48
0.5
100
AcDbLine
 10
350.112998943664
 20
442.4416135198848
 30
0.0
 11
370.112998943664
 21
442.4416135198848
 31
0.0
  0
LINE
  5
577
330
18
100
AcDbEntity
  8
L-1
  6
PHANTOM2
 62
     3
 48
0.5
100
AcDbLine
 10
350.112998943664
 20
447.4416135198849
 30
0.0
 11
370.112998943664
 21
447.4416135198849
 31
0.0
  0
ARC
  5
578
330
18
100
AcDbEntity
  8
L-1
  6
PHANTOM2
 62
     3
 48
0.5
100
AcDbCircle
 10
325.112998943664
 20
444.9416135198848
 30
0.0
 40
2.5
100
AcDbArc
 50
270.0
 51
90.0
  0
ARC
  5
579
330
18
100
AcDbEntity
  8
L-1
  6
PHANTOM2
 62
     3
 48
0.5
100
AcDbCircle
 10
350.112998943664
 20
444.9416135198848
 30
0.0
 40
2.5
100
AcDbArc
 50
90.0
 51
270.0
  0
ARC
  5
57A
330
18
100
AcDbEntity
  8
L-1
  6
PHANTOM2
 62
     3
 48
0.5
100
AcDbCircle
 10
370.112998943664
 20
444.9416135198848
 30
0.0
 40
2.5
100
AcDbArc
 50
270.0
 51
90.0
  0
ARC
  5
600
330
18
100
AcDbEntity
  8
L-1
  6
PHANTOM2
 62
     3
 48
0.5
100
AcDbCircle
 10
455.112998943664
 20
434.9416135198849
 30
0.0
 40
2.5
100
AcDbArc
 50
0.0
 51
180.0
  0
ARC
  5
601
330
18
100
AcDbEntity
  8
L-1
  6
PHANTOM2
 62
     3
 48
0.5
100
AcDbCircle
 10
445.112998943664
 20
434.9416135198849
 30
0.0
 40
2.5
100
AcDbArc
 50
0.0
 51
180.0
  0
ARC
  5
602
330
18
100
AcDbEntity
  8
L-1
  6
PHANTOM2
 62
     3
 48
0.5
100
AcDbCircle
 10
400.1129989436639
 20
434.9416135198849
 30
0.0
 40
2.5
100
AcDbArc
 50
0.0
 51
180.0
  0
ARC
  5
603
330
18
100
AcDbEntity
  8
L-1
  6
PHANTOM2
 62
     3
 48
0.5
100
AcDbCircle
 10
410.112998943664
 20
434.9416135198849
 30
0.0
 40
2.5
100
AcDbArc
 50
0.0
 51
180.0
  0
LINE
  5
604
330
18
100
AcDbEntity
  8
L-1
  6
PHANTOM2
 62
     3
 48
0.5
100
AcDbLine
 10
509.612998943664
 20
340.9416135198852
 30
0.0
 11
509.612998943664
 21
453.9416135198848
 31
0.0
  0
LINE
  5
605
330
18
100
AcDbEntity
  8
L-1
  6
PHANTOM2
 62
     3
 48
0.5
100
AcDbLine
 10
510.612998943664
 20
340.9416135198852
 30
0.0
 11
510.612998943664
 21
453.9416135198847
 31
0.0
  0
LINE
  5
606
330
18
100
AcDbEntity
  8
L-1
  6
CONTINUOUS
 62
     7
100
AcDbLine
 10
497.0629989436638
 20
380.9416135198854
 30
0.0
 11
506.612998943664
 21
380.9416135198854
 31
0.0
  0
LINE
  5
607
330
18
100
AcDbEntity
  8
L-1
  6
CONTINUOUS
 62
     7
100
AcDbLine
 10
495.4414260684099
 20
323.9416135198854
 30
0.0
 11
507.6129989436639
 21
323.9416135198854
 31
0.0
  0
LINE
  5
608
330
18
100
AcDbEntity
  8
L-1
  6
CONTINUOUS
 62
     7
100
AcDbLine
 10
464.6129989436637
 20
353.9416135198854
 30
0.0
 11
494.0272125060366
 21
324.5273999575123
 31
0.0
  0
ARC
  5
609
330
18
100
AcDbEntity
  8
L-1
  6
CONTINUOUS
 62
     7
100
AcDbCircle
 10
495.4414260684099
 20
325.9416135198854
 30
0.0
 40
2.0
100
AcDbArc
 50
225.0000000000003
 51
270.0
  0
LINE
  5
60A
330
18
100
AcDbEntity
  8
L-1
  6
CONTINUOUS
 62
     7
100
AcDbLine
 10
417.1129989436638
 20
380.9416135198856
 30
0.0
 11
452.1129989436637
 21
380.9416135198856
 31
0.0
  0
LINE
  5
60B
330
18
100
AcDbEntity
  8
L-1
  6
CONTINUOUS
 62
     7
100
AcDbLine
 10
404.6129989436638
 20
353.9416135198854
 30
0.0
 11
464.612998943664
 21
353.9416135198854
 31
0.0
  0
LINE
  5
60E
330
18
100
AcDbEntity
  8
L-1
  6
CONTINUOUS
 62
     7
100
AcDbLine
 10
417.1129989436638
 20
377.9416135198854
 30
0.0
 11
417.1129989436638
 21
380.9416135198854
 31
0.0
  0
ARC
  5
613
330
18
100
AcDbEntity
  8
L-1
  6
PHANTOM2
 62
     3
 48
0.5
100
AcDbCircle
 10
410.112998943664
 20
414.9416135198848
 30
0.0
 40
2.5
100
AcDbArc
 50
180.0
 51
0.0
  0
ARC
  5
614
330
18
100
AcDbEntity
  8
L-1
  6
PHANTOM2
 62
     3
 48
0.5
100
AcDbCircle
 10
400.1129989436639
 20
414.9416135198848
 30
0.0
 40
2.5
100
AcDbArc
 50
180.0
 51
0.0
  0
LINE
  5
615
330
18
100
AcDbEntity
  8
L-1
  6
PHANTOM2
 62
     3
 48
0.3
100
AcDbLine
 10
390.0129989436639
 20
426.7416135198848
 30
0.0
 11
390.0129989436639
 21
423.1416135198847
 31
0.0
  0
ARC
  5
616
330
18
100
AcDbEntity
  8
L-1
  6
PHANTOM2
 62
     3
 48
0.3
100
AcDbCircle
 10
389.012998943664
 20
423.1416135198847
 30
0.0
 40
1.0
100
AcDbArc
 50
270.0
 51
0.0
  0
ARC
  5
617
330
18
100
AcDbEntity
  8
L-1
  6
PHANTOM2
 62
     3
 48
0.3
100
AcDbCircle
 10
389.012998943664
 20
426.7416135198848
 30
0.0
 40
1.0
100
AcDbArc
 50
0.0
 51
90.0
  0
LINE
  5
618
330
18
100
AcDbEntity
  8
L-1
  6
PHANTOM2
 62
     3
 48
0.5
100
AcDbLine
 10
407.612998943664
 20
414.9416135198848
 30
0.0
 11
407.612998943664
 21
434.9416135198847
 31
0.0
  0
LINE
  5
619
330
18
100
AcDbEntity
  8
L-1
  6
PHANTOM2
 62
     3
 48
0.5
100
AcDbLine
 10
402.612998943664
 20
414.9416135198848
 30
0.0
 11
402.612998943664
 21
434.9416135198847
 31
0.0
  0
LINE
  5
61A
330
18
100
AcDbEntity
  8
L-1
  6
PHANTOM2
 62
     3
 48
0.5
100
AcDbLine
 10
397.612998943664
 20
414.9416135198848
 30
0.0
 11
397.612998943664
 21
434.9416135198847
 31
0.0
  0
CIRCLE
  5
61B
330
18
100
AcDbEntity
  8
L-1
  6
PHANTOM2
 62
     3
 48
0.5
100
AcDbCircle
 10
427.612998943664
 20
424.9416135198848
 30
0.0
 40
2.299999999999999
  0
LINE
  5
61C
330
18
100
AcDbEntity
  8
L-1
  6
PHANTOM2
 62
     3
 48
0.5
100
AcDbLine
 10
412.6129989436639
 20
414.9416135198848
 30
0.0
 11
412.6129989436639
 21
434.9416135198847
 31
0.0
  0
LINE
  5
61D
330
18
100
AcDbEntity
  8
L-1
  6
CONTINUOUS
 62
     7
100
AcDbLine
 10
497.0629989436636
 20
377.9416135198854
 30
0.0
 11
452.1129989436637
 21
377.9416135198854
 31
0.0
  0
LINE
  5
620
330
18
100
AcDbEntity
  8
L-1
  6
CONTINUOUS
 62
     7
100
AcDbLine
 10
452.1129989436637
 20
377.9416135198854
 30
0.0
 11
452.1129989436637
 21
380.9416135198854
 31
0.0
  0
LINE
  5
627
330
18
100
AcDbEntity
  8
L-1
  6
CONTINUOUS
 62
     7
100
AcDbLine
 10
497.0629989436636
 20
377.9416135198854
 30
0.0
 11
497.062998943664
 21
380.9416135198854
 31
0.0
  0
LINE
  5
628
330
18
100
AcDbEntity
  8
L-1
  6
PHANTOM2
 62
     3
 48
0.3
100
AcDbLine
 10
479.012998943664
 20
422.1416135198848
 30
0.0
 11
466.2129989436639
 21
422.1416135198848
 31
0.0
  0
LINE
  5
629
330
18
100
AcDbEntity
  8
L-1
  6
PHANTOM2
 62
     3
 48
0.3
100
AcDbLine
 10
479.012998943664
 20
427.7416135198848
 30
0.0
 11
466.2129989436639
 21
427.7416135198848
 31
0.0
  0
ARC
  5
62A
330
18
100
AcDbEntity
  8
L-1
  6
PHANTOM2
 62
     3
 48
0.5
100
AcDbCircle
 10
455.112998943664
 20
414.9416135198848
 30
0.0
 40
2.5
100
AcDbArc
 50
180.0
 51
0.0
  0
ARC
  5
62B
330
18
100
AcDbEntity
  8
L-1
  6
PHANTOM2
 62
     3
 48
0.5
100
AcDbCircle
 10
445.112998943664
 20
414.9416135198848
 30
0.0
 40
2.5
100
AcDbArc
 50
180.0
 51
0.0
  0
LINE
  5
62C
330
18
100
AcDbEntity
  8
L-1
  6
PHANTOM2
 62
     3
 48
0.5
100
AcDbLine
 10
452.612998943664
 20
414.9416135198848
 30
0.0
 11
452.612998943664
 21
434.9416135198847
 31
0.0
  0
LINE
  5
62D
330
18
100
AcDbEntity
  8
L-1
  6
PHANTOM2
 62
     3
 48
0.5
100
AcDbLine
 10
447.612998943664
 20
414.9416135198848
 30
0.0
 11
447.612998943664
 21
434.9416135198847
 31
0.0
  0
LINE
  5
62E
330
18
100
AcDbEntity
  8
L-1
  6
PHANTOM2
 62
     3
 48
0.5
100
AcDbLine
 10
442.612998943664
 20
414.9416135198848
 30
0.0
 11
442.612998943664
 21
434.9416135198847
 31
0.0
  0
LINE
  5
62F
330
18
100
AcDbEntity
  8
L-1
  6
PHANTOM2
 62
     3
 48
0.3
100
AcDbLine
 10
465.2129989436639
 20
426.7416135198848
 30
0.0
 11
465.2129989436639
 21
423.1416135198847
 31
0.0
  0
LINE
  5
630
330
18
100
AcDbEntity
  8
L-1
  6
PHANTOM2
 62
     3
 48
0.5
100
AcDbLine
 10
457.612998943664
 20
414.9416135198848
 30
0.0
 11
457.612998943664
 21
434.9416135198847
 31
0.0
  0
ARC
  5
631
330
18
100
AcDbEntity
  8
L-1
  6
PHANTOM2
 62
     3
 48
0.3
100
AcDbCircle
 10
466.2129989436639
 20
423.1416135198847
 30
0.0
 40
1.0
100
AcDbArc
 50
180.0
 51
270.0
  0
ARC
  5
632
330
18
100
AcDbEntity
  8
L-1
  6
PHANTOM2
 62
     3
 48
0.3
100
AcDbCircle
 10
466.2129989436639
 20
426.7416135198848
 30
0.0
 40
1.0
100
AcDbArc
 50
89.99999999999959
 51
180.0
  0
LINE
  5
633
330
18
100
AcDbEntity
  8
L-1
  6
PHANTOM2
 62
     3
 48
0.3
100
AcDbLine
 10
480.012998943664
 20
426.7416135198848
 30
0.0
 11
480.012998943664
 21
423.1416135198847
 31
0.0
  0
ARC
  5
634
330
18
100
AcDbEntity
  8
L-1
  6
PHANTOM2
 62
     3
 48
0.3
100
AcDbCircle
 10
479.012998943664
 20
423.1416135198847
 30
0.0
 40
1.0
100
AcDbArc
 50
270.0
 51
0.0
  0
ARC
  5
635
330
18
100
AcDbEntity
  8
L-1
  6
PHANTOM2
 62
     3
 48
0.3
100
AcDbCircle
 10
479.012998943664
 20
426.7416135198848
 30
0.0
 40
1.0
100
AcDbArc
 50
0.0
 51
90.0
  0
LINE
  5
636
330
18
100
AcDbEntity
  8
L-1
  6
PHANTOM2
 62
     3
 48
0.3
100
AcDbLine
 10
511.112998943664
 20
345.4416135198853
 30
0.0
 11
511.1129989436639
 21
352.4416135198851
 31
0.0
  0
LINE
  5
637
330
18
100
AcDbEntity
  8
L-1
  6
PHANTOM2
 62
     3
 48
0.3
100
AcDbLine
 10
511.8129989436639
 20
346.1916135198852
 30
0.0
 11
511.8129989436639
 21
351.6916135198851
 31
0.0
  0
ARC
  5
638
330
18
100
AcDbEntity
  8
L-1
  6
PHANTOM2
 62
     3
 48
0.3
100
AcDbCircle
 10
506.812998943664
 20
348.9416135198851
 30
0.0
 40
7.0
100
AcDbArc
 50
343.7429721033957
 51
16.25702789660426
  0
LINE
  5
639
330
18
100
AcDbEntity
  8
L-1
  6
PHANTOM2
 62
     3
 48
0.3
100
AcDbLine
 10
511.8129989436639
 20
348.6478366735738
 30
0.0
 11
511.1129989436639
 21
349.3721443147864
 31
0.0
  0
LINE
  5
63B
330
18
100
AcDbEntity
  8
L-1
  6
CONTINUOUS
 62
     7
100
AcDbLine
 10
509.612998943664
 20
323.9416135198854
 30
0.0
 11
509.612998943664
 21
380.9416135198854
 31
0.0
  0
LINE
  5
63C
330
18
100
AcDbEntity
  8
L-1
  6
CONTINUOUS
 62
     7
100
AcDbLine
 10
507.612998943664
 20
323.9416135198854
 30
0.0
 11
507.612998943664
 21
380.9416135198854
 31
0.0
  0
LINE
  5
63D
330
18
100
AcDbEntity
  8
L-1
  6
CONTINUOUS
 62
     7
100
AcDbLine
 10
533.612998943664
 20
323.9416135198854
 30
0.0
 11
509.612998943664
 21
323.9416135198854
 31
0.0
  0
LINE
  5
63E
330
18
100
AcDbEntity
  8
L-1
  6
CONTINUOUS
 62
     7
100
AcDbLine
 10
533.612998943664
 20
321.9416135198854
 30
0.0
 11
509.612998943664
 21
321.9416135198854
 31
0.0
  0
LINE
  5
63F
330
18
100
AcDbEntity
  8
L-1
  6
CENTER2
 62
     1
 48
0.3
100
AcDbLine
 10
525.112998943664
 20
317.0141317558583
 30
0.0
 11
525.112998943664
 21
328.0026855968236
 31
0.0
  0
ARC
  5
640
330
18
100
AcDbEntity
  8
L-1
  6
CONTINUOUS
 62
     7
100
AcDbCircle
 10
509.612998943664
 20
323.9416135198854
 30
0.0
 40
2.0
100
AcDbArc
 50
180.0
 51
270.0
  0
ARC
  5
642
330
18
100
AcDbEntity
  8
L-1
  6
PHANTOM2
 62
     3
 48
0.3
100
AcDbCircle
 10
512.5730920837944
 20
347.2619328904138
 30
0.0
 40
1.0
100
AcDbArc
 50
274.9999999999997
 51
343.7429721033957
  0
LINE
  5
643
330
18
100
AcDbEntity
  8
L-1
  6
PHANTOM2
 62
     3
 48
0.3
100
AcDbLine
 10
512.6602478265421
 20
346.265738192322
 30
0.0
 11
511.8129989436639
 21
346.1916135198852
 31
0.0
  0
LINE
  5
644
330
18
100
AcDbEntity
  8
L-1
  6
PHANTOM2
 62
     3
 48
0.3
100
AcDbLine
 10
511.8129989436639
 20
346.1916135198852
 30
0.0
 11
511.1129989436639
 21
346.1916135198852
 31
0.0
  0
LINE
  5
645
330
18
100
AcDbEntity
  8
L-1
  6
PHANTOM2
 62
     3
 48
0.3
100
AcDbLine
 10
511.112998943664
 20
345.4416135198853
 30
0.0
 11
510.612998943664
 21
345.4416135198852
 31
0.0
  0
LINE
  5
646
330
18
100
AcDbEntity
  8
L-1
  6
PHANTOM2
 62
     3
 48
0.5
100
AcDbLine
 10
509.612998943664
 20
340.9416135198852
 30
0.0
 11
510.612998943664
 21
340.9416135198852
 31
0.0
  0
LINE
  5
647
330
18
100
AcDbEntity
  8
L-1
  6
CONTINUOUS
 62
     7
100
AcDbLine
 10
533.612998943664
 20
321.9416135198854
 30
0.0
 11
533.612998943664
 21
323.9416135198854
 31
0.0
  0
LINE
  5
648
330
18
100
AcDbEntity
  8
L-1
  6
PHANTOM2
 62
     3
 48
0.3
100
AcDbLine
 10
512.6602478265421
 20
351.6174888474484
 30
0.0
 11
511.8129989436639
 21
351.6916135198852
 31
0.0
  0
LINE
  5
649
330
18
100
AcDbEntity
  8
L-1
  6
PHANTOM2
 62
     3
 48
0.3
100
AcDbLine
 10
512.6602478265421
 20
351.6174888474484
 30
0.0
 11
511.8129989436639
 21
351.6916135198852
 31
0.0
  0
ARC
  5
64A
330
18
100
AcDbEntity
  8
L-1
  6
PHANTOM2
 62
     3
 48
0.3
100
AcDbCircle
 10
512.5730920837944
 20
350.6212941493566
 30
0.0
 40
1.0
100
AcDbArc
 50
16.25702789660426
 51
85.00000000000026
  0
LINE
  5
64B
330
18
100
AcDbEntity
  8
L-1
  6
PHANTOM2
 62
     3
 48
0.3
100
AcDbLine
 10
511.8129989436639
 20
351.6916135198852
 30
0.0
 11
511.1129989436639
 21
351.6916135198852
 31
0.0
  0
LINE
  5
64C
330
18
100
AcDbEntity
  8
L-1
  6
PHANTOM2
 62
     3
 48
0.3
100
AcDbLine
 10
511.1129989436639
 20
352.4416135198851
 30
0.0
 11
510.6129989436639
 21
352.4416135198852
 31
0.0
  0
LINE
  5
64D
330
18
100
AcDbEntity
  8
L-1
  6
CONTINUOUS
 62
     7
100
AcDbLine
 10
509.612998943664
 20
380.9416135198854
 30
0.0
 11
507.612998943664
 21
380.9416135198854
 31
0.0
  0
ARC
  5
64E
330
18
100
AcDbEntity
  8
L-1
  6
CONTINUOUS
 62
     7
100
AcDbCircle
 10
506.612998943664
 20
379.9416135198854
 30
0.0
 40
1.0
100
AcDbArc
 50
0.0
 51
90.0
  0
LINE
  5
64F
330
18
100
AcDbEntity
  8
L-1
  6
PHANTOM2
 62
     4
 48
0.5
100
AcDbLine
 10
510.612998943664
 20
390.941613519885
 30
0.0
 11
509.612998943664
 21
390.941613519885
 31
0.0
  0
LINE
  5
650
330
18
100
AcDbEntity
  8
L-1
  6
PHANTOM2
 62
     3
 48
0.5
100
AcDbLine
 10
440.112998943664
 20
442.4416135198848
 30
0.0
 11
460.112998943664
 21
442.4416135198848
 31
0.0
  0
LINE
  5
651
330
18
100
AcDbEntity
  8
L-1
  6
PHANTOM2
 62
     3
 48
0.5
100
AcDbLine
 10
440.112998943664
 20
447.4416135198849
 30
0.0
 11
460.112998943664
 21
447.4416135198849
 31
0.0
  0
LINE
  5
652
330
18
100
AcDbEntity
  8
L-1
  6
PHANTOM2
 62
     3
 48
0.5
100
AcDbLine
 10
395.112998943664
 20
442.4416135198848
 30
0.0
 11
415.112998943664
 21
442.4416135198848
 31
0.0
  0
LINE
  5
653
330
18
100
AcDbEntity
  8
L-1
  6
PHANTOM2
 62
     3
 48
0.5
100
AcDbLine
 10
395.112998943664
 20
447.4416135198849
 30
0.0
 11
415.112998943664
 21
447.4416135198849
 31
0.0
  0
ARC
  5
654
330
18
100
AcDbEntity
  8
L-1
  6
PHANTOM2
 62
     3
 48
0.5
100
AcDbCircle
 10
395.112998943664
 20
444.9416135198848
 30
0.0
 40
2.5
100
AcDbArc
 50
90.0
 51
270.0
  0
ARC
  5
655
330
18
100
AcDbEntity
  8
L-1
  6
PHANTOM2
 62
     3
 48
0.5
100
AcDbCircle
 10
415.112998943664
 20
444.9416135198848
 30
0.0
 40
2.5
100
AcDbArc
 50
270.0
 51
90.0
  0
ARC
  5
656
330
18
100
AcDbEntity
  8
L-1
  6
PHANTOM2
 62
     3
 48
0.5
100
AcDbCircle
 10
440.112998943664
 20
444.9416135198848
 30
0.0
 40
2.5
100
AcDbArc
 50
90.0
 51
270.0
  0
ARC
  5
657
330
18
100
AcDbEntity
  8
L-1
  6
PHANTOM2
 62
     3
 48
0.5
100
AcDbCircle
 10
460.112998943664
 20
444.9416135198848
 30
0.0
 40
2.5
100
AcDbArc
 50
270.0
 51
90.0
  0
LINE
  5
658
330
18
100
AcDbEntity
  8
L-1
  6
PHANTOM2
 62
     3
 48
0.5
100
AcDbLine
 10
510.612998943664
 20
453.9416135198847
 30
0.0
 11
506.612998943664
 21
453.9416135198847
 31
0.0
  0
LINE
  5
659
330
18
100
AcDbEntity
  8
L-1
  6
PHANTOM2
 62
     3
 48
0.5
100
AcDbLine
 10
506.612998943664
 20
456.9416135198848
 30
0.0
 11
506.612998943664
 21
453.9416135198847
 31
0.0
  0
LINE
  5
6FB
330
18
100
AcDbEntity
  8
L-1
  6
CONTINUOUS
 62
     5
100
AcDbLine
 10
12.0
 20
450.0
 30
0.0
 11
12.0
 21
430.0
 31
0.0
  0
LINE
  5
6FD
330
18
100
AcDbEntity
  8
L-1
  6
CONTINUOUS
 62
     5
100
AcDbLine
 10
12.0
 20
550.0
 30
0.0
 11
12.0
 21
12.0
 31
0.0
  0
LINE
  5
715
330
18
100
AcDbEntity
  8
L-1
  6
CONTINUOUS
 62
     5
100
AcDbLine
 10
12.0
 20
12.0
 30
0.0
 11
770.0
 21
12.0
 31
0.0
  0
LINE
  5
729
330
18
100
AcDbEntity
  8
L-1
  6
CONTINUOUS
 62
     5
100
AcDbLine
 10
770.0
 20
550.0
 30
0.0
 11
12.0
 21
550.0
 31
0.0
  0
LINE
  5
72A
330
18
100
AcDbEntity
  8
L-1
  6
CONTINUOUS
 62
     5
100
AcDbLine
 10
770.0
 20
550.0
 30
0.0
 11
770.0
 21
12.0
 31
0.0
  0
INSERT
  5
1000
330
18
100
AcDbEntity
  8
L-1
100
AcDbBlockReference
  2
TK
 10
635.4164576001124
 20
19.55368474931972
 30
0.0
 41
2.0
 42
2.0
 43
2.0
  0
LINE
  5
1001
330
18
100
AcDbEntity
  8
L-1
  6
CONTINUOUS
 62
     5
100
AcDbLine
 10
610.0
 20
28.0
 30
0.0
 11
770.0
 21
28.0
 31
0.0
  0
LINE
  5
1002
330
18
100
AcDbEntity
  8
L-1
  6
CONTINUOUS
 62
     5
100
AcDbLine
 10
610.0
 20
72.0
 30
0.0
 11
770.0
 21
72.0
 31
0.0
  0
LINE
  5
1003
330
18
100
AcDbEntity
  8
L-1
  6
CONTINUOUS
 62
     5
100
AcDbLine
 10
610.0
 20
72.0
 30
0.0
 11
610.0
 21
12.0
 31
0.0
  0
TEXT
  5
1004
330
18
100
AcDbEntity
  8
L-2
  6
CONTINUOUS
 62
     2
100
AcDbText
 10
699.2314750329092
 20
75.72553666463182
 30
0.0
 40
8.0
  1
（単位：ｍｍ）
  7
MSゴシック
100
AcDbText
  0
TEXT
  5
1005
330
18
100
AcDbEntity
  8
L-1
  6
CONTINUOUS
 62
     2
100
AcDbText
 10
639.467276625183
 20
15.74748096608317
 30
0.0
 40
8.8
  1
東京通信機工業株式会社
  7
MSゴシック
100
AcDbText
  0
TEXT
  5
1006
330
18
100
AcDbEntity
  8
L-2
  6
CONTINUOUS
 62
     2
100
AcDbText
 10
623.0904928643833
 20
45.92973750957617
 30
0.0
 40
9.0
  1
ＭＴ２０ラック用フレーム－３Ｕ Ａｓｓｙ
 41
0.6
  7
MSゴシック
100
AcDbText
  0
LINE
  5
1547
330
18
100
AcDbEntity
  8
L-1
  6
CONTINUOUS
 62
     7
100
AcDbLine
 10
78.61299894366379
 20
111.5894679099835
 30
0.0
 11
506.6129989436638
 21
111.5894679099835
 31
0.0
  0
LINE
  5
1548
330
18
100
AcDbEntity
  8
L-1
  6
CONTINUOUS
 62
     7
100
AcDbLine
 10
78.61299894366379
 20
243.5894679099835
 30
0.0
 11
506.6129989436638
 21
243.5894679099835
 31
0.0
  0
LINE
  5
1549
330
18
100
AcDbEntity
  8
L-1
  6
CONTINUOUS
 62
     7
100
AcDbLine
 10
367.2185502191278
 20
242.5894679099835
 30
0.0
 11
506.6129989436638
 21
242.5894679099834
 31
0.0
  0
LINE
  5
154A
330
18
100
AcDbEntity
  8
L-1
  6
CONTINUOUS
 62
     7
100
AcDbLine
 10
367.2185502191278
 20
112.5894679099835
 30
0.0
 11
506.6129989436635
 21
112.5894679099835
 31
0.0
  0
LINE
  5
154C
330
18
100
AcDbEntity
  8
L-1
  6
CONTINUOUS
 62
     7
100
AcDbLine
 10
78.61299894366402
 20
112.5894679099835
 30
0.0
 11
218.0074476681995
 21
112.5894679099835
 31
0.0
  0
LINE
  5
154D
330
18
100
AcDbEntity
  8
L-1
  6
CONTINUOUS
 62
     7
100
AcDbLine
 10
78.61299894366379
 20
242.5894679099835
 30
0.0
 11
218.0074476681995
 21
242.5894679099835
 31
0.0
  0
LINE
  5
154E
330
18
100
AcDbEntity
  8
L-1
  6
CONTINUOUS
 62
     7
100
AcDbLine
 10
132.1129989436636
 20
242.5894679099835
 30
0.0
 11
132.1129989436636
 21
112.5894679099835
 31
0.0
  0
ARC
  5
1550
330
18
100
AcDbEntity
  8
L-1
  6
CONTINUOUS
 62
     7
100
AcDbCircle
 10
60.11299894366368
 20
190.2894679099835
 30
0.0
 40
5.99999999999999
100
AcDbArc
 50
120.0000000000005
 51
59.99999999999875
  0
LINE
  5
1551
330
18
100
AcDbEntity
  8
L-1
  6
CONTINUOUS
 62
     7
100
AcDbLine
 10
88.16299894366364
 20
242.5894679099835
 30
0.0
 11
88.16299894366443
 21
112.5894679099835
 31
0.0
  0
LINE
  5
1552
330
18
100
AcDbEntity
  8
L-1
  6
CONTINUOUS
 62
     7
100
AcDbLine
 10
78.61299894366379
 20
242.5894679099834
 30
0.0
 11
78.61299894366402
 21
112.5894679099835
 31
0.0
  0
LINE
  5
1553
330
18
100
AcDbEntity
  8
L-1
  6
CONTINUOUS
 62
     7
100
AcDbLine
 10
77.6129989436638
 20
111.5894679099835
 30
0.0
 11
77.6129989436638
 21
243.5894679099835
 31
0.0
  0
LINE
  5
1555
330
18
100
AcDbEntity
  8
L-1
  6
CONTINUOUS
 62
     7
100
AcDbLine
 10
51.61299894366379
 20
113.5894679099835
 30
0.0
 11
51.61299894366379
 21
241.5894679099835
 31
0.0
  0
LINE
  5
1556
330
18
100
AcDbEntity
  8
L-1
  6
CONTINUOUS
 62
     7
100
AcDbLine
 10
81.16299894366397
 20
240.0894679099836
 30
0.0
 11
81.16299894366397
 21
115.0894679099836
 31
0.0
  0
LINE
  5
1557
330
18
100
AcDbEntity
  8
L-1
  6
CONTINUOUS
 62
     7
100
AcDbLine
 10
89.16299894366398
 20
240.0894679099836
 30
0.0
 11
89.16299894366398
 21
115.0894679099836
 31
0.0
  0
LINE
  5
1559
330
18
100
AcDbEntity
  8
L-1
  6
CONTINUOUS
 62
     7
100
AcDbLine
 10
77.6129989436638
 20
111.5894679099835
 30
0.0
 11
53.61299894366379
 21
111.5894679099835
 31
0.0
  0
ARC
  5
155A
330
18
100
AcDbEntity
  8
L-1
  6
CONTINUOUS
 62
     7
100
AcDbCircle
 10
53.61299894366402
 20
113.5894679099835
 30
0.0
 40
2.000000000000113
100
AcDbArc
 50
180.0
 51
269.9999999999934
  0
ARC
  5
155B
330
18
100
AcDbEntity
  8
L-1
  6
CONTINUOUS
 62
     7
100
AcDbCircle
 10
78.61299894366379
 20
112.5894679099835
 30
0.0
 40
1.0
100
AcDbArc
 50
180.0
 51
270.0
  0
LINE
  5
155C
330
18
100
AcDbEntity
  8
L-1
  6
CONTINUOUS
 62
     7
100
AcDbLine
 10
77.61299894366402
 20
121.5894679099835
 30
0.0
 11
78.61299894366402
 21
121.5894679099835
 31
0.0
  0
LINE
  5
155D
330
18
100
AcDbEntity
  8
L-1
  6
CONTINUOUS
 62
     7
100
AcDbLine
 10
81.16299894366397
 20
115.0894679099836
 30
0.0
 11
89.16299894366398
 21
115.0894679099836
 31
0.0
  0
LINE
  5
155E
330
18
100
AcDbEntity
  8
L-1
  6
CONTINUOUS
 62
     7
100
AcDbLine
 10
88.16299894366352
 20
116.0894679099835
 30
0.0
 11
89.16299894366398
 21
116.0894679099835
 31
0.0
  0
LINE
  5
155F
330
18
100
AcDbEntity
  8
L-1
  6
CONTINUOUS
 62
     7
100
AcDbLine
 10
88.16299894366352
 20
122.5894679099836
 30
0.0
 11
89.16299894366398
 21
122.5894679099836
 31
0.0
  0
LINE
  5
1560
330
18
100
AcDbEntity
  8
L-1
  6
CONTINUOUS
 62
     7
100
AcDbLine
 10
88.16299894366352
 20
132.5894679099835
 30
0.0
 11
89.16299894366398
 21
132.5894679099835
 31
0.0
  0
LINE
  5
1562
330
18
100
AcDbEntity
  8
L-1
  6
CONTINUOUS
 62
     7
100
AcDbLine
 10
88.16299894366352
 20
139.0894679099835
 30
0.0
 11
89.16299894366398
 21
139.0894679099835
 31
0.0
  0
LINE
  5
1563
330
18
100
AcDbEntity
  8
L-1
  6
CONTINUOUS
 62
     7
100
AcDbLine
 10
88.16299894366352
 20
141.0894679099835
 30
0.0
 11
89.16299894366398
 21
141.0894679099835
 31
0.0
  0
ARC
  5
1564
330
18
100
AcDbEntity
  8
L-1
  6
CONTINUOUS
 62
     7
100
AcDbCircle
 10
61.71299894366382
 20
149.0144679099836
 30
0.0
 40
3.549999999999999
100
AcDbArc
 50
270.0
 51
90.0
  0
ARC
  5
1566
330
18
100
AcDbEntity
  8
L-1
  6
CONTINUOUS
 62
     7
100
AcDbCircle
 10
58.51299894366377
 20
149.0144679099836
 30
0.0
 40
3.549999999999999
100
AcDbArc
 50
90.0
 51
270.0
  0
LINE
  5
1567
330
18
100
AcDbEntity
  8
L-1
  6
CONTINUOUS
 62
     7
100
AcDbLine
 10
58.51299894366377
 20
152.5644679099836
 30
0.0
 11
61.71299894366382
 21
152.5644679099836
 31
0.0
  0
LINE
  5
1568
330
18
100
AcDbEntity
  8
L-1
  6
CONTINUOUS
 62
     7
100
AcDbLine
 10
58.51299894366377
 20
145.4644679099836
 30
0.0
 11
61.71299894366382
 21
145.4644679099836
 31
0.0
  0
LINE
  5
1569
330
18
100
AcDbEntity
  8
L-1
  6
CONTINUOUS
 62
     7
100
AcDbLine
 10
88.16299894366375
 20
147.5894679099835
 30
0.0
 11
89.16299894366398
 21
147.5894679099835
 31
0.0
  0
LINE
  5
156A
330
18
100
AcDbEntity
  8
L-1
  6
CONTINUOUS
 62
     7
100
AcDbLine
 10
88.16299894366375
 20
157.5894679099835
 30
0.0
 11
89.16299894366398
 21
157.5894679099835
 31
0.0
  0
LINE
  5
156B
330
18
100
AcDbEntity
  8
L-1
  6
CONTINUOUS
 62
     7
100
AcDbLine
 10
88.16299894366375
 20
164.0894679099836
 30
0.0
 11
89.16299894366398
 21
164.0894679099835
 31
0.0
  0
LINE
  5
156C
330
18
100
AcDbEntity
  8
L-1
  6
CONTINUOUS
 62
     7
100
AcDbLine
 10
88.16299894366375
 20
166.0894679099836
 30
0.0
 11
89.16299894366398
 21
166.0894679099835
 31
0.0
  0
LINE
  5
156D
330
18
100
AcDbEntity
  8
L-1
  6
CONTINUOUS
 62
     7
100
AcDbLine
 10
88.16299894366375
 20
172.5894679099835
 30
0.0
 11
89.16299894366398
 21
172.5894679099835
 31
0.0
  0
LINE
  5
156E
330
18
100
AcDbEntity
  8
L-1
  6
CONTINUOUS
 62
     7
100
AcDbLine
 10
88.16299894366375
 20
182.5894679099835
 30
0.0
 11
89.16299894366398
 21
182.5894679099835
 31
0.0
  0
ARC
  5
1576
330
18
100
AcDbEntity
  8
L-1
  6
CONTINUOUS
 62
     7
100
AcDbCircle
 10
61.61299894366379
 20
206.1644679099834
 30
0.0
 40
3.499999999999988
100
AcDbArc
 50
295.3769335251536
 51
90.0
  0
ARC
  5
1578
330
18
100
AcDbEntity
  8
L-1
  6
CONTINUOUS
 62
     7
100
AcDbCircle
 10
58.61299894366379
 20
206.1644679099835
 30
0.0
 40
3.5
100
AcDbArc
 50
90.0
 51
244.6230664748536
  0
LINE
  5
157A
330
18
100
AcDbEntity
  8
L-1
  6
CONTINUOUS
 62
     7
100
AcDbLine
 10
57.1129989436638
 20
195.4856203326901
 30
0.0
 11
57.11299894366425
 21
202.9938960688201
 31
0.0
  0
LINE
  5
157B
330
18
100
AcDbEntity
  8
L-1
  6
CONTINUOUS
 62
     7
100
AcDbLine
 10
63.1129989436638
 20
195.48562033269
 30
0.0
 11
63.1129989436638
 21
202.9938960688203
 31
0.0
  0
LINE
  5
157C
330
18
100
AcDbEntity
  8
L-1
  6
CONTINUOUS
 62
     7
100
AcDbLine
 10
58.61299894366379
 20
209.6644679099835
 30
0.0
 11
61.61299894366391
 21
209.6644679099834
 31
0.0
  0
LINE
  5
157D
330
18
100
AcDbEntity
  8
L-1
  6
CONTINUOUS
 62
     7
100
AcDbLine
 10
88.16299894366375
 20
191.0894679099835
 30
0.0
 11
89.16299894366398
 21
191.0894679099835
 31
0.0
  0
LINE
  5
157E
330
18
100
AcDbEntity
  8
L-1
  6
CONTINUOUS
 62
     7
100
AcDbLine
 10
88.16299894366375
 20
197.5894679099836
 30
0.0
 11
89.16299894366398
 21
197.5894679099835
 31
0.0
  0
LINE
  5
157F
330
18
100
AcDbEntity
  8
L-1
  6
CONTINUOUS
 62
     7
100
AcDbLine
 10
88.16299894366375
 20
189.0894679099835
 30
0.0
 11
89.16299894366398
 21
189.0894679099835
 31
0.0
  0
LINE
  5
1580
330
18
100
AcDbEntity
  8
L-1
  6
CONTINUOUS
 62
     7
100
AcDbLine
 10
88.16299894366375
 20
207.5894679099835
 30
0.0
 11
89.16299894366398
 21
207.5894679099835
 31
0.0
  0
LINE
  5
1582
330
18
100
AcDbEntity
  8
L-1
  6
CONTINUOUS
 62
     7
100
AcDbLine
 10
88.16299894366352
 20
214.0894679099836
 30
0.0
 11
89.16299894366398
 21
214.0894679099835
 31
0.0
  0
LINE
  5
1583
330
18
100
AcDbEntity
  8
L-1
  6
CONTINUOUS
 62
     7
100
AcDbLine
 10
88.16299894366352
 20
216.0894679099836
 30
0.0
 11
89.16299894366398
 21
216.0894679099835
 31
0.0
  0
LINE
  5
1584
330
18
100
AcDbEntity
  8
L-1
  6
CONTINUOUS
 62
     7
100
AcDbLine
 10
88.16299894366352
 20
222.5894679099835
 30
0.0
 11
89.16299894366398
 21
222.5894679099835
 31
0.0
  0
LINE
  5
1585
330
18
100
AcDbEntity
  8
L-1
  6
CONTINUOUS
 62
     7
100
AcDbLine
 10
77.6129989436638
 20
243.5894679099835
 30
0.0
 11
53.61299894366379
 21
243.5894679099835
 31
0.0
  0
ARC
  5
1586
330
18
100
AcDbEntity
  8
L-1
  6
CONTINUOUS
 62
     7
100
AcDbCircle
 10
53.61299894366379
 20
241.5894679099835
 30
0.0
 40
2.0
100
AcDbArc
 50
90.0
 51
180.0
  0
LINE
  5
1587
330
18
100
AcDbEntity
  8
L-1
  6
CONTINUOUS
 62
     7
100
AcDbLine
 10
77.6129989436638
 20
233.5894679099835
 30
0.0
 11
78.61299894366379
 21
233.5894679099834
 31
0.0
  0
ARC
  5
1588
330
18
100
AcDbEntity
  8
L-1
  6
CONTINUOUS
 62
     7
100
AcDbCircle
 10
78.61299894366379
 20
242.5894679099835
 30
0.0
 40
1.0
100
AcDbArc
 50
90.0
 51
180.0
  0
LINE
  5
1589
330
18
100
AcDbEntity
  8
L-1
  6
CONTINUOUS
 62
     7
100
AcDbLine
 10
81.16299894366397
 20
240.0894679099836
 30
0.0
 11
89.16299894366398
 21
240.0894679099836
 31
0.0
  0
LINE
  5
158A
330
18
100
AcDbEntity
  8
L-1
  6
CONTINUOUS
 62
     7
100
AcDbLine
 10
88.16299894366352
 20
239.0894679099835
 30
0.0
 11
89.16299894366398
 21
239.0894679099835
 31
0.0
  0
LINE
  5
158B
330
18
100
AcDbEntity
  8
L-1
  6
CONTINUOUS
 62
     7
100
AcDbLine
 10
88.16299894366352
 20
232.5894679099834
 30
0.0
 11
89.16299894366398
 21
232.5894679099835
 31
0.0
  0
LINE
  5
158C
330
18
100
AcDbEntity
  8
L-1
  6
CONTINUOUS
 62
     7
100
AcDbLine
 10
372.1629989436635
 20
242.5894679099836
 30
0.0
 11
372.1629989436635
 21
112.5894679099835
 31
0.0
  0
LINE
  5
158D
330
18
100
AcDbEntity
  8
L-1
  6
CONTINUOUS
 62
     7
100
AcDbLine
 10
373.162998943664
 20
240.0894679099836
 30
0.0
 11
373.162998943664
 21
115.0894679099836
 31
0.0
  0
LINE
  5
158E
330
18
100
AcDbEntity
  8
L-1
  6
CONTINUOUS
 62
     7
100
AcDbLine
 10
274.1129989436637
 20
242.5894679099835
 30
0.0
 11
274.1129989436637
 21
112.5894679099835
 31
0.0
  0
LINE
  5
158F
330
18
100
AcDbEntity
  8
L-1
  6
CONTINUOUS
 62
     7
100
AcDbLine
 10
311.1129989436635
 20
242.5894679099835
 30
0.0
 11
311.1129989436637
 21
112.5894679099835
 31
0.0
  0
LINE
  5
1590
330
18
100
AcDbEntity
  8
L-1
  6
CONTINUOUS
 62
     7
100
AcDbLine
 10
355.0629989436638
 20
242.5894679099835
 30
0.0
 11
355.0629989436637
 21
112.5894679099835
 31
0.0
  0
LINE
  5
1591
330
18
100
AcDbEntity
  8
L-1
  6
CONTINUOUS
 62
     7
100
AcDbLine
 10
354.0629989436634
 20
240.0894679099836
 30
0.0
 11
354.0629989436634
 21
115.0894679099836
 31
0.0
  0
LINE
  5
1592
330
18
100
AcDbEntity
  8
L-1
  6
CONTINUOUS
 62
     7
100
AcDbLine
 10
362.0629989436634
 20
240.0894679099836
 30
0.0
 11
362.0629989436634
 21
115.0894679099836
 31
0.0
  0
LINE
  5
1593
330
18
100
AcDbEntity
  8
L-1
  6
CONTINUOUS
 62
     7
100
AcDbLine
 10
365.1629989436639
 20
240.0894679099836
 30
0.0
 11
365.1629989436639
 21
115.0894679099836
 31
0.0
  0
LINE
  5
1596
330
18
100
AcDbEntity
  8
L-1
  6
CONTINUOUS
 62
     7
100
AcDbLine
 10
169.1129989436636
 20
242.5894679099835
 30
0.0
 11
169.1129989436636
 21
112.5894679099835
 31
0.0
  0
LINE
  5
1597
330
18
100
AcDbEntity
  8
L-1
  6
CONTINUOUS
 62
     7
100
AcDbLine
 10
213.0629989436637
 20
242.5894679099835
 30
0.0
 11
213.0629989436637
 21
112.5894679099835
 31
0.0
  0
LINE
  5
1598
330
18
100
AcDbEntity
  8
L-1
  6
CONTINUOUS
 62
     7
100
AcDbLine
 10
230.1629989436636
 20
242.5894679099835
 30
0.0
 11
230.1629989436636
 21
112.5894679099835
 31
0.0
  0
LINE
  5
1599
330
18
100
AcDbEntity
  8
L-1
  6
CONTINUOUS
 62
     7
100
AcDbLine
 10
212.0629989436636
 20
240.0894679099836
 30
0.0
 11
212.0629989436636
 21
115.0894679099836
 31
0.0
  0
LINE
  5
159A
330
18
100
AcDbEntity
  8
L-1
  6
CONTINUOUS
 62
     7
100
AcDbLine
 10
220.0629989436636
 20
240.0894679099836
 30
0.0
 11
220.0629989436636
 21
115.0894679099836
 31
0.0
  0
LINE
  5
159B
330
18
100
AcDbEntity
  8
L-1
  6
CONTINUOUS
 62
     7
100
AcDbLine
 10
223.1629989436638
 20
240.0894679099836
 30
0.0
 11
223.1629989436638
 21
115.0894679099836
 31
0.0
  0
LINE
  5
159C
330
18
100
AcDbEntity
  8
L-1
  6
CONTINUOUS
 62
     7
100
AcDbLine
 10
231.1629989436638
 20
240.0894679099836
 30
0.0
 11
231.1629989436638
 21
115.0894679099836
 31
0.0
  0
LINE
  5
159E
330
18
100
AcDbEntity
  8
L-1
  6
CONTINUOUS
 62
     7
100
AcDbLine
 10
225.2185502191275
 20
112.5894679099835
 30
0.0
 11
360.0074476681998
 21
112.5894679099835
 31
0.0
  0
LINE
  5
159F
330
18
100
AcDbEntity
  8
L-1
  6
CONTINUOUS
 62
     7
100
AcDbLine
 10
220.0629989436636
 20
115.0894679099836
 30
0.0
 11
212.0629989436636
 21
115.0894679099836
 31
0.0
  0
LINE
  5
15A7
330
18
100
AcDbEntity
  8
L-1
  6
CONTINUOUS
 62
     7
100
AcDbLine
 10
213.062998943664
 20
122.5894679099836
 30
0.0
 11
212.0629989436634
 21
122.5894679099836
 31
0.0
  0
LINE
  5
15A8
330
18
100
AcDbEntity
  8
L-1
  6
CONTINUOUS
 62
     7
100
AcDbLine
 10
213.062998943664
 20
116.0894679099835
 30
0.0
 11
212.0629989436636
 21
116.0894679099835
 31
0.0
  0
LINE
  5
15A9
330
18
100
AcDbEntity
  8
L-1
  6
CONTINUOUS
 62
     7
100
AcDbLine
 10
213.0629989436638
 20
132.5894679099835
 30
0.0
 11
212.0629989436636
 21
132.5894679099835
 31
0.0
  0
LINE
  5
15AA
330
18
100
AcDbEntity
  8
L-1
  6
CONTINUOUS
 62
     7
100
AcDbLine
 10
213.0629989436638
 20
141.0894679099835
 30
0.0
 11
212.0629989436636
 21
141.0894679099835
 31
0.0
  0
LINE
  5
15AB
330
18
100
AcDbEntity
  8
L-1
  6
CONTINUOUS
 62
     7
100
AcDbLine
 10
213.0629989436638
 20
139.0894679099835
 30
0.0
 11
212.0629989436636
 21
139.0894679099835
 31
0.0
  0
LINE
  5
15AC
330
18
100
AcDbEntity
  8
L-1
  6
CONTINUOUS
 62
     7
100
AcDbLine
 10
213.0629989436638
 20
147.5894679099835
 30
0.0
 11
212.0629989436636
 21
147.5894679099835
 31
0.0
  0
LINE
  5
15AD
330
18
100
AcDbEntity
  8
L-1
  6
CONTINUOUS
 62
     7
100
AcDbLine
 10
213.0629989436636
 20
166.0894679099836
 30
0.0
 11
212.0629989436634
 21
166.0894679099835
 31
0.0
  0
LINE
  5
15AE
330
18
100
AcDbEntity
  8
L-1
  6
CONTINUOUS
 62
     7
100
AcDbLine
 10
213.0629989436636
 20
164.0894679099836
 30
0.0
 11
212.0629989436634
 21
164.0894679099835
 31
0.0
  0
LINE
  5
15AF
330
18
100
AcDbEntity
  8
L-1
  6
CONTINUOUS
 62
     7
100
AcDbLine
 10
213.0629989436638
 20
157.5894679099835
 30
0.0
 11
212.0629989436636
 21
157.5894679099835
 31
0.0
  0
LINE
  5
15B0
330
18
100
AcDbEntity
  8
L-1
  6
CONTINUOUS
 62
     7
100
AcDbLine
 10
213.0629989436636
 20
172.5894679099835
 30
0.0
 11
212.0629989436636
 21
172.5894679099835
 31
0.0
  0
LINE
  5
15B1
330
18
100
AcDbEntity
  8
L-1
  6
CONTINUOUS
 62
     7
100
AcDbLine
 10
213.0629989436636
 20
182.5894679099835
 30
0.0
 11
212.0629989436636
 21
182.5894679099835
 31
0.0
  0
LINE
  5
15B2
330
18
100
AcDbEntity
  8
L-1
  6
CONTINUOUS
 62
     7
100
AcDbLine
 10
223.1629989436638
 20
115.0894679099836
 30
0.0
 11
231.1629989436638
 21
115.0894679099836
 31
0.0
  0
ARC
  5
15B3
330
18
100
AcDbEntity
  8
L-1
  6
CONTINUOUS
 62
     7
100
AcDbCircle
 10
225.2185502191275
 20
115.5894679099835
 30
0.0
 40
3.0
100
AcDbArc
 50
238.9972808661247
 51
270.0
  0
ARC
  5
15B4
330
18
100
AcDbEntity
  8
L-1
  6
CONTINUOUS
 62
     7
100
AcDbCircle
 10
218.0074476681995
 20
115.5894679099835
 30
0.0
 40
3.0
100
AcDbArc
 50
270.0
 51
301.0027191338752
  0
ARC
  5
15B5
330
18
100
AcDbEntity
  8
L-1
  6
CONTINUOUS
 62
     7
100
AcDbCircle
 10
221.6129989436635
 20
109.5894679099835
 30
0.0
 40
3.0
100
AcDbArc
 50
56.44269023807843
 51
123.5573097619215
  0
ARC
  5
15B6
330
18
100
AcDbEntity
  8
L-1
  6
CONTINUOUS
 62
     7
100
AcDbCircle
 10
218.2963741533082
 20
114.5894679099835
 30
0.0
 40
3.0
100
AcDbArc
 50
270.0
 51
303.5573097619216
  0
ARC
  5
15B7
330
18
100
AcDbEntity
  8
L-1
  6
CONTINUOUS
 62
     7
100
AcDbCircle
 10
224.9296237340189
 20
114.5894679099835
 30
0.0
 40
3.0
100
AcDbArc
 50
236.4426902380777
 51
270.0
  0
ARC
  5
15B8
330
18
100
AcDbEntity
  8
L-1
  6
CONTINUOUS
 62
     7
100
AcDbCircle
 10
221.6129989436635
 20
109.5894679099835
 30
0.0
 40
4.0
100
AcDbArc
 50
58.99728086612476
 51
121.0027191338752
  0
LINE
  5
15B9
330
18
100
AcDbEntity
  8
L-1
  6
CONTINUOUS
 62
     7
100
AcDbLine
 10
230.1629989436633
 20
116.0894679099835
 30
0.0
 11
231.1629989436637
 21
116.0894679099835
 31
0.0
  0
LINE
  5
15BA
330
18
100
AcDbEntity
  8
L-1
  6
CONTINUOUS
 62
     7
100
AcDbLine
 10
230.1629989436633
 20
122.5894679099836
 30
0.0
 11
231.1629989436639
 21
122.5894679099836
 31
0.0
  0
LINE
  5
15BD
330
18
100
AcDbEntity
  8
L-1
  6
CONTINUOUS
 62
     7
100
AcDbLine
 10
230.1629989436635
 20
132.5894679099835
 30
0.0
 11
231.1629989436637
 21
132.5894679099835
 31
0.0
  0
LINE
  5
15BE
330
18
100
AcDbEntity
  8
L-1
  6
CONTINUOUS
 62
     7
100
AcDbLine
 10
230.1629989436635
 20
139.0894679099835
 30
0.0
 11
231.1629989436637
 21
139.0894679099835
 31
0.0
  0
LINE
  5
15BF
330
18
100
AcDbEntity
  8
L-1
  6
CONTINUOUS
 62
     7
100
AcDbLine
 10
230.1629989436635
 20
141.0894679099835
 30
0.0
 11
231.1629989436637
 21
141.0894679099835
 31
0.0
  0
LINE
  5
15C0
330
18
100
AcDbEntity
  8
L-1
  6
CONTINUOUS
 62
     7
100
AcDbLine
 10
230.1629989436635
 20
147.5894679099835
 30
0.0
 11
231.1629989436637
 21
147.5894679099835
 31
0.0
  0
LINE
  5
15C1
330
18
100
AcDbEntity
  8
L-1
  6
CONTINUOUS
 62
     7
100
AcDbLine
 10
230.1629989436635
 20
157.5894679099835
 30
0.0
 11
231.1629989436637
 21
157.5894679099835
 31
0.0
  0
LINE
  5
15C2
330
18
100
AcDbEntity
  8
L-1
  6
CONTINUOUS
 62
     7
100
AcDbLine
 10
230.1629989436637
 20
164.0894679099836
 30
0.0
 11
231.1629989436639
 21
164.0894679099835
 31
0.0
  0
LINE
  5
15C3
330
18
100
AcDbEntity
  8
L-1
  6
CONTINUOUS
 62
     7
100
AcDbLine
 10
230.1629989436637
 20
166.0894679099836
 30
0.0
 11
231.1629989436639
 21
166.0894679099835
 31
0.0
  0
LINE
  5
15C4
330
18
100
AcDbEntity
  8
L-1
  6
CONTINUOUS
 62
     7
100
AcDbLine
 10
230.1629989436637
 20
172.5894679099835
 30
0.0
 11
231.1629989436637
 21
172.5894679099835
 31
0.0
  0
LINE
  5
15C5
330
18
100
AcDbEntity
  8
L-1
  6
CONTINUOUS
 62
     7
100
AcDbLine
 10
230.1629989436637
 20
182.5894679099835
 30
0.0
 11
231.1629989436637
 21
182.5894679099835
 31
0.0
  0
ARC
  5
15C6
330
18
100
AcDbEntity
  8
L-1
  6
CONTINUOUS
 62
     7
100
AcDbCircle
 10
363.6129989436637
 20
109.5894679099835
 30
0.0
 40
3.0
100
AcDbArc
 50
56.44269023807843
 51
123.5573097619215
  0
ARC
  5
15C7
330
18
100
AcDbEntity
  8
L-1
  6
CONTINUOUS
 62
     7
100
AcDbCircle
 10
363.6129989436637
 20
109.5894679099835
 30
0.0
 40
4.0
100
AcDbArc
 50
58.99728086612476
 51
121.0027191338752
  0
ARC
  5
15C8
330
18
100
AcDbEntity
  8
L-1
  6
CONTINUOUS
 62
     7
100
AcDbCircle
 10
360.0074476681998
 20
115.5894679099835
 30
0.0
 40
3.0
100
AcDbArc
 50
270.0
 51
301.0027191338752
  0
ARC
  5
15C9
330
18
100
AcDbEntity
  8
L-1
  6
CONTINUOUS
 62
     7
100
AcDbCircle
 10
360.2963741533084
 20
114.5894679099835
 30
0.0
 40
3.0
100
AcDbArc
 50
270.0
 51
303.5573097619216
  0
LINE
  5
15CA
330
18
100
AcDbEntity
  8
L-1
  6
CONTINUOUS
 62
     7
100
AcDbLine
 10
362.0629989436634
 20
115.0894679099836
 30
0.0
 11
354.0629989436634
 21
115.0894679099836
 31
0.0
  0
LINE
  5
15CB
330
18
100
AcDbEntity
  8
L-1
  6
CONTINUOUS
 62
     7
100
AcDbLine
 10
355.0629989436638
 20
122.5894679099836
 30
0.0
 11
354.0629989436633
 21
122.5894679099836
 31
0.0
  0
LINE
  5
15CC
330
18
100
AcDbEntity
  8
L-1
  6
CONTINUOUS
 62
     7
100
AcDbLine
 10
355.0629989436638
 20
116.0894679099835
 30
0.0
 11
354.0629989436633
 21
116.0894679099835
 31
0.0
  0
LINE
  5
15CD
330
18
100
AcDbEntity
  8
L-1
  6
CONTINUOUS
 62
     7
100
AcDbLine
 10
355.0629989436638
 20
132.5894679099835
 30
0.0
 11
354.0629989436633
 21
132.5894679099835
 31
0.0
  0
LINE
  5
15CF
330
18
100
AcDbEntity
  8
L-1
  6
CONTINUOUS
 62
     7
100
AcDbLine
 10
355.0629989436638
 20
141.0894679099835
 30
0.0
 11
354.0629989436633
 21
141.0894679099835
 31
0.0
  0
LINE
  5
15D0
330
18
100
AcDbEntity
  8
L-1
  6
CONTINUOUS
 62
     7
100
AcDbLine
 10
355.0629989436638
 20
139.0894679099835
 30
0.0
 11
354.0629989436633
 21
139.0894679099835
 31
0.0
  0
ARC
  5
15D1
330
18
100
AcDbEntity
  8
L-1
  6
CONTINUOUS
 62
     7
100
AcDbCircle
 10
367.2185502191278
 20
115.5894679099835
 30
0.0
 40
3.0
100
AcDbArc
 50
238.9972808661247
 51
270.0
  0
ARC
  5
15D2
330
18
100
AcDbEntity
  8
L-1
  6
CONTINUOUS
 62
     7
100
AcDbCircle
 10
366.9296237340191
 20
114.5894679099835
 30
0.0
 40
3.0
100
AcDbArc
 50
236.4426902380777
 51
270.0
  0
LINE
  5
15D3
330
18
100
AcDbEntity
  8
L-1
  6
CONTINUOUS
 62
     7
100
AcDbLine
 10
372.1629989436635
 20
122.5894679099836
 30
0.0
 11
373.162998943664
 21
122.5894679099836
 31
0.0
  0
LINE
  5
15D4
330
18
100
AcDbEntity
  8
L-1
  6
CONTINUOUS
 62
     7
100
AcDbLine
 10
372.1629989436635
 20
116.0894679099835
 30
0.0
 11
373.162998943664
 21
116.0894679099835
 31
0.0
  0
LINE
  5
15D5
330
18
100
AcDbEntity
  8
L-1
  6
CONTINUOUS
 62
     7
100
AcDbLine
 10
365.1629989436639
 20
115.0894679099836
 30
0.0
 11
373.162998943664
 21
115.0894679099836
 31
0.0
  0
LINE
  5
15D6
330
18
100
AcDbEntity
  8
L-1
  6
CONTINUOUS
 62
     7
100
AcDbLine
 10
372.1629989436636
 20
132.5894679099835
 30
0.0
 11
373.162998943664
 21
132.5894679099835
 31
0.0
  0
LINE
  5
15D7
330
18
100
AcDbEntity
  8
L-1
  6
CONTINUOUS
 62
     7
100
AcDbLine
 10
372.1629989436636
 20
141.0894679099835
 30
0.0
 11
373.162998943664
 21
141.0894679099835
 31
0.0
  0
LINE
  5
15D8
330
18
100
AcDbEntity
  8
L-1
  6
CONTINUOUS
 62
     7
100
AcDbLine
 10
372.1629989436636
 20
139.0894679099835
 30
0.0
 11
373.162998943664
 21
139.0894679099835
 31
0.0
  0
LINE
  5
15DA
330
18
100
AcDbEntity
  8
L-1
  6
CONTINUOUS
 62
     7
100
AcDbLine
 10
355.0629989436636
 20
147.5894679099835
 30
0.0
 11
354.0629989436633
 21
147.5894679099835
 31
0.0
  0
LINE
  5
15DB
330
18
100
AcDbEntity
  8
L-1
  6
CONTINUOUS
 62
     7
100
AcDbLine
 10
355.0629989436636
 20
166.0894679099836
 30
0.0
 11
354.0629989436633
 21
166.0894679099835
 31
0.0
  0
LINE
  5
15DC
330
18
100
AcDbEntity
  8
L-1
  6
CONTINUOUS
 62
     7
100
AcDbLine
 10
355.0629989436636
 20
164.0894679099836
 30
0.0
 11
354.0629989436633
 21
164.0894679099835
 31
0.0
  0
LINE
  5
15DD
330
18
100
AcDbEntity
  8
L-1
  6
CONTINUOUS
 62
     7
100
AcDbLine
 10
355.0629989436636
 20
157.5894679099835
 30
0.0
 11
354.0629989436633
 21
157.5894679099835
 31
0.0
  0
LINE
  5
15DE
330
18
100
AcDbEntity
  8
L-1
  6
CONTINUOUS
 62
     7
100
AcDbLine
 10
355.0629989436636
 20
172.5894679099835
 30
0.0
 11
354.0629989436633
 21
172.5894679099835
 31
0.0
  0
LINE
  5
15DF
330
18
100
AcDbEntity
  8
L-1
  6
CONTINUOUS
 62
     7
100
AcDbLine
 10
355.0629989436636
 20
182.5894679099835
 30
0.0
 11
354.0629989436633
 21
182.5894679099835
 31
0.0
  0
LINE
  5
15E0
330
18
100
AcDbEntity
  8
L-1
  6
CONTINUOUS
 62
     7
100
AcDbLine
 10
372.1629989436637
 20
147.5894679099835
 30
0.0
 11
373.162998943664
 21
147.5894679099835
 31
0.0
  0
LINE
  5
15E1
330
18
100
AcDbEntity
  8
L-1
  6
CONTINUOUS
 62
     7
100
AcDbLine
 10
372.1629989436638
 20
166.0894679099836
 30
0.0
 11
373.162998943664
 21
166.0894679099835
 31
0.0
  0
LINE
  5
15E2
330
18
100
AcDbEntity
  8
L-1
  6
CONTINUOUS
 62
     7
100
AcDbLine
 10
372.1629989436638
 20
164.0894679099836
 30
0.0
 11
373.162998943664
 21
164.0894679099835
 31
0.0
  0
LINE
  5
15E3
330
18
100
AcDbEntity
  8
L-1
  6
CONTINUOUS
 62
     7
100
AcDbLine
 10
372.1629989436637
 20
157.5894679099835
 30
0.0
 11
373.162998943664
 21
157.5894679099835
 31
0.0
  0
LINE
  5
15E4
330
18
100
AcDbEntity
  8
L-1
  6
CONTINUOUS
 62
     7
100
AcDbLine
 10
372.1629989436638
 20
172.5894679099835
 30
0.0
 11
373.162998943664
 21
172.5894679099835
 31
0.0
  0
LINE
  5
15E5
330
18
100
AcDbEntity
  8
L-1
  6
CONTINUOUS
 62
     7
100
AcDbLine
 10
372.1629989436638
 20
182.5894679099835
 30
0.0
 11
373.162998943664
 21
182.5894679099835
 31
0.0
  0
LINE
  5
15E6
330
18
100
AcDbEntity
  8
L-1
  6
CONTINUOUS
 62
     7
100
AcDbLine
 10
225.2185502191275
 20
242.5894679099835
 30
0.0
 11
360.0074476681998
 21
242.5894679099835
 31
0.0
  0
LINE
  5
15E7
330
18
100
AcDbEntity
  8
L-1
  6
CONTINUOUS
 62
     7
100
AcDbLine
 10
220.0629989436636
 20
240.0894679099836
 30
0.0
 11
212.0629989436636
 21
240.0894679099836
 31
0.0
  0
LINE
  5
15E8
330
18
100
AcDbEntity
  8
L-1
  6
CONTINUOUS
 62
     7
100
AcDbLine
 10
213.0629989436638
 20
197.5894679099836
 30
0.0
 11
212.0629989436636
 21
197.5894679099835
 31
0.0
  0
LINE
  5
15E9
330
18
100
AcDbEntity
  8
L-1
  6
CONTINUOUS
 62
     7
100
AcDbLine
 10
213.0629989436636
 20
191.0894679099835
 30
0.0
 11
212.0629989436634
 21
191.0894679099835
 31
0.0
  0
LINE
  5
15EA
330
18
100
AcDbEntity
  8
L-1
  6
CONTINUOUS
 62
     7
100
AcDbLine
 10
213.0629989436636
 20
189.0894679099835
 30
0.0
 11
212.0629989436634
 21
189.0894679099835
 31
0.0
  0
LINE
  5
15EB
330
18
100
AcDbEntity
  8
L-1
  6
CONTINUOUS
 62
     7
100
AcDbLine
 10
213.0629989436638
 20
207.5894679099835
 30
0.0
 11
212.0629989436636
 21
207.5894679099835
 31
0.0
  0
LINE
  5
15EC
330
18
100
AcDbEntity
  8
L-1
  6
CONTINUOUS
 62
     7
100
AcDbLine
 10
213.0629989436638
 20
216.0894679099836
 30
0.0
 11
212.0629989436636
 21
216.0894679099835
 31
0.0
  0
LINE
  5
15ED
330
18
100
AcDbEntity
  8
L-1
  6
CONTINUOUS
 62
     7
100
AcDbLine
 10
213.0629989436638
 20
214.0894679099836
 30
0.0
 11
212.0629989436636
 21
214.0894679099835
 31
0.0
  0
LINE
  5
15EE
330
18
100
AcDbEntity
  8
L-1
  6
CONTINUOUS
 62
     7
100
AcDbLine
 10
213.0629989436638
 20
222.5894679099835
 30
0.0
 11
212.0629989436636
 21
222.5894679099835
 31
0.0
  0
LINE
  5
15EF
330
18
100
AcDbEntity
  8
L-1
  6
CONTINUOUS
 62
     7
100
AcDbLine
 10
213.062998943664
 20
239.0894679099835
 30
0.0
 11
212.0629989436636
 21
239.0894679099835
 31
0.0
  0
LINE
  5
15F0
330
18
100
AcDbEntity
  8
L-1
  6
CONTINUOUS
 62
     7
100
AcDbLine
 10
213.062998943664
 20
232.5894679099834
 30
0.0
 11
212.0629989436634
 21
232.5894679099835
 31
0.0
  0
LINE
  5
15F1
330
18
100
AcDbEntity
  8
L-1
  6
CONTINUOUS
 62
     7
100
AcDbLine
 10
230.1629989436637
 20
191.0894679099835
 30
0.0
 11
231.1629989436639
 21
191.0894679099835
 31
0.0
  0
LINE
  5
15F2
330
18
100
AcDbEntity
  8
L-1
  6
CONTINUOUS
 62
     7
100
AcDbLine
 10
230.1629989436635
 20
197.5894679099836
 30
0.0
 11
231.1629989436637
 21
197.5894679099835
 31
0.0
  0
LINE
  5
15F3
330
18
100
AcDbEntity
  8
L-1
  6
CONTINUOUS
 62
     7
100
AcDbLine
 10
230.1629989436637
 20
189.0894679099835
 30
0.0
 11
231.1629989436639
 21
189.0894679099835
 31
0.0
  0
LINE
  5
15F4
330
18
100
AcDbEntity
  8
L-1
  6
CONTINUOUS
 62
     7
100
AcDbLine
 10
230.1629989436635
 20
207.5894679099835
 30
0.0
 11
231.1629989436637
 21
207.5894679099835
 31
0.0
  0
LINE
  5
15F7
330
18
100
AcDbEntity
  8
L-1
  6
CONTINUOUS
 62
     7
100
AcDbLine
 10
230.1629989436635
 20
214.0894679099836
 30
0.0
 11
231.1629989436637
 21
214.0894679099835
 31
0.0
  0
LINE
  5
15F8
330
18
100
AcDbEntity
  8
L-1
  6
CONTINUOUS
 62
     7
100
AcDbLine
 10
230.1629989436635
 20
216.0894679099836
 30
0.0
 11
231.1629989436637
 21
216.0894679099835
 31
0.0
  0
LINE
  5
15F9
330
18
100
AcDbEntity
  8
L-1
  6
CONTINUOUS
 62
     7
100
AcDbLine
 10
230.1629989436635
 20
222.5894679099835
 30
0.0
 11
231.1629989436637
 21
222.5894679099835
 31
0.0
  0
LINE
  5
15FA
330
18
100
AcDbEntity
  8
L-1
  6
CONTINUOUS
 62
     7
100
AcDbLine
 10
223.1629989436638
 20
240.0894679099836
 30
0.0
 11
231.1629989436638
 21
240.0894679099836
 31
0.0
  0
ARC
  5
15FB
330
18
100
AcDbEntity
  8
L-1
  6
CONTINUOUS
 62
     7
100
AcDbCircle
 10
221.6129989436635
 20
245.5894679099836
 30
0.0
 40
4.0
100
AcDbArc
 50
238.9972808661247
 51
301.0027191338752
  0
ARC
  5
15FC
330
18
100
AcDbEntity
  8
L-1
  6
CONTINUOUS
 62
     7
100
AcDbCircle
 10
221.6129989436635
 20
245.5894679099836
 30
0.0
 40
3.0
100
AcDbArc
 50
236.4426902380777
 51
303.5573097619216
  0
ARC
  5
15FD
330
18
100
AcDbEntity
  8
L-1
  6
CONTINUOUS
 62
     7
100
AcDbCircle
 10
218.2963741533082
 20
240.5894679099836
 30
0.0
 40
3.0
100
AcDbArc
 50
56.44269023807843
 51
90.0
  0
ARC
  5
15FE
330
18
100
AcDbEntity
  8
L-1
  6
CONTINUOUS
 62
     7
100
AcDbCircle
 10
218.0074476681995
 20
239.5894679099835
 30
0.0
 40
3.0
100
AcDbArc
 50
58.99728086612476
 51
90.0
  0
ARC
  5
15FF
330
18
100
AcDbEntity
  8
L-1
  6
CONTINUOUS
 62
     7
100
AcDbCircle
 10
225.2185502191275
 20
239.5894679099835
 30
0.0
 40
3.0
100
AcDbArc
 50
90.0
 51
121.0027191338752
  0
ARC
  5
1600
330
18
100
AcDbEntity
  8
L-1
  6
CONTINUOUS
 62
     7
100
AcDbCircle
 10
224.9296237340189
 20
240.5894679099836
 30
0.0
 40
3.0
100
AcDbArc
 50
90.0
 51
123.5573097619215
  0
LINE
  5
1601
330
18
100
AcDbEntity
  8
L-1
  6
CONTINUOUS
 62
     7
100
AcDbLine
 10
230.1629989436633
 20
239.0894679099835
 30
0.0
 11
231.1629989436637
 21
239.0894679099835
 31
0.0
  0
LINE
  5
1602
330
18
100
AcDbEntity
  8
L-1
  6
CONTINUOUS
 62
     7
100
AcDbLine
 10
230.1629989436633
 20
232.5894679099834
 30
0.0
 11
231.1629989436639
 21
232.5894679099835
 31
0.0
  0
LINE
  5
1603
330
18
100
AcDbEntity
  8
L-1
  6
CONTINUOUS
 62
     7
100
AcDbLine
 10
355.0629989436636
 20
197.5894679099836
 30
0.0
 11
354.0629989436633
 21
197.5894679099835
 31
0.0
  0
LINE
  5
1604
330
18
100
AcDbEntity
  8
L-1
  6
CONTINUOUS
 62
     7
100
AcDbLine
 10
355.0629989436636
 20
191.0894679099835
 30
0.0
 11
354.0629989436633
 21
191.0894679099835
 31
0.0
  0
LINE
  5
1605
330
18
100
AcDbEntity
  8
L-1
  6
CONTINUOUS
 62
     7
100
AcDbLine
 10
355.0629989436636
 20
189.0894679099835
 30
0.0
 11
354.0629989436633
 21
189.0894679099835
 31
0.0
  0
LINE
  5
1606
330
18
100
AcDbEntity
  8
L-1
  6
CONTINUOUS
 62
     7
100
AcDbLine
 10
355.0629989436636
 20
207.5894679099835
 30
0.0
 11
354.0629989436633
 21
207.5894679099835
 31
0.0
  0
LINE
  5
1608
330
18
100
AcDbEntity
  8
L-1
  6
CONTINUOUS
 62
     7
100
AcDbLine
 10
355.0629989436638
 20
216.0894679099836
 30
0.0
 11
354.0629989436633
 21
216.0894679099835
 31
0.0
  0
LINE
  5
1609
330
18
100
AcDbEntity
  8
L-1
  6
CONTINUOUS
 62
     7
100
AcDbLine
 10
355.0629989436638
 20
214.0894679099836
 30
0.0
 11
354.0629989436633
 21
214.0894679099835
 31
0.0
  0
LINE
  5
160A
330
18
100
AcDbEntity
  8
L-1
  6
CONTINUOUS
 62
     7
100
AcDbLine
 10
355.0629989436638
 20
222.5894679099835
 30
0.0
 11
354.0629989436633
 21
222.5894679099835
 31
0.0
  0
LINE
  5
160B
330
18
100
AcDbEntity
  8
L-1
  6
CONTINUOUS
 62
     7
100
AcDbLine
 10
372.1629989436637
 20
197.5894679099836
 30
0.0
 11
373.162998943664
 21
197.5894679099835
 31
0.0
  0
LINE
  5
160C
330
18
100
AcDbEntity
  8
L-1
  6
CONTINUOUS
 62
     7
100
AcDbLine
 10
372.1629989436638
 20
191.0894679099835
 30
0.0
 11
373.162998943664
 21
191.0894679099835
 31
0.0
  0
LINE
  5
160D
330
18
100
AcDbEntity
  8
L-1
  6
CONTINUOUS
 62
     7
100
AcDbLine
 10
372.1629989436638
 20
189.0894679099835
 30
0.0
 11
373.162998943664
 21
189.0894679099835
 31
0.0
  0
LINE
  5
160E
330
18
100
AcDbEntity
  8
L-1
  6
CONTINUOUS
 62
     7
100
AcDbLine
 10
372.1629989436637
 20
207.5894679099835
 30
0.0
 11
373.162998943664
 21
207.5894679099835
 31
0.0
  0
LINE
  5
160F
330
18
100
AcDbEntity
  8
L-1
  6
CONTINUOUS
 62
     7
100
AcDbLine
 10
372.1629989436636
 20
216.0894679099836
 30
0.0
 11
373.162998943664
 21
216.0894679099835
 31
0.0
  0
LINE
  5
1610
330
18
100
AcDbEntity
  8
L-1
  6
CONTINUOUS
 62
     7
100
AcDbLine
 10
372.1629989436636
 20
214.0894679099836
 30
0.0
 11
373.162998943664
 21
214.0894679099835
 31
0.0
  0
LINE
  5
1612
330
18
100
AcDbEntity
  8
L-1
  6
CONTINUOUS
 62
     7
100
AcDbLine
 10
372.1629989436636
 20
222.5894679099835
 30
0.0
 11
373.162998943664
 21
222.5894679099835
 31
0.0
  0
ARC
  5
1613
330
18
100
AcDbEntity
  8
L-1
  6
CONTINUOUS
 62
     7
100
AcDbCircle
 10
363.6129989436637
 20
245.5894679099836
 30
0.0
 40
3.0
100
AcDbArc
 50
236.4426902380777
 51
303.5573097619216
  0
ARC
  5
1614
330
18
100
AcDbEntity
  8
L-1
  6
CONTINUOUS
 62
     7
100
AcDbCircle
 10
363.6129989436637
 20
245.5894679099836
 30
0.0
 40
4.0
100
AcDbArc
 50
238.9972808661247
 51
301.0027191338752
  0
LINE
  5
1615
330
18
100
AcDbEntity
  8
L-1
  6
CONTINUOUS
 62
     7
100
AcDbLine
 10
362.0629989436634
 20
240.0894679099836
 30
0.0
 11
354.0629989436634
 21
240.0894679099836
 31
0.0
  0
LINE
  5
1616
330
18
100
AcDbEntity
  8
L-1
  6
CONTINUOUS
 62
     7
100
AcDbLine
 10
355.0629989436638
 20
239.0894679099835
 30
0.0
 11
354.0629989436633
 21
239.0894679099835
 31
0.0
  0
LINE
  5
1617
330
18
100
AcDbEntity
  8
L-1
  6
CONTINUOUS
 62
     7
100
AcDbLine
 10
355.0629989436638
 20
232.5894679099834
 30
0.0
 11
354.0629989436633
 21
232.5894679099835
 31
0.0
  0
ARC
  5
1618
330
18
100
AcDbEntity
  8
L-1
  6
CONTINUOUS
 62
     7
100
AcDbCircle
 10
360.0074476681998
 20
239.5894679099835
 30
0.0
 40
3.0
100
AcDbArc
 50
58.99728086612476
 51
90.0
  0
ARC
  5
1619
330
18
100
AcDbEntity
  8
L-1
  6
CONTINUOUS
 62
     7
100
AcDbCircle
 10
360.2963741533084
 20
240.5894679099836
 30
0.0
 40
3.0
100
AcDbArc
 50
56.44269023807843
 51
90.0
  0
LINE
  5
161A
330
18
100
AcDbEntity
  8
L-1
  6
CONTINUOUS
 62
     7
100
AcDbLine
 10
372.1629989436635
 20
239.0894679099835
 30
0.0
 11
373.162998943664
 21
239.0894679099835
 31
0.0
  0
LINE
  5
161B
330
18
100
AcDbEntity
  8
L-1
  6
CONTINUOUS
 62
     7
100
AcDbLine
 10
372.1629989436635
 20
232.5894679099834
 30
0.0
 11
373.162998943664
 21
232.5894679099835
 31
0.0
  0
LINE
  5
161C
330
18
100
AcDbEntity
  8
L-1
  6
CONTINUOUS
 62
     7
100
AcDbLine
 10
365.1629989436639
 20
240.0894679099836
 30
0.0
 11
373.162998943664
 21
240.0894679099836
 31
0.0
  0
ARC
  5
161D
330
18
100
AcDbEntity
  8
L-1
  6
CONTINUOUS
 62
     7
100
AcDbCircle
 10
366.9296237340191
 20
240.5894679099836
 30
0.0
 40
3.0
100
AcDbArc
 50
90.0
 51
123.5573097619215
  0
ARC
  5
161E
330
18
100
AcDbEntity
  8
L-1
  6
CONTINUOUS
 62
     7
100
AcDbCircle
 10
367.2185502191278
 20
239.5894679099835
 30
0.0
 40
3.0
100
AcDbArc
 50
90.0
 51
121.0027191338752
  0
LINE
  5
1620
330
18
100
AcDbEntity
  8
L-1
  6
CONTINUOUS
 62
     7
100
AcDbLine
 10
610.2687929678168
 20
243.5894679099836
 30
0.0
 11
667.2687929678168
 21
243.5894679099835
 31
0.0
  0
LINE
  5
1621
330
18
100
AcDbEntity
  8
L-1
  6
PHANTOM2
 62
     3
 48
0.3
100
AcDbLine
 10
635.5187929678166
 20
144.9291079963117
 30
0.0
 11
636.6291528814883
 21
144.9291079963117
 31
0.0
  0
LINE
  5
1622
330
18
100
AcDbEntity
  8
L-1
  6
PHANTOM2
 62
     3
 48
0.3
100
AcDbLine
 10
635.5187929678166
 20
144.2498278236552
 30
0.0
 11
636.6291528814883
 21
144.2498278236552
 31
0.0
  0
CIRCLE
  5
1623
330
18
100
AcDbEntity
  8
L-1
  6
PHANTOM2
 62
     3
 48
0.3
100
AcDbCircle
 10
637.2687929678165
 20
144.5894679099835
 30
0.0
 40
3.0
  0
CIRCLE
  5
1624
330
18
100
AcDbEntity
  8
L-1
  6
PHANTOM2
 62
     3
 48
0.3
100
AcDbCircle
 10
637.2687929678165
 20
144.5894679099835
 30
0.0
 40
2.75
  0
LINE
  5
1625
330
18
100
AcDbEntity
  8
L-1
  6
PHANTOM2
 62
     3
 48
0.3
100
AcDbLine
 10
635.5187929678166
 20
128.9291079963117
 30
0.0
 11
636.6291528814883
 21
128.9291079963117
 31
0.0
  0
LINE
  5
1626
330
18
100
AcDbEntity
  8
L-1
  6
PHANTOM2
 62
     3
 48
0.3
100
AcDbLine
 10
635.5187929678166
 20
128.2498278236552
 30
0.0
 11
636.6291528814883
 21
128.2498278236552
 31
0.0
  0
LINE
  5
1627
330
18
100
AcDbEntity
  8
L-1
  6
CONTINUOUS
 62
     7
100
AcDbLine
 10
610.2687929678168
 20
111.5894679099835
 30
0.0
 11
667.2687929678168
 21
111.5894679099835
 31
0.0
  0
CIRCLE
  5
1628
330
18
100
AcDbEntity
  8
L-1
  6
PHANTOM2
 62
     3
 48
0.3
100
AcDbCircle
 10
637.2687929678165
 20
128.5894679099835
 30
0.0
 40
3.0
  0
CIRCLE
  5
1629
330
18
100
AcDbEntity
  8
L-1
  6
PHANTOM2
 62
     3
 48
0.3
100
AcDbCircle
 10
637.2687929678165
 20
128.5894679099835
 30
0.0
 40
2.75
  0
LINE
  5
162A
330
18
100
AcDbEntity
  8
L-1
  6
PHANTOM2
 62
     3
 48
0.5
100
AcDbLine
 10
631.2687929678165
 20
151.5894679099835
 30
0.0
 11
679.2687929678161
 21
151.5894679099835
 31
0.0
  0
LINE
  5
162B
330
18
100
AcDbEntity
  8
L-1
  6
PHANTOM2
 62
     3
 48
0.5
100
AcDbLine
 10
631.2687929678165
 20
121.5894679099835
 30
0.0
 11
744.2687929678164
 21
121.5894679099833
 31
0.0
  0
LINE
  5
162C
330
18
100
AcDbEntity
  8
L-1
  6
CONTINUOUS
 62
     7
100
AcDbLine
 10
610.2687929678168
 20
243.5894679099836
 30
0.0
 11
610.2687929678168
 21
111.5894679099835
 31
0.0
  0
LINE
  5
162D
330
18
100
AcDbEntity
  8
L-1
  6
CONTINUOUS
 62
     7
100
AcDbLine
 10
612.2687929678168
 20
243.5894679099836
 30
0.0
 11
612.2687929678168
 21
111.5894679099835
 31
0.0
  0
LINE
  5
162F
330
18
100
AcDbEntity
  8
L-1
  6
CONTINUOUS
 62
     7
100
AcDbLine
 10
506.6129989436638
 20
242.5894679099834
 30
0.0
 11
506.6129989436635
 21
112.5894679099835
 31
0.0
  0
LINE
  5
1630
330
18
100
AcDbEntity
  8
L-1
  6
CONTINUOUS
 62
     7
100
AcDbLine
 10
497.062998943664
 20
242.5894679099835
 30
0.0
 11
497.0629989436631
 21
112.5894679099835
 31
0.0
  0
LINE
  5
1631
330
18
100
AcDbEntity
  8
L-1
  6
CONTINUOUS
 62
     7
100
AcDbLine
 10
507.6129989436638
 20
243.5894679099836
 30
0.0
 11
507.6129989436638
 21
111.5894679099836
 31
0.0
  0
LINE
  5
1632
330
18
100
AcDbEntity
  8
L-1
  6
CONTINUOUS
 62
     7
100
AcDbLine
 10
533.6129989436638
 20
241.5894679099835
 30
0.0
 11
533.6129989436638
 21
113.5894679099835
 31
0.0
  0
LINE
  5
1634
330
18
100
AcDbEntity
  8
L-1
  6
CONTINUOUS
 62
     7
100
AcDbLine
 10
496.0629989436636
 20
240.0894679099836
 30
0.0
 11
496.0629989436636
 21
115.0894679099836
 31
0.0
  0
LINE
  5
1635
330
18
100
AcDbEntity
  8
L-1
  6
CONTINUOUS
 62
     7
100
AcDbLine
 10
504.0629989436636
 20
240.0894679099836
 30
0.0
 11
504.0629989436636
 21
115.0894679099836
 31
0.0
  0
LINE
  5
1637
330
18
100
AcDbEntity
  8
L-1
  6
CONTINUOUS
 62
     7
100
AcDbLine
 10
416.1129989436636
 20
242.5894679099834
 30
0.0
 11
416.1129989436636
 21
112.5894679099835
 31
0.0
  0
LINE
  5
1638
330
18
100
AcDbEntity
  8
L-1
  6
CONTINUOUS
 62
     7
100
AcDbLine
 10
453.1129989436638
 20
242.5894679099834
 30
0.0
 11
453.1129989436638
 21
112.5894679099835
 31
0.0
  0
LINE
  5
163B
330
18
100
AcDbEntity
  8
L-1
  6
CONTINUOUS
 62
     7
100
AcDbLine
 10
507.6129989436638
 20
111.5894679099836
 30
0.0
 11
531.6129989436638
 21
111.5894679099835
 31
0.0
  0
LINE
  5
164B
330
18
100
AcDbEntity
  8
L-1
  6
CONTINUOUS
 62
     7
100
AcDbLine
 10
504.0629989436636
 20
115.0894679099836
 30
0.0
 11
496.0629989436636
 21
115.0894679099836
 31
0.0
  0
LINE
  5
164C
330
18
100
AcDbEntity
  8
L-1
  6
CONTINUOUS
 62
     7
100
AcDbLine
 10
497.062998943664
 20
116.0894679099835
 30
0.0
 11
496.0629989436636
 21
116.0894679099835
 31
0.0
  0
LINE
  5
164D
330
18
100
AcDbEntity
  8
L-1
  6
CONTINUOUS
 62
     7
100
AcDbLine
 10
497.062998943664
 20
122.5894679099836
 30
0.0
 11
496.0629989436634
 21
122.5894679099836
 31
0.0
  0
ARC
  5
164E
330
18
100
AcDbEntity
  8
L-1
  6
CONTINUOUS
 62
     7
100
AcDbCircle
 10
506.6129989436638
 20
112.5894679099835
 30
0.0
 40
1.0
100
AcDbArc
 50
270.0
 51
0.0
  0
LINE
  5
164F
330
18
100
AcDbEntity
  8
L-1
  6
CONTINUOUS
 62
     7
100
AcDbLine
 10
507.6129989436635
 20
121.5894679099835
 30
0.0
 11
506.6129989436635
 21
121.5894679099835
 31
0.0
  0
LINE
  5
1651
330
18
100
AcDbEntity
  8
L-1
  6
CONTINUOUS
 62
     7
100
AcDbLine
 10
497.0629989436639
 20
132.5894679099835
 30
0.0
 11
496.0629989436636
 21
132.5894679099835
 31
0.0
  0
LINE
  5
1652
330
18
100
AcDbEntity
  8
L-1
  6
CONTINUOUS
 62
     7
100
AcDbLine
 10
497.0629989436639
 20
139.0894679099835
 30
0.0
 11
496.0629989436636
 21
139.0894679099835
 31
0.0
  0
LINE
  5
1653
330
18
100
AcDbEntity
  8
L-1
  6
CONTINUOUS
 62
     7
100
AcDbLine
 10
497.0629989436639
 20
141.0894679099835
 30
0.0
 11
496.0629989436636
 21
141.0894679099835
 31
0.0
  0
LINE
  5
1654
330
18
100
AcDbEntity
  8
L-1
  6
CONTINUOUS
 62
     7
100
AcDbLine
 10
497.0629989436638
 20
147.5894679099835
 30
0.0
 11
496.0629989436636
 21
147.5894679099835
 31
0.0
  0
LINE
  5
1655
330
18
100
AcDbEntity
  8
L-1
  6
CONTINUOUS
 62
     7
100
AcDbLine
 10
497.0629989436638
 20
157.5894679099835
 30
0.0
 11
496.0629989436636
 21
157.5894679099835
 31
0.0
  0
LINE
  5
1656
330
18
100
AcDbEntity
  8
L-1
  6
CONTINUOUS
 62
     7
100
AcDbLine
 10
497.0629989436637
 20
164.0894679099836
 30
0.0
 11
496.0629989436634
 21
164.0894679099835
 31
0.0
  0
LINE
  5
1657
330
18
100
AcDbEntity
  8
L-1
  6
CONTINUOUS
 62
     7
100
AcDbLine
 10
497.0629989436637
 20
166.0894679099836
 30
0.0
 11
496.0629989436634
 21
166.0894679099835
 31
0.0
  0
LINE
  5
1658
330
18
100
AcDbEntity
  8
L-1
  6
CONTINUOUS
 62
     7
100
AcDbLine
 10
497.0629989436637
 20
172.5894679099835
 30
0.0
 11
496.0629989436636
 21
172.5894679099835
 31
0.0
  0
LINE
  5
1659
330
18
100
AcDbEntity
  8
L-1
  6
CONTINUOUS
 62
     7
100
AcDbLine
 10
497.0629989436637
 20
182.5894679099835
 30
0.0
 11
496.0629989436636
 21
182.5894679099835
 31
0.0
  0
ARC
  5
165B
330
18
100
AcDbEntity
  8
L-1
  6
CONTINUOUS
 62
     7
100
AcDbCircle
 10
531.6129989436638
 20
113.5894679099835
 30
0.0
 40
2.0
100
AcDbArc
 50
270.0
 51
0.0
  0
LINE
  5
1661
330
18
100
AcDbEntity
  8
L-1
  6
PHANTOM2
 62
     3
 48
0.5
100
AcDbLine
 10
629.2687929678166
 20
149.5894679099835
 30
0.0
 11
629.2687929678166
 21
123.5894679099835
 31
0.0
  0
ARC
  5
1663
330
18
100
AcDbEntity
  8
L-1
  6
PHANTOM2
 62
     3
 48
0.5
100
AcDbCircle
 10
631.2687929678165
 20
123.5894679099835
 30
0.0
 40
2.0
100
AcDbArc
 50
180.0
 51
270.0
  0
LINE
  5
1664
330
18
100
AcDbEntity
  8
L-1
  6
PHANTOM2
 62
     3
 48
0.3
100
AcDbLine
 10
635.5187929678166
 20
128.9291079963117
 30
0.0
 11
635.5187929678166
 21
128.2498278236552
 31
0.0
  0
LINE
  5
1665
330
18
100
AcDbEntity
  8
L-1
  6
PHANTOM2
 62
     3
 48
0.3
100
AcDbLine
 10
635.5187929678166
 20
144.9291079963117
 30
0.0
 11
635.5187929678166
 21
144.2498278236552
 31
0.0
  0
LINE
  5
1666
330
18
100
AcDbEntity
  8
L-1
  6
CENTER2
 62
     1
 48
0.3
100
AcDbLine
 10
604.9524122382424
 20
149.0144679099834
 30
0.0
 11
616.329865044755
 21
149.0144679099834
 31
0.0
  0
ARC
  5
1667
330
18
100
AcDbEntity
  8
L-1
  6
PHANTOM2
 62
     3
 48
0.5
100
AcDbCircle
 10
631.2687929678165
 20
149.5894679099835
 30
0.0
 40
2.0
100
AcDbArc
 50
90.0
 51
180.0
  0
LINE
  5
1668
330
18
100
AcDbEntity
  8
L-1
  6
CONTINUOUS
 62
     7
100
AcDbLine
 10
507.6129989436638
 20
243.5894679099836
 30
0.0
 11
531.6129989436638
 21
243.5894679099835
 31
0.0
  0
LINE
  5
1669
330
18
100
AcDbEntity
  8
L-1
  6
CONTINUOUS
 62
     7
100
AcDbLine
 10
497.0629989436638
 20
197.5894679099836
 30
0.0
 11
496.0629989436636
 21
197.5894679099835
 31
0.0
  0
LINE
  5
166A
330
18
100
AcDbEntity
  8
L-1
  6
CONTINUOUS
 62
     7
100
AcDbLine
 10
497.0629989436637
 20
191.0894679099835
 30
0.0
 11
496.0629989436634
 21
191.0894679099835
 31
0.0
  0
LINE
  5
166B
330
18
100
AcDbEntity
  8
L-1
  6
CONTINUOUS
 62
     7
100
AcDbLine
 10
497.0629989436637
 20
189.0894679099835
 30
0.0
 11
496.0629989436634
 21
189.0894679099835
 31
0.0
  0
LINE
  5
166C
330
18
100
AcDbEntity
  8
L-1
  6
CONTINUOUS
 62
     7
100
AcDbLine
 10
497.0629989436638
 20
207.5894679099835
 30
0.0
 11
496.0629989436636
 21
207.5894679099835
 31
0.0
  0
LINE
  5
166E
330
18
100
AcDbEntity
  8
L-1
  6
CONTINUOUS
 62
     7
100
AcDbLine
 10
497.0629989436639
 20
216.0894679099836
 30
0.0
 11
496.0629989436636
 21
216.0894679099835
 31
0.0
  0
LINE
  5
166F
330
18
100
AcDbEntity
  8
L-1
  6
CONTINUOUS
 62
     7
100
AcDbLine
 10
497.0629989436639
 20
214.0894679099836
 30
0.0
 11
496.0629989436636
 21
214.0894679099835
 31
0.0
  0
LINE
  5
1670
330
18
100
AcDbEntity
  8
L-1
  6
CONTINUOUS
 62
     7
100
AcDbLine
 10
497.0629989436639
 20
222.5894679099835
 30
0.0
 11
496.0629989436636
 21
222.5894679099835
 31
0.0
  0
LINE
  5
1671
330
18
100
AcDbEntity
  8
L-1
  6
CONTINUOUS
 62
     7
100
AcDbLine
 10
504.0629989436636
 20
240.0894679099836
 30
0.0
 11
496.0629989436636
 21
240.0894679099836
 31
0.0
  0
LINE
  5
1672
330
18
100
AcDbEntity
  8
L-1
  6
CONTINUOUS
 62
     7
100
AcDbLine
 10
497.062998943664
 20
239.0894679099835
 30
0.0
 11
496.0629989436636
 21
239.0894679099835
 31
0.0
  0
LINE
  5
1673
330
18
100
AcDbEntity
  8
L-1
  6
CONTINUOUS
 62
     7
100
AcDbLine
 10
497.062998943664
 20
232.5894679099834
 30
0.0
 11
496.0629989436634
 21
232.5894679099835
 31
0.0
  0
LINE
  5
1674
330
18
100
AcDbEntity
  8
L-1
  6
CONTINUOUS
 62
     7
100
AcDbLine
 10
507.6129989436638
 20
233.5894679099835
 30
0.0
 11
506.6129989436638
 21
233.5894679099834
 31
0.0
  0
ARC
  5
1675
330
18
100
AcDbEntity
  8
L-1
  6
CONTINUOUS
 62
     7
100
AcDbCircle
 10
506.6129989436638
 20
242.5894679099835
 30
0.0
 40
1.0
100
AcDbArc
 50
0.0
 51
90.0
  0
ARC
  5
167D
330
18
100
AcDbEntity
  8
L-1
  6
CONTINUOUS
 62
     7
100
AcDbCircle
 10
531.6129989436635
 20
241.5894679099835
 30
0.0
 40
2.000000000000113
100
AcDbArc
 50
0.0
 51
89.99999999999349
  0
LINE
  5
167E
330
18
100
AcDbEntity
  8
L-1
  6
CENTER2
 62
     1
 48
0.3
100
AcDbLine
 10
605.3413112037897
 20
206.1644679099834
 30
0.0
 11
616.329865044755
 21
206.1644679099834
 31
0.0
  0
LINE
  5
1680
330
18
100
AcDbEntity
  8
L-1
  6
CONTINUOUS
 62
     7
100
AcDbLine
 10
669.2687929678168
 20
241.5894679099835
 30
0.0
 11
669.2687929678168
 21
113.5894679099835
 31
0.0
  0
LINE
  5
1681
330
18
100
AcDbEntity
  8
L-1
  6
CONTINUOUS
 62
     7
100
AcDbLine
 10
670.4187929678168
 20
242.5894679099835
 30
0.0
 11
670.4187929678168
 21
112.5894679099835
 31
0.0
  0
LINE
  5
1682
330
18
100
AcDbEntity
  8
L-1
  6
PHANTOM2
 62
     3
 48
0.5
100
AcDbLine
 10
695.2687929678165
 20
114.5894679099834
 30
0.0
 11
696.2687929678166
 21
114.5894679099834
 31
0.0
  0
LINE
  5
1683
330
18
100
AcDbEntity
  8
L-1
  6
PHANTOM2
 62
     3
 48
0.5
100
AcDbLine
 10
679.2687929678163
 20
151.5894679099835
 30
0.0
 11
737.7966127741049
 21
132.561530485222
 31
0.0
  0
LINE
  5
1684
330
18
100
AcDbEntity
  8
L-1
  6
PHANTOM2
 62
     3
 48
0.3
100
AcDbLine
 10
637.6084330541448
 20
145.2291079963117
 30
0.0
 11
637.6084330541448
 21
146.3394679099835
 31
0.0
  0
LINE
  5
1685
330
18
100
AcDbEntity
  8
L-1
  6
PHANTOM2
 62
     3
 48
0.3
100
AcDbLine
 10
636.9291528814883
 20
145.2291079963117
 30
0.0
 11
636.9291528814883
 21
146.3394679099835
 31
0.0
  0
LINE
  5
1686
330
18
100
AcDbEntity
  8
L-1
  6
PHANTOM2
 62
     3
 48
0.3
100
AcDbLine
 10
637.9084330541449
 20
128.2498278236552
 30
0.0
 11
639.0187929678165
 21
128.2498278236552
 31
0.0
  0
LINE
  5
1687
330
18
100
AcDbEntity
  8
L-1
  6
PHANTOM2
 62
     3
 48
0.3
100
AcDbLine
 10
637.9084330541449
 20
128.9291079963116
 30
0.0
 11
639.0187929678165
 21
128.9291079963117
 31
0.0
  0
ARC
  5
1688
330
18
100
AcDbEntity
  8
L-1
  6
PHANTOM2
 62
     3
 48
0.3
100
AcDbCircle
 10
637.9084330541449
 20
129.2291079963117
 30
0.0
 40
0.3
100
AcDbArc
 50
180.0
 51
270.0
  0
ARC
  5
1689
330
18
100
AcDbEntity
  8
L-1
  6
PHANTOM2
 62
     3
 48
0.3
100
AcDbCircle
 10
637.9084330541449
 20
127.9498278236552
 30
0.0
 40
0.3
100
AcDbArc
 50
90.0
 51
179.9999999999967
  0
LINE
  5
168A
330
18
100
AcDbEntity
  8
L-1
  6
PHANTOM2
 62
     3
 48
0.3
100
AcDbLine
 10
637.6084330541448
 20
129.2291079963117
 30
0.0
 11
637.6084330541448
 21
130.3394679099835
 31
0.0
  0
LINE
  5
168B
330
18
100
AcDbEntity
  8
L-1
  6
PHANTOM2
 62
     3
 48
0.3
100
AcDbLine
 10
637.6084330541448
 20
126.8394679099835
 30
0.0
 11
637.6084330541448
 21
127.9498278236552
 31
0.0
  0
LINE
  5
168C
330
18
100
AcDbEntity
  8
L-1
  6
PHANTOM2
 62
     3
 48
0.3
100
AcDbLine
 10
639.0187929678165
 20
128.9291079963117
 30
0.0
 11
639.0187929678165
 21
128.2498278236552
 31
0.0
  0
ARC
  5
168D
330
18
100
AcDbEntity
  8
L-1
  6
PHANTOM2
 62
     3
 48
0.3
100
AcDbCircle
 10
636.6291528814883
 20
129.2291079963117
 30
0.0
 40
0.3
100
AcDbArc
 50
270.0
 51
0.0
  0
ARC
  5
168E
330
18
100
AcDbEntity
  8
L-1
  6
PHANTOM2
 62
     3
 48
0.3
100
AcDbCircle
 10
636.6291528814883
 20
127.9498278236552
 30
0.0
 40
0.3
100
AcDbArc
 50
0.0
 51
90.0
  0
LINE
  5
168F
330
18
100
AcDbEntity
  8
L-1
  6
PHANTOM2
 62
     3
 48
0.3
100
AcDbLine
 10
636.9291528814883
 20
129.2291079963117
 30
0.0
 11
636.9291528814883
 21
130.3394679099835
 31
0.0
  0
LINE
  5
1690
330
18
100
AcDbEntity
  8
L-1
  6
PHANTOM2
 62
     3
 48
0.3
100
AcDbLine
 10
636.9291528814883
 20
126.8394679099835
 30
0.0
 11
636.9291528814883
 21
127.9498278236552
 31
0.0
  0
LINE
  5
1691
330
18
100
AcDbEntity
  8
L-1
  6
PHANTOM2
 62
     3
 48
0.3
100
AcDbLine
 10
636.9291528814883
 20
130.3394679099834
 30
0.0
 11
637.6084330541448
 21
130.3394679099834
 31
0.0
  0
LINE
  5
1692
330
18
100
AcDbEntity
  8
L-1
  6
PHANTOM2
 62
     3
 48
0.3
100
AcDbLine
 10
636.9291528814883
 20
126.8394679099834
 30
0.0
 11
637.6084330541448
 21
126.8394679099834
 31
0.0
  0
LINE
  5
1693
330
18
100
AcDbEntity
  8
L-1
  6
PHANTOM2
 62
     3
 48
0.3
100
AcDbLine
 10
637.9084330541449
 20
144.2498278236552
 30
0.0
 11
639.0187929678165
 21
144.2498278236552
 31
0.0
  0
LINE
  5
1694
330
18
100
AcDbEntity
  8
L-1
  6
PHANTOM2
 62
     3
 48
0.3
100
AcDbLine
 10
637.9084330541449
 20
144.9291079963117
 30
0.0
 11
639.0187929678165
 21
144.9291079963117
 31
0.0
  0
ARC
  5
1695
330
18
100
AcDbEntity
  8
L-1
  6
PHANTOM2
 62
     3
 48
0.3
100
AcDbCircle
 10
637.9084330541449
 20
143.9498278236552
 30
0.0
 40
0.3
100
AcDbArc
 50
90.0
 51
179.9999999999967
  0
LINE
  5
1696
330
18
100
AcDbEntity
  8
L-1
  6
PHANTOM2
 62
     3
 48
0.3
100
AcDbLine
 10
637.6084330541448
 20
142.8394679099835
 30
0.0
 11
637.6084330541448
 21
143.9498278236552
 31
0.0
  0
ARC
  5
1697
330
18
100
AcDbEntity
  8
L-1
  6
PHANTOM2
 62
     3
 48
0.3
100
AcDbCircle
 10
637.9084330541449
 20
145.2291079963117
 30
0.0
 40
0.3
100
AcDbArc
 50
180.0
 51
270.0
  0
LINE
  5
1698
330
18
100
AcDbEntity
  8
L-1
  6
PHANTOM2
 62
     3
 48
0.3
100
AcDbLine
 10
639.0187929678165
 20
144.9291079963117
 30
0.0
 11
639.0187929678165
 21
144.2498278236552
 31
0.0
  0
ARC
  5
1699
330
18
100
AcDbEntity
  8
L-1
  6
PHANTOM2
 62
     3
 48
0.3
100
AcDbCircle
 10
636.6291528814883
 20
143.9498278236552
 30
0.0
 40
0.3
100
AcDbArc
 50
0.0
 51
90.0
  0
LINE
  5
169A
330
18
100
AcDbEntity
  8
L-1
  6
PHANTOM2
 62
     3
 48
0.3
100
AcDbLine
 10
636.9291528814883
 20
142.8394679099835
 30
0.0
 11
636.9291528814883
 21
143.9498278236552
 31
0.0
  0
ARC
  5
169B
330
18
100
AcDbEntity
  8
L-1
  6
PHANTOM2
 62
     3
 48
0.3
100
AcDbCircle
 10
636.6291528814883
 20
145.2291079963117
 30
0.0
 40
0.3
100
AcDbArc
 50
270.0
 51
0.0
  0
LINE
  5
169C
330
18
100
AcDbEntity
  8
L-1
  6
PHANTOM2
 62
     3
 48
0.3
100
AcDbLine
 10
636.9291528814883
 20
142.8394679099834
 30
0.0
 11
637.6084330541448
 21
142.8394679099834
 31
0.0
  0
ARC
  5
169D
330
18
100
AcDbEntity
  8
L-1
  6
CONTINUOUS
 62
     7
100
AcDbCircle
 10
667.2687929678168
 20
113.5894679099835
 30
0.0
 40
2.0
100
AcDbArc
 50
270.0
 51
0.0
  0
LINE
  5
169E
330
18
100
AcDbEntity
  8
L-1
  6
CONTINUOUS
 62
     7
100
AcDbLine
 10
669.0008437753856
 20
112.5894679099835
 30
0.0
 11
670.4187929678168
 21
112.5894679099835
 31
0.0
  0
LINE
  5
169F
330
18
100
AcDbEntity
  8
L-1
  6
PHANTOM2
 62
     3
 48
0.5
100
AcDbLine
 10
695.2687929678163
 20
121.5894679099833
 30
0.0
 11
695.2687929678163
 21
121.5894679099831
 31
0.0
  0
LINE
  5
16A0
330
18
100
AcDbEntity
  8
L-1
  6
PHANTOM2
 62
     3
 48
0.5
100
AcDbLine
 10
695.2687929678165
 20
121.3894679099835
 30
0.0
 11
695.2687929678163
 21
114.5894679099834
 31
0.0
  0
LINE
  5
16A1
330
18
100
AcDbEntity
  8
L-1
  6
PHANTOM2
 62
     3
 48
0.3
100
AcDbLine
 10
636.9291528814883
 20
146.3394679099834
 30
0.0
 11
637.6084330541448
 21
146.3394679099834
 31
0.0
  0
LINE
  5
16A2
330
18
100
AcDbEntity
  8
L-1
  6
PHANTOM2
 62
     3
 48
0.5
100
AcDbLine
 10
710.2687929678158
 20
140.5894679099833
 30
0.0
 11
710.2687929678165
 21
122.5894679099833
 31
0.0
  0
LINE
  5
16A3
330
18
100
AcDbEntity
  8
L-1
  6
PHANTOM2
 62
     3
 48
0.5
100
AcDbLine
 10
716.2687929678161
 20
140.5894679099834
 30
0.0
 11
716.2687929678168
 21
122.5894679099834
 31
0.0
  0
LINE
  5
16A4
330
18
100
AcDbEntity
  8
L-1
  6
PHANTOM2
 62
     3
 48
0.5
100
AcDbLine
 10
696.2687929678166
 20
121.5894679099833
 30
0.0
 11
696.2687929678166
 21
114.5894679099834
 31
0.0
  0
ARC
  5
16A5
330
18
100
AcDbEntity
  8
L-1
  6
PHANTOM2
 62
     3
 48
0.5
100
AcDbCircle
 10
711.2687929678159
 20
140.5894679099833
 30
0.0
 40
1.0
100
AcDbArc
 50
90.0
 51
180.0
  0
ARC
  5
16A6
330
18
100
AcDbEntity
  8
L-1
  6
PHANTOM2
 62
     3
 48
0.5
100
AcDbCircle
 10
715.2687929678161
 20
140.5894679099833
 30
0.0
 40
1.0
100
AcDbArc
 50
0.0
 51
90.0
  0
LINE
  5
16A7
330
18
100
AcDbEntity
  8
L-1
  6
PHANTOM2
 62
     3
 48
0.5
100
AcDbLine
 10
711.2687929678159
 20
141.5894679099833
 30
0.0
 11
715.2687929678161
 21
141.5894679099833
 31
0.0
  0
LINE
  5
16A8
330
18
100
AcDbEntity
  8
L-1
  6
PHANTOM2
 62
     3
 48
0.5
100
AcDbLine
 10
742.2687929678161
 20
127.5894679099834
 30
0.0
 11
742.2687929678161
 21
121.5894679099833
 31
0.0
  0
ARC
  5
16A9
330
18
100
AcDbEntity
  8
L-1
  6
PHANTOM2
 62
     3
 48
0.5
100
AcDbCircle
 10
744.0687929678163
 20
121.3894679099831
 30
0.0
 40
1.199999999999999
100
AcDbArc
 50
0.0
 51
90.0
  0
POINT
  5
16AA
330
18
100
AcDbEntity
  8
L-1
  6
PHANTOM2
 62
     3
 48
0.5
100
AcDbPoint
 10
744.2687929678164
 20
121.5894679099833
 30
0.0
  0
LINE
  5
16AB
330
18
100
AcDbEntity
  8
L-1
  6
PHANTOM2
 62
     3
 48
0.5
100
AcDbLine
 10
744.2687929678164
 20
114.5894679099834
 30
0.0
 11
745.2687929678163
 21
114.5894679099834
 31
0.0
  0
POINT
  5
16AC
330
18
100
AcDbEntity
  8
L-1
  6
PHANTOM2
 62
     3
 48
0.5
100
AcDbPoint
 10
745.2687929678161
 20
114.5894679099834
 30
0.0
  0
POINT
  5
16AD
330
18
100
AcDbEntity
  8
L-1
  6
PHANTOM2
 62
     3
 48
0.5
100
AcDbPoint
 10
745.2687929678161
 20
114.5894679099834
 30
0.0
  0
LINE
  5
16AE
330
18
100
AcDbEntity
  8
L-1
  6
PHANTOM2
 62
     3
 48
0.5
100
AcDbLine
 10
744.2687929678164
 20
121.5894679099833
 30
0.0
 11
744.2687929678164
 21
114.5894679099834
 31
0.0
  0
LINE
  5
16AF
330
18
100
AcDbEntity
  8
L-1
  6
PHANTOM2
 62
     3
 48
0.5
100
AcDbLine
 10
745.2687929678161
 20
121.3894679099831
 30
0.0
 11
745.2687929678161
 21
114.5894679099834
 31
0.0
  0
LINE
  5
16B0
330
18
100
AcDbEntity
  8
L-1
  6
PHANTOM2
 62
     3
 48
0.5
100
AcDbLine
 10
742.2687929678161
 20
122.5894679099833
 30
0.0
 11
744.0687929678163
 21
122.5894679099833
 31
0.0
  0
ARC
  5
16B1
330
18
100
AcDbEntity
  8
L-1
  6
PHANTOM2
 62
     3
 48
0.5
100
AcDbCircle
 10
737.2687929678163
 20
127.5894679099834
 30
0.0
 40
5.0
100
AcDbArc
 50
0.0
 51
83.94034025571745
  0
ARC
  5
16B2
330
18
100
AcDbEntity
  8
L-1
  6
CONTINUOUS
 62
     7
100
AcDbCircle
 10
667.2687929678168
 20
241.5894679099835
 30
0.0
 40
2.0
100
AcDbArc
 50
0.0
 51
90.0
  0
LINE
  5
16B3
330
18
100
AcDbEntity
  8
L-1
  6
CONTINUOUS
 62
     7
100
AcDbLine
 10
669.0008437753856
 20
242.5894679099835
 30
0.0
 11
670.4187929678168
 21
242.5894679099835
 31
0.0
  0
LINE
  5
16D5
330
18
100
AcDbEntity
  8
L-1
  6
CENTER2
 62
     1
100
AcDbLine
 10
60.1129989436638
 20
212.6762635838394
 30
0.0
 11
60.1129989436638
 21
142.5026722361276
 31
0.0
  0
LINE
  5
16D6
330
18
100
AcDbEntity
  8
L-1
  6
CENTER2
 62
     1
 48
0.3
100
AcDbLine
 10
53.60120326980791
 20
206.1644679099835
 30
0.0
 11
66.62479461751968
 21
206.1644679099835
 31
0.0
  0
LINE
  5
16D7
330
18
100
AcDbEntity
  8
L-1
  6
CENTER2
 62
     1
 48
0.3
100
AcDbLine
 10
53.60120326980802
 20
149.0144679099835
 30
0.0
 11
66.6247946175198
 21
149.0144679099835
 31
0.0
  0
LINE
  5
16DB
330
18
100
AcDbEntity
  8
L-1
  6
CENTER2
 62
     1
100
AcDbLine
 10
525.1129989436638
 20
212.6762635838395
 30
0.0
 11
525.1129989436638
 21
142.5026722361276
 31
0.0
  0
LINE
  5
16DC
330
18
100
AcDbEntity
  8
L-1
  6
CENTER2
 62
     1
 48
0.3
100
AcDbLine
 10
518.601203269808
 20
149.0144679099835
 30
0.0
 11
531.6247946175198
 21
149.0144679099835
 31
0.0
  0
ARC
  5
16DD
330
18
100
AcDbEntity
  8
L-1
  6
CONTINUOUS
 62
     7
100
AcDbCircle
 10
523.5129989436638
 20
149.0144679099836
 30
0.0
 40
3.549999999999999
100
AcDbArc
 50
90.0
 51
270.0
  0
ARC
  5
16DE
330
18
100
AcDbEntity
  8
L-1
  6
CONTINUOUS
 62
     7
100
AcDbCircle
 10
526.7129989436638
 20
149.0144679099836
 30
0.0
 40
3.549999999999999
100
AcDbArc
 50
270.0
 51
90.0
  0
LINE
  5
16DF
330
18
100
AcDbEntity
  8
L-1
  6
CONTINUOUS
 62
     7
100
AcDbLine
 10
523.5129989436638
 20
145.4644679099837
 30
0.0
 11
526.7129989436638
 21
145.4644679099836
 31
0.0
  0
LINE
  5
16E0
330
18
100
AcDbEntity
  8
L-1
  6
CONTINUOUS
 62
     7
100
AcDbLine
 10
523.5129989436638
 20
152.5644679099837
 30
0.0
 11
526.7129989436638
 21
152.5644679099837
 31
0.0
  0
LINE
  5
16E1
330
18
100
AcDbEntity
  8
L-1
  6
CENTER2
 62
     1
 48
0.3
100
AcDbLine
 10
518.6012032698079
 20
206.1644679099836
 30
0.0
 11
531.6247946175196
 21
206.1644679099836
 31
0.0
  0
ARC
  5
16E2
330
18
100
AcDbEntity
  8
L-1
  6
CONTINUOUS
 62
     7
100
AcDbCircle
 10
523.6129989436638
 20
206.1644679099836
 30
0.0
 40
3.5
100
AcDbArc
 50
90.0
 51
244.6230664748536
  0
ARC
  5
16E3
330
18
100
AcDbEntity
  8
L-1
  6
CONTINUOUS
 62
     7
100
AcDbCircle
 10
525.1129989436637
 20
190.2894679099836
 30
0.0
 40
5.99999999999999
100
AcDbArc
 50
120.0000000000005
 51
59.99999999999875
  0
LINE
  5
16E4
330
18
100
AcDbEntity
  8
L-1
  6
CONTINUOUS
 62
     7
100
AcDbLine
 10
522.1129989436637
 20
195.4856203326902
 30
0.0
 11
522.1129989436642
 21
202.9938960688202
 31
0.0
  0
LINE
  5
16E5
330
18
100
AcDbEntity
  8
L-1
  6
CONTINUOUS
 62
     7
100
AcDbLine
 10
528.1129989436638
 20
195.4856203326901
 30
0.0
 11
528.1129989436638
 21
202.9938960688204
 31
0.0
  0
ARC
  5
16E6
330
18
100
AcDbEntity
  8
L-1
  6
CONTINUOUS
 62
     7
100
AcDbCircle
 10
526.6129989436637
 20
206.1644679099835
 30
0.0
 40
3.499999999999988
100
AcDbArc
 50
295.3769335251536
 51
90.0
  0
LINE
  5
16E7
330
18
100
AcDbEntity
  8
L-1
  6
CONTINUOUS
 62
     7
100
AcDbLine
 10
523.6129989436638
 20
209.6644679099836
 30
0.0
 11
526.6129989436639
 21
209.6644679099835
 31
0.0
  0
LINE
  5
16E8
330
18
100
AcDbEntity
  8
L-1
  6
CENTER2
 62
     1
 48
0.2
100
AcDbLine
 10
431.6129989436635
 20
121.5894679099835
 30
0.0
 11
424.6129989436635
 21
121.5894679099835
 31
0.0
  0
CIRCLE
  5
16EA
330
18
100
AcDbEntity
  8
L-1
  6
CONTINUOUS
 62
     7
100
AcDbCircle
 10
428.1129989436635
 20
121.5894679099835
 30
0.0
 40
1.75
  0
LINE
  5
16EB
330
18
100
AcDbEntity
  8
L-1
  6
CENTER2
 62
     1
 48
0.2
100
AcDbLine
 10
428.1129989436635
 20
118.0894679099835
 30
0.0
 11
428.1129989436635
 21
125.0894679099835
 31
0.0
  0
CIRCLE
  5
16EC
330
18
100
AcDbEntity
  8
L-1
  6
CONTINUOUS
 62
     7
100
AcDbCircle
 10
441.1129989436635
 20
121.5894679099835
 30
0.0
 40
2.1
  0
LINE
  5
16ED
330
18
100
AcDbEntity
  8
L-1
  6
CENTER2
 62
     1
 48
0.2
100
AcDbLine
 10
441.1129989436635
 20
118.0894679099835
 30
0.0
 11
441.1129989436635
 21
125.0894679099835
 31
0.0
  0
LINE
  5
16EE
330
18
100
AcDbEntity
  8
L-1
  6
CENTER2
 62
     1
 48
0.2
100
AcDbLine
 10
444.6129989436635
 20
121.5894679099835
 30
0.0
 11
437.6129989436635
 21
121.5894679099835
 31
0.0
  0
CIRCLE
  5
16EF
330
18
100
AcDbEntity
  8
L-1
  6
CONTINUOUS
 62
     7
100
AcDbCircle
 10
144.1129989436638
 20
121.5894679099835
 30
0.0
 40
2.1
  0
LINE
  5
16F0
330
18
100
AcDbEntity
  8
L-1
  6
CENTER2
 62
     1
 48
0.2
100
AcDbLine
 10
144.1129989436638
 20
118.0894679099835
 30
0.0
 11
144.1129989436638
 21
125.0894679099835
 31
0.0
  0
LINE
  5
16F1
330
18
100
AcDbEntity
  8
L-1
  6
CENTER2
 62
     1
 48
0.2
100
AcDbLine
 10
147.6129989436637
 20
121.5894679099835
 30
0.0
 11
140.6129989436637
 21
121.5894679099835
 31
0.0
  0
CIRCLE
  5
16F2
330
18
100
AcDbEntity
  8
L-1
  6
CONTINUOUS
 62
     7
100
AcDbCircle
 10
157.1129989436637
 20
121.5894679099835
 30
0.0
 40
1.75
  0
LINE
  5
16F4
330
18
100
AcDbEntity
  8
L-1
  6
CENTER2
 62
     1
 48
0.2
100
AcDbLine
 10
157.1129989436637
 20
118.0894679099835
 30
0.0
 11
157.1129989436637
 21
125.0894679099835
 31
0.0
  0
LINE
  5
16F5
330
18
100
AcDbEntity
  8
L-1
  6
CENTER2
 62
     1
 48
0.2
100
AcDbLine
 10
160.6129989436638
 20
121.5894679099835
 30
0.0
 11
153.6129989436638
 21
121.5894679099835
 31
0.0
  0
DIMENSION
  5
17DD
330
18
100
AcDbEntity
  8
L-2
  6
CONTINUOUS
100
AcDbDimension
  2
*D4
 10
51.61299894366379
 20
278.4942400374286
 30
0.0
 11
292.6129989436637
 21
278.4942400374286
 31
0.0
 70
   160
  3
CAD-STD1
100
AcDbAlignedDimension
 13
533.6129989436638
 23
241.5894679099836
 33
0.0
 14
51.61299894366379
 24
241.5894679099836
 34
0.0
100
AcDbRotatedDimension
  0
DIMENSION
  5
17DE
330
18
100
AcDbEntity
  8
L-2
  6
CONTINUOUS
100
AcDbDimension
  2
*D5
 10
525.1129989436638
 20
260.3587810061649
 30
0.0
 11
292.6129989436637
 21
260.3587810061649
 31
0.0
 70
   160
  3
CAD-STD1
100
AcDbAlignedDimension
 13
60.1129989436638
 23
212.6762635838394
 33
0.0
 14
525.1129989436638
 24
212.6762635838395
 34
0.0
100
AcDbRotatedDimension
  0
DIMENSION
  5
17DF
330
18
100
AcDbEntity
  8
L-2
  6
CONTINUOUS
100
AcDbDimension
  2
*D6
 10
549.6490820806091
 20
111.5894679099835
 30
0.0
 11
545.449082080609
 21
177.5894679099836
 31
0.0
 70
    32
  3
CAD-STD1
100
AcDbAlignedDimension
 13
531.6129989436635
 23
243.5894679099834
 33
0.0
 14
531.6129989436638
 24
111.5894679099835
 34
0.0
 50
90.0
100
AcDbRotatedDimension
  0
DIMENSION
  5
17E0
330
18
100
AcDbEntity
  8
L-2
  6
CONTINUOUS
100
AcDbDimension
  2
*D7
 10
567.1641450843354
 20
456.9416135198848
 30
0.0
 11
567.1641450843353
 21
388.5970242828358
 31
0.0
 70
   160
  1
（<>）
  3
CAD-STD1
100
AcDbAlignedDimension
 13
533.612998943664
 23
321.9416135198854
 33
0.0
 14
506.612998943664
 24
456.9416135198848
 34
0.0
 50
90.0
100
AcDbRotatedDimension
  0
DIMENSION
  5
17E1
330
18
100
AcDbEntity
  8
L-2
  6
CONTINUOUS
100
AcDbDimension
  2
*D8
 10
549.6490820806092
 20
321.9416135198854
 30
0.0
 11
549.6490820806091
 21
351.4416135198854
 31
0.0
 70
   160
  3
CAD-STD1
100
AcDbAlignedDimension
 13
509.612998943664
 23
380.9416135198854
 33
0.0
 14
533.612998943664
 24
321.9416135198854
 34
0.0
 50
90.0
100
AcDbRotatedDimension
  0
DIMENSION
  5
17E2
330
18
100
AcDbEntity
  8
L-2
  6
CONTINUOUS
100
AcDbDimension
  2
*D9
 10
510.612998943664
 20
472.3945130216954
 30
0.0
 11
292.612998943664
 21
472.3945130216954
 31
0.0
 70
   160
  1
（<>）
  3
CAD-STD1
100
AcDbAlignedDimension
 13
74.61299894366402
 23
453.9416135198847
 33
0.0
 14
510.612998943664
 24
453.9416135198847
 34
0.0
100
AcDbRotatedDimension
  0
LEADER
  5
17E3
330
18
100
AcDbEntity
  8
L-2
  6
CONTINUOUS
100
AcDbLeader
  3
CAD-STD2
 73
     0
 74
     0
 75
     1
 40
6.516363636363635
 41
50.67636363636363
 76
     3
 10
389.0129989436638
 20
427.7416135198848
 30
0.0
 10
424.4693040435347
 20
492.0777018930415
 30
0.0
 10
429.4693040435347
 20
492.0777018930415
 30
0.0
340
17E4
1001
ACAD
1000
DSTYLE
1002
{
1070
     6
1000
OPEN
1070
    77
1070
     1
1070
   147
1040
0.5
1002
}
1000
LEANOF
1010
0.0
1020
0.0
1030
0.0
  0
MTEXT
  5
17E4
330
18
100
AcDbEntity
  8
L-2
  6
CONTINUOUS
 62
     2
100
AcDbMText
 10
430.4693040435347
 20
493.0777018930415
 30
0.0
 40
6.4
 41
0.0
 71
     7
 72
     1
  1
ワイヤーサドル
  7
BGS
1001
ACAD
1000
MTEXTBEGIN
1070
    73
1070
     1
1070
    44
1040
1.0
1070
    74
1070
     0
1000
MTEXTEND
  0
LEADER
  5
17E5
330
18
100
AcDbEntity
  8
L-2
  6
CONTINUOUS
100
AcDbLeader
  3
CAD-STD2
 73
     0
 74
     0
 75
     1
 40
6.822848962061561
 41
63.72848484848485
 76
     3
 10
506.612998943664
 20
456.9416135198848
 30
0.0
 10
534.9663705434693
 20
492.0777018930415
 30
0.0
 10
539.9663705434693
 20
492.0777018930415
 30
0.0
340
17E6
1001
ACAD
1000
DSTYLE
1002
{
1070
     6
1000
OPEN
1070
    77
1070
     1
1070
   147
1040
0.5
1002
}
1000
LEANOF
1010
0.0
1020
0.0
1030
0.0
  0
MTEXT
  5
17E6
330
18
100
AcDbEntity
  8
L-2
  6
CONTINUOUS
 62
     2
100
AcDbMText
 10
540.9663705434693
 20
493.0777018930415
 30
0.0
 40
6.4
 41
0.0
 71
     7
 72
     1
  1
ケーブルブラケット
  7
BGS
1001
ACAD
1000
MTEXTBEGIN
1070
    73
1070
     1
1070
    44
1040
1.0
1070
    74
1070
     0
1000
MTEXTEND
  0
MTEXT
  5
17E7
330
18
100
AcDbEntity
  8
L-2
  6
CONTINUOUS
 62
     2
100
AcDbMText
 10
425.9509850017841
 20
483.653450942635
 30
0.0
 40
6.4
 41
0.0
 71
     7
 72
     1
  1
 添付品
  7
BGS
1001
ACAD
1000
MTEXTBEGIN
1070
    73
1070
     1
1070
    44
1040
1.0
1070
    74
1070
     0
1000
MTEXTEND
  0
MTEXT
  5
17E8
330
18
100
AcDbEntity
  8
L-2
  6
CONTINUOUS
 62
     2
100
AcDbMText
 10
536.2957092193389
 20
483.653450942635
 30
0.0
 40
6.4
 41
0.0
 71
     7
 72
     1
  1
 添付品
  7
BGS
1001
ACAD
1000
MTEXTBEGIN
1070
    73
1070
     1
1070
    44
1040
1.0
1070
    74
1070
     0
1000
MTEXTEND
  0
MTEXT
  5
18EB
330
18
100
AcDbEntity
  8
L-2
  6
CONTINUOUS
 62
     2
100
AcDbMText
 10
339.2009355346324
 20
85.25460455440031
 30
0.0
 40
6.4
 41
0.0
 71
     7
 72
     1
  1
アース線取付用ねじ穴
  7
MSゴシック
1001
ACAD
1000
MTEXTBEGIN
1070
    73
1070
     1
1070
    44
1040
1.0
1070
    74
1070
     0
1000
MTEXTEND
  0
MTEXT
  5
18EC
330
18
100
AcDbEntity
  8
L-2
  6
CONTINUOUS
 62
     2
100
AcDbMText
 10
452.9660564909552
 20
85.25460455440031
 30
0.0
 40
6.4
 41
0.0
 71
     7
 72
     1
  1
アース線取付用穴
  7
MSゴシック
1001
ACAD
1000
MTEXTBEGIN
1070
    73
1070
     1
1070
    44
1040
1.0
1070
    74
1070
     0
1000
MTEXTEND
  0
LEADER
  5
18ED
330
18
100
AcDbEntity
  8
L-2
  6
CONTINUOUS
100
AcDbLeader
  3
CAD-STD
 73
     0
 74
     0
 75
     1
 40
6.4
 41
28.26395939086294
 76
     3
 10
442.7239880149419
 20
120.242354621421
 30
0.0
 10
448.2143649841582
 20
93.94452915890315
 30
0.0
 10
453.2143649841582
 20
93.94452915890315
 30
0.0
340
18EE
1001
ACAD
1000
DSTYLE
1002
{
1070
     6
1000
OPEN
1070
    40
1040
2.0
1070
    77
1070
     1
1070
   147
1040
0.5
1002
}
1000
LEANOF
1010
0.0
1020
0.0
1030
0.0
  0
MTEXT
  5
18EE
330
18
100
AcDbEntity
  8
L-2
  6
CONTINUOUS
 62
     2
100
AcDbMText
 10
454.2143649841582
 20
94.94452915890315
 30
0.0
 40
6.4
 41
0.0
 71
     7
 72
     1
  1
\A1;2×%%C4.2
  7
MSゴシック
1001
ACAD
1000
MTEXTBEGIN
1070
    73
1070
     1
1070
    44
1040
1.0
1070
    74
1070
     0
1000
MTEXTEND
  0
LEADER
  5
18EF
330
18
100
AcDbEntity
  8
L-2
  6
CONTINUOUS
100
AcDbLeader
  3
CAD-STD
 73
     0
 75
     1
 40
6.4
 41
19.91472081218274
 76
     3
 10
426.2747432264405
 20
119.8951196818743
 30
0.0
 10
422.8300875384275
 20
93.96486141469063
 30
0.0
 10
417.8300875384275
 20
93.96486141469063
 30
0.0
340
18F0
1001
ACAD
1000
DSTYLE
1002
{
1070
     6
1000
OPEN
1070
    40
1040
2.0
1070
    77
1070
     1
1070
   147
1040
0.5
1002
}
1000
LEANOF
1010
0.0
1020
0.0
1030
0.0
  0
MTEXT
  5
18F0
330
18
100
AcDbEntity
  8
L-2
  6
CONTINUOUS
 62
     2
100
AcDbMText
 10
416.8300875384274
 20
94.96486141469063
 30
0.0
 40
6.4
 41
0.0
 71
     9
 72
     1
  1
\A1;2×M5
  7
MSゴシック
1001
ACAD
1000
MTEXTBEGIN
1070
    73
1070
     1
1070
    44
1040
1.0
1070
    74
1070
     0
1000
MTEXTEND
  0
ARC
  5
18F1
330
18
100
AcDbEntity
  8
L-1
  6
CONTINUOUS
 62
     3
100
AcDbCircle
 10
428.1129989436635
 20
121.5894679099835
 30
0.0
 40
2.5
100
AcDbArc
 50
79.99999999999819
 51
349.9999999999998
  0
ARC
  5
18F3
330
18
100
AcDbEntity
  8
L-1
  6
CONTINUOUS
 62
     3
100
AcDbCircle
 10
157.1129989436637
 20
121.5894679099835
 30
0.0
 40
2.5
100
AcDbArc
 50
79.99999999999819
 51
349.9999999999998
  0
ENDSEC
  0
SECTION
  2
OBJECTS
  0
DICTIONARY
  5
C
330
0
100
AcDbDictionary
  3
ACAD_GROUP
350
D
  3
ACAD_LAYOUT
350
4B
  3
ACAD_MLINESTYLE
350
E
  3
ACAD_PLOTSETTINGS
350
4C
  3
ACADDIM
350
D1
1001
ACAD
1000
TREAT_AS_HARD
1070
     0
  0
DICTIONARY
  5
1968
330
18
100
AcDbDictionary
  3
ACAD_LAYOUTSELFREF
350
1969
  0
DICTIONARY
  5
1966
330
15
100
AcDbDictionary
  3
ACAD_LAYOUTSELFREF
350
1967
  0
DICTIONARY
  5
D
102
{ACAD_REACTORS
330
C
102
}
330
C
100
AcDbDictionary
1001
ACAD
1000
TREAT_AS_HARD
1070
     0
  0
DICTIONARY
  5
4B
102
{ACAD_REACTORS
330
C
102
}
330
C
100
AcDbDictionary
1001
ACAD
1000
TREAT_AS_HARD
1070
     0
  0
DICTIONARY
  5
E
102
{ACAD_REACTORS
330
C
102
}
330
C
100
AcDbDictionary
  3
STANDARD
350
1B
1001
ACAD
1000
TREAT_AS_HARD
1070
     0
  0
DICTIONARY
  5
4C
102
{ACAD_REACTORS
330
C
102
}
330
C
100
AcDbDictionary
  3
A2
350
BB
  3
A3
350
C8
  3
A4
350
C2
  3
PDF_A2
350
B4
  3
PDF_A3
350
A3
  3
PDF_A4
350
98
1001
ACAD
1000
TREAT_AS_HARD
1070
     0
  0
XRECORD
  5
D1
102
{ACAD_REACTORS
330
C
102
}
330
C
100
AcDbXrecord
 90
   990106
  3
OPEN
 60
     0
 61
     0
 62
     4
 63
     4
 64
     1
 65
     0
 66
     0
 67
     3
 68
     1
 69
     0
 70
     0
 71
     0
 72
     0
 40
0.0
170
     1
  0
XRECORD
  5
1969
102
{ACAD_REACTORS
330
1968
102
}
330
1968
100
AcDbXrecord
340
18
  0
XRECORD
  5
1967
102
{ACAD_REACTORS
330
1966
102
}
330
1966
100
AcDbXrecord
340
15
  0
MLINESTYLE
  5
1B
102
{ACAD_REACTORS
330
E
102
}
330
E
100
AcDbMlineStyle
  2
STANDARD
 70
     0
  3

 62
     0
 51
90.0
 52
90.0
 71
     2
 49
0.5
 62
   256
  6
BYLAYER
 49
-0.5
 62
   256
  6
BYLAYER
  0
PLOTSETTINGS
  5
BB
102
{ACAD_REACTORS
330
4C
102
}
330
4C
100
AcDbPlotSettings
  1
A2
  2
Graphtec JC8100-A2.pc3
  4
User260
  6

 40
21.6781940460205
 41
6.649852275848388
 42
6.57928466796875
 43
6.649871826171875
 44
593.9366455078125
 45
419.9466552734374
 46
0.0
 47
-3.0
 48
0.0
 49
0.0
140
0.0
141
0.0
142
1.0
143
1.0
 70
  1712
 72
     1
 73
     0
 74
     0
  7
JC8100.ctb
 75
    16
147
1.0
148
0.0
149
0.0
  0
PLOTSETTINGS
  5
C8
102
{ACAD_REACTORS
330
4C
102
}
330
4C
100
AcDbPlotSettings
  1
A3
  2
Graphtec JC8100-A3.pc3
  4
User261
  6

 40
21.6781940460205
 41
6.649852275848388
 42
6.649871826171875
 43
6.649871826171875
 44
419.9466552734374
 45
296.9683227539062
 46
0.0
 47
0.0
 48
0.0
 49
0.0
140
0.0
141
0.0
142
1.0
143
1.0
 70
  1712
 72
     1
 73
     0
 74
     0
  7
JC8100.ctb
 75
    16
147
1.0
148
0.0
149
0.0
  0
PLOTSETTINGS
  5
C2
102
{ACAD_REACTORS
330
4C
102
}
330
4C
100
AcDbPlotSettings
  1
A4
  2
Graphtec JC8100-A4.pc3
  4
User262
  6

 40
21.6781940460205
 41
6.649852275848388
 42
6.649856567382812
 43
6.649871826171875
 44
209.9733276367187
 45
296.9683227539062
 46
0.0
 47
0.0
 48
0.0
 49
0.0
140
0.0
141
0.0
142
1.0
143
1.0
 70
  1712
 72
     1
 73
     0
 74
     0
  7
JC8100.ctb
 75
    16
147
1.0
148
0.0
149
0.0
  0
PLOTSETTINGS
  5
B4
102
{ACAD_REACTORS
330
4C
102
}
330
4C
100
AcDbPlotSettings
  1
PDF A2
  2
Adobe PDF_A2.pc3
  4
User187
  6

 40
3.174999952316284
 41
3.174999952316284
 42
3.17498779296875
 43
3.17498779296875
 44
594.0636596679687
 45
420.1583251953125
 46
20.0
 47
0.0
 48
0.0
 49
0.0
140
0.0
141
0.0
142
1.0
143
1.0
 70
  1712
 72
     1
 73
     0
 74
     0
  7
PDFstyle.ctb
 75
    16
147
1.0
148
0.0
149
0.0
  0
PLOTSETTINGS
  5
A3
102
{ACAD_REACTORS
330
4C
102
}
330
4C
100
AcDbPlotSettings
  1
PDF A3
  2
Adobe PDF_A3.pc3
  4
A3
  6

 40
3.174999952316284
 41
3.174999952316284
 42
3.17498779296875
 43
3.17498779296875
 44
297.0530090332031
 45
420.1583251953125
 46
15.0
 47
3.0
 48
0.0
 49
0.0
140
0.0
141
0.0
142
1.0
143
1.0
 70
  1712
 72
     1
 73
     0
 74
     0
  7
PDFstyle.ctb
 75
    16
147
1.0
148
0.0
149
0.0
  0
PLOTSETTINGS
  5
98
102
{ACAD_REACTORS
330
4C
102
}
330
4C
100
AcDbPlotSettings
  1
PDF A4
  2
Adobe PDF_A4.pc3
  4
A4
  6

 40
3.174999952316284
 41
3.174999952316284
 42
3.175003051757812
 43
3.17498779296875
 44
209.8886566162109
 45
297.0530090332031
 46
15.0
 47
3.0
 48
0.0
 49
0.0
140
0.0
141
0.0
142
1.0
143
1.0
 70
  1712
 72
     1
 73
     0
 74
     0
  7
PDFstyle.ctb
 75
    16
147
1.0
148
0.0
149
0.0
  0
ENDSEC
  0
EOF
